  0
SECTION
  2
HEADER
  9
$ACADVER
  1
AC1015
  9
$ACADMAINTVER
 70
     6
  9
$DWGCODEPAGE
  3
ANSI_1252
  9
$INSBASE
 10
0.0
 20
0.0
 30
0.0
  9
$EXTMIN
 10
0.0
 20
0.0
 30
0.0
  9
$EXTMAX
 10
420.0
 20
297.0
 30
0.0
  9
$LIMMIN
 10
0.0
 20
0.0
  9
$LIMMAX
 10
420.0
 20
297.0
  9
$ORTHOMODE
 70
     0
  9
$REGENMODE
 70
     1
  9
$FILLMODE
 70
     1
  9
$QTEXTMODE
 70
     0
  9
$MIRRTEXT
 70
     1
  9
$LTSCALE
 40
1.0
  9
$ATTMODE
 70
     1
  9
$TEXTSIZE
 40
3.0
  9
$TRACEWID
 40
1.0
  9
$TEXTSTYLE
  7
STANDARD
  9
$CLAYER
  8
0
  9
$CELTYPE
  6
ByLayer
  9
$CECOLOR
 62
   256
  9
$CELTSCALE
 40
1.0
  9
$DISPSILH
 70
     0
  9
$DIMSCALE
 40
1.0
  9
$DIMASZ
 40
2.5
  9
$DIMEXO
 40
1.0
  9
$DIMDLI
 40
3.75
  9
$DIMRND
 40
0.0
  9
$DIMDLE
 40
0.0
  9
$DIMEXE
 40
1.0
  9
$DIMTP
 40
0.0
  9
$DIMTM
 40
0.0
  9
$DIMTXT
 40
3.0
  9
$DIMCEN
 40
2.5
  9
$DIMTSZ
 40
0.0
  9
$DIMTOL
 70
     0
  9
$DIMLIM
 70
     0
  9
$DIMTIH
 70
     1
  9
$DIMTOH
 70
     1
  9
$DIMSE1
 70
     0
  9
$DIMSE2
 70
     0
  9
$DIMTAD
 70
     1
  9
$DIMZIN
 70
     0
  9
$DIMBLK
  1

  9
$DIMASO
 70
     1
  9
$DIMSHO
 70
     1
  9
$DIMPOST
  1

  9
$DIMAPOST
  1

  9
$DIMALT
 70
     0
  9
$DIMALTD
 70
     3
  9
$DIMALTF
 40
0.0393700787
  9
$DIMLFAC
 40
1.0
  9
$DIMTOFL
 70
     1
  9
$DIMTVP
 40
0.0
  9
$DIMTIX
 70
     0
  9
$DIMSOXD
 70
     0
  9
$DIMSAH
 70
     0
  9
$DIMBLK1
  1

  9
$DIMBLK2
  1

  9
$DIMSTYLE
  2
ISO-25
  9
$DIMCLRD
 70
     0
  9
$DIMCLRE
 70
     0
  9
$DIMCLRT
 70
     0
  9
$DIMTFAC
 40
1.0
  9
$DIMGAP
 40
1.524
  9
$DIMJUST
 70
     0
  9
$DIMSD1
 70
     0
  9
$DIMSD2
 70
     0
  9
$DIMTOLJ
 70
     0
  9
$DIMTZIN
 70
     0
  9
$DIMALTZ
 70
     0
  9
$DIMALTTZ
 70
     0
  9
$DIMUPT
 70
     0
  9
$DIMDEC
 70
     3
  9
$DIMTDEC
 70
     3
  9
$DIMALTU
 70
     2
  9
$DIMALTTD
 70
     3
  9
$DIMTXSTY
  7
STANDARD
  9
$DIMAUNIT
 70
     0
  9
$DIMADEC
 70
     3
  9
$DIMALTRND
 40
0.0
  9
$DIMAZIN
 70
     0
  9
$DIMDSEP
 70
    44
  9
$DIMATFIT
 70
     3
  9
$DIMFRAC
 70
     0
  9
$DIMLDRBLK
  1

  9
$DIMLUNIT
 70
     2
  9
$DIMLWD
 70
    -2
  9
$DIMLWE
 70
    -2
  9
$DIMTMOVE
 70
     0
  9
$LUNITS
 70
     2
  9
$LUPREC
 70
     3
  9
$SKETCHINC
 40
1.0
  9
$FILLETRAD
 40
10.0
  9
$AUNITS
 70
     0
  9
$AUPREC
 70
     3
  9
$MENU
  1
.
  9
$ELEVATION
 40
0.0
  9
$PELEVATION
 40
0.0
  9
$THICKNESS
 40
0.0
  9
$LIMCHECK
 70
     0
  9
$CHAMFERA
 40
0.0
  9
$CHAMFERB
 40
0.0
  9
$CHAMFERC
 40
0.0
  9
$CHAMFERD
 40
0.0
  9
$SKPOLY
 70
     0
  9
$TDCREATE
 40
2459768.684614699
  9
$TDUCREATE
 40
2459768.601281366
  9
$TDUPDATE
 40
2459768.684619074
  9
$TDUUPDATE
 40
2459768.601285741
  9
$TDINDWG
 40
0.0000000116
  9
$TDUSRTIMER
 40
0.0000000116
  9
$USRTIMER
 70
     1
  9
$ANGBASE
 50
0.0
  9
$ANGDIR
 70
     0
  9
$PDMODE
 70
     0
  9
$PDSIZE
 40
-1.0
  9
$PLINEWID
 40
0.0
  9
$SPLFRAME
 70
     0
  9
$SPLINETYPE
 70
     6
  9
$SPLINESEGS
 70
     8
  9
$HANDSEED
  5
3F9
  9
$SURFTAB1
 70
     6
  9
$SURFTAB2
 70
     6
  9
$SURFTYPE
 70
     6
  9
$SURFU
 70
     6
  9
$SURFV
 70
     6
  9
$UCSBASE
  2

  9
$UCSNAME
  2

  9
$UCSORG
 10
0.0
 20
0.0
 30
0.0
  9
$UCSXDIR
 10
1.0
 20
0.0
 30
0.0
  9
$UCSYDIR
 10
0.0
 20
1.0
 30
0.0
  9
$UCSORTHOREF
  2

  9
$UCSORTHOVIEW
 70
     0
  9
$UCSORGTOP
 10
0.0
 20
0.0
 30
0.0
  9
$UCSORGBOTTOM
 10
0.0
 20
0.0
 30
0.0
  9
$UCSORGLEFT
 10
0.0
 20
0.0
 30
0.0
  9
$UCSORGRIGHT
 10
0.0
 20
0.0
 30
0.0
  9
$UCSORGFRONT
 10
0.0
 20
0.0
 30
0.0
  9
$UCSORGBACK
 10
0.0
 20
0.0
 30
0.0
  9
$PUCSBASE
  2

  9
$PUCSNAME
  2

  9
$PUCSORG
 10
0.0
 20
0.0
 30
0.0
  9
$PUCSXDIR
 10
1.0
 20
0.0
 30
0.0
  9
$PUCSYDIR
 10
0.0
 20
1.0
 30
0.0
  9
$PUCSORTHOREF
  2

  9
$PUCSORTHOVIEW
 70
     0
  9
$PUCSORGTOP
 10
0.0
 20
0.0
 30
0.0
  9
$PUCSORGBOTTOM
 10
0.0
 20
0.0
 30
0.0
  9
$PUCSORGLEFT
 10
0.0
 20
0.0
 30
0.0
  9
$PUCSORGRIGHT
 10
0.0
 20
0.0
 30
0.0
  9
$PUCSORGFRONT
 10
0.0
 20
0.0
 30
0.0
  9
$PUCSORGBACK
 10
0.0
 20
0.0
 30
0.0
  9
$USERI1
 70
     0
  9
$USERI2
 70
     0
  9
$USERI3
 70
     0
  9
$USERI4
 70
     0
  9
$USERI5
 70
     0
  9
$USERR1
 40
0.0
  9
$USERR2
 40
0.0
  9
$USERR3
 40
0.0
  9
$USERR4
 40
0.0
  9
$USERR5
 40
0.0
  9
$WORLDVIEW
 70
     1
  9
$SHADEDGE
 70
     3
  9
$SHADEDIF
 70
    70
  9
$TILEMODE
 70
     1
  9
$MAXACTVP
 70
    64
  9
$PINSBASE
 10
0.0
 20
0.0
 30
0.0
  9
$PLIMCHECK
 70
     0
  9
$PEXTMIN
 10
1.0000000000E+20
 20
1.0000000000E+20
 30
1.0000000000E+20
  9
$PEXTMAX
 10
-1.0000000000E+20
 20
-1.0000000000E+20
 30
-1.0000000000E+20
  9
$PLIMMIN
 10
0.0
 20
0.0
  9
$PLIMMAX
 10
420.0
 20
297.0
  9
$UNITMODE
 70
     0
  9
$VISRETAIN
 70
     1
  9
$PLINEGEN
 70
     0
  9
$PSLTSCALE
 70
     1
  9
$TREEDEPTH
 70
  3020
  9
$CMLSTYLE
  2
Standard
  9
$CMLJUST
 70
     0
  9
$CMLSCALE
 40
20.0
  9
$PROXYGRAPHICS
 70
     1
  9
$MEASUREMENT
 70
     1
  9
$CELWEIGHT
370
    -1
  9
$ENDCAPS
280
     0
  9
$JOINSTYLE
280
     0
  9
$LWDISPLAY
290
     1
  9
$INSUNITS
 70
     4
  9
$HYPERLINKBASE
  1

  9
$STYLESHEET
  1

  9
$XEDIT
290
     1
  9
$CEPSNTYPE
380
     0
  9
$PSTYLEMODE
290
     1
  9
$FINGERPRINTGUID
  2
{987776C5-53B0-4381-B3BC-D858A27C19CF}
  9
$VERSIONGUID
  2
{FAEB1C32-E019-11D5-929B-00C0DF256EC4}
  9
$EXTNAMES
290
     1
  9
$PSVPSCALE
 40
0.0
  9
$OLESTARTUP
290
     0
  0
ENDSEC
  0
SECTION
  2
CLASSES
  0
CLASS
  1
ACDBDICTIONARYWDFLT
  2
AcDbDictionaryWithDefault
  3
ObjectDBX Classes
 90
        0
280
     0
281
     0
  0
CLASS
  1
VISUALSTYLE
  2
AcDbVisualStyle
  3
ObjectDBX Classes
 90
     4095
280
     0
281
     0
  0
CLASS
  1
MATERIAL
  2
AcDbMaterial
  3
ObjectDBX Classes
 90
     1153
280
     0
281
     0
  0
CLASS
  1
SCALE
  2
AcDbScale
  3
ObjectDBX Classes
 90
     1153
280
     0
281
     0
  0
CLASS
  1
TABLESTYLE
  2
AcDbTableStyle
  3
ObjectDBX Classes
 90
     4095
280
     0
281
     0
  0
CLASS
  1
MLEADERSTYLE
  2
AcDbMLeaderStyle
  3
ACDB_MLEADERSTYLE_CLASS
 90
     4095
280
     0
281
     0
  0
CLASS
  1
SUN
  2
AcDbSun
  3
SCENEOE
 90
     1153
280
     0
281
     0
  0
CLASS
  1
ACDBPLACEHOLDER
  2
AcDbPlaceHolder
  3
ObjectDBX Classes
 90
        0
280
     0
281
     0
  0
CLASS
  1
LAYOUT
  2
AcDbLayout
  3
ObjectDBX Classes
 90
        0
280
     0
281
     0
  0
ENDSEC
  0
SECTION
  2
TABLES
  0
TABLE
  2
VPORT
  5
8
330
0
100
AcDbSymbolTable
 70
     1
  0
VPORT
  5
29
330
8
100
AcDbSymbolTableRecord
100
AcDbViewportTableRecord
  2
*Active
 70
     0
 10
0.0
 20
0.0
 11
1.0
 21
1.0
 12
210.0
 22
148.5
 13
0.0
 23
0.0
 14
10.0
 24
10.0
 15
10.0
 25
10.0
 16
0.0
 26
0.0
 36
1.0
 17
0.0
 27
0.0
 37
0.0
 40
297.0
 41
1.4141414141
 42
50.0
 43
0.0
 44
0.0
 50
0.0
 51
0.0
 71
     0
 72
  2000
 73
     1
 74
     3
 75
     0
 76
     0
 77
     0
 78
     0
281
     0
 65
     1
110
0.0
120
0.0
130
0.0
111
1.0
121
0.0
131
0.0
112
0.0
122
1.0
132
0.0
 79
     0
146
0.0
  0
ENDTAB
  0
TABLE
  2
LTYPE
  5
5
330
0
100
AcDbSymbolTable
 70
     8
  0
LTYPE
  5
14
330
5
100
AcDbSymbolTableRecord
100
AcDbLinetypeTableRecord
  2
ByBlock
 70
     0
  3

 72
    65
 73
     0
 40
0.0
  0
LTYPE
  5
15
330
5
100
AcDbSymbolTableRecord
100
AcDbLinetypeTableRecord
  2
ByLayer
 70
     0
  3

 72
    65
 73
     0
 40
0.0
  0
LTYPE
  5
16
330
5
100
AcDbSymbolTableRecord
100
AcDbLinetypeTableRecord
  2
Continuous
 70
     0
  3
Solid line
 72
    65
 73
     0
 40
0.0
  0
LTYPE
  5
6E
330
5
100
AcDbSymbolTableRecord
100
AcDbLinetypeTableRecord
  2
SLD-Durchgehend
 70
     0
  3
SolidWorks Line Style
 72
    65
 73
     0
 40
0.0
  0
LTYPE
  5
6F
330
5
100
AcDbSymbolTableRecord
100
AcDbLinetypeTableRecord
  2
SLD-Gestrichelt
 70
     0
  3
SolidWorks Line Style
 72
    65
 73
     2
 40
1.905
 49
1.27
 74
     0
 49
-0.635
 74
     0
  0
LTYPE
  5
70
330
5
100
AcDbSymbolTableRecord
100
AcDbLinetypeTableRecord
  2
SLD-Phantom
 70
     0
  3
SolidWorks Line Style
 72
    65
 73
     6
 40
12.7
 49
6.35
 74
     0
 49
-1.27
 74
     0
 49
1.27
 74
     0
 49
-1.27
 74
     0
 49
1.27
 74
     0
 49
-1.27
 74
     0
  0
LTYPE
  5
71
330
5
100
AcDbSymbolTableRecord
100
AcDbLinetypeTableRecord
  2
SLD-Kette
 70
     0
  3
SolidWorks Line Style
 72
    65
 73
     4
 40
10.16
 49
6.35
 74
     0
 49
-1.27
 74
     0
 49
1.27
 74
     0
 49
-1.27
 74
     0
  0
LTYPE
  5
72
330
5
100
AcDbSymbolTableRecord
100
AcDbLinetypeTableRecord
  2
SLD-Punktstrich
 70
     0
  3
SolidWorks Line Style
 72
    65
 73
     4
 40
19.05
 49
15.24
 74
     0
 49
-1.27
 74
     0
 49
1.27
 74
     0
 49
-1.27
 74
     0
  0
LTYPE
  5
73
330
5
100
AcDbSymbolTableRecord
100
AcDbLinetypeTableRecord
  2
SLD-Naht
 70
     0
  3
SolidWorks Line Style
 72
    65
 73
     2
 40
0.635
 49
0.0
 74
     0
 49
-0.635
 74
     0
  0
LTYPE
  5
74
330
5
100
AcDbSymbolTableRecord
100
AcDbLinetypeTableRecord
  2
SLD-Dicke-Dünne-Kette
 70
     0
  3
SolidWorks Line Style
 72
    65
 73
     4
 40
10.16
 49
6.35
 74
     0
 49
-1.27
 74
     0
 49
1.27
 74
     0
 49
-1.27
 74
     0
  0
ENDTAB
  0
TABLE
  2
LAYER
  5
2
330
0
100
AcDbSymbolTable
 70
     1
  0
LAYER
  5
10
330
2
100
AcDbSymbolTableRecord
100
AcDbLayerTableRecord
  2
0
 70
     0
 62
     7
  6
Continuous
370
    -3
390
F
  0
ENDTAB
  0
TABLE
  2
STYLE
  5
3
330
0
100
AcDbSymbolTable
 70
     5
  0
STYLE
  5
11
330
3
100
AcDbSymbolTableRecord
100
AcDbTextStyleTableRecord
  2
STANDARD
 70
     0
 40
0.0
 41
1.0
 50
0.0
 71
     0
 42
3.0
  3
ARIAL.TTF
  4

1001
ACAD
1000
ARIAL
1071
       34
  0
STYLE
  5
7C
330
3
100
AcDbSymbolTableRecord
100
AcDbTextStyleTableRecord
  2
SLDTEXTSTYLE0
 70
     0
 40
0.0
 41
0.948
 50
0.0
 71
     0
 42
3.0
  3
ARIAL.TTF
  4

1001
ACAD
1000
Arial
1071
      290
  0
STYLE
  5
128
330
3
100
AcDbSymbolTableRecord
100
AcDbTextStyleTableRecord
  2
SLDTEXTSTYLE1
 70
     0
 40
0.0
 41
1.0
 50
0.0
 71
     0
 42
3.0
  3
HLHI___.TTF
  4

1001
ACAD
1000
Helvetica 65 Medium
1071
 50331938
  0
STYLE
  5
12A
330
3
100
AcDbSymbolTableRecord
100
AcDbTextStyleTableRecord
  2
SLDTEXTSTYLE2
 70
     0
 40
0.0
 41
1.0
 50
0.0
 71
     0
 42
3.0
  3
HLR____.TTF
  4

1001
ACAD
1000
Helvetica 55 Roman
1071
 16777506
  0
STYLE
  5
138
330
3
100
AcDbSymbolTableRecord
100
AcDbTextStyleTableRecord
  2
SLDTEXTSTYLE3
 70
     0
 40
0.0
 41
0.948
 50
0.0
 71
     0
 42
3.0
  3
ARIALBD.TTF
  4

1001
ACAD
1000
Arial
1071
 33554722
  0
ENDTAB
  0
TABLE
  2
VIEW
  5
6
330
0
100
AcDbSymbolTable
 70
     0
  0
ENDTAB
  0
TABLE
  2
UCS
  5
7
330
0
100
AcDbSymbolTable
 70
     0
  0
ENDTAB
  0
TABLE
  2
APPID
  5
9
330
0
100
AcDbSymbolTable
 70
     1
  0
APPID
  5
12
330
9
100
AcDbSymbolTableRecord
100
AcDbRegAppTableRecord
  2
ACAD
 70
     0
  0
ENDTAB
  0
TABLE
  2
DIMSTYLE
  5
A
330
0
100
AcDbSymbolTable
 70
     4
100
AcDbDimStyleTable
  0
DIMSTYLE
105
27
330
A
100
AcDbSymbolTableRecord
100
AcDbDimStyleTableRecord
  2
ISO-25
 70
     0
 41
2.5
 42
0.625
 43
3.75
 44
1.25
 73
     0
 74
     0
 77
     1
 78
     8
140
2.5
141
2.5
143
0.0393700787
147
0.625
171
     3
172
     1
178
     0
271
     2
272
     2
274
     3
278
    44
283
     0
284
     8
340
11
  0
DIMSTYLE
105
19C
330
A
100
AcDbSymbolTableRecord
100
AcDbDimStyleTableRecord
  2
SLDDIMSTYLE0
 70
     0
 41
2.5
 44
0.0
 45
0.000000001
146
2.5
147
0.0
173
     1
178
     0
271
     0
272
     0
276
     2
340
11
  0
DIMSTYLE
105
1A1
102
{ACAD_REACTORS
330
1A0
330
1AB
330
1B5
330
1BF
330
1C9
330
1D3
330
1DD
330
2F1
330
308
102
}
330
A
100
AcDbSymbolTableRecord
100
AcDbDimStyleTableRecord
  2
SLDDIMSTYLE1
 70
     0
 41
2.5
 44
0.0
 45
0.000000001
 73
     0
 74
     0
 77
     1
 78
    12
 79
     3
140
3.0
147
0.75
173
     1
178
     0
271
     3
272
     3
276
     2
284
    12
340
7C
  0
DIMSTYLE
105
2FC
102
{ACAD_REACTORS
330
2FB
102
}
330
A
100
AcDbSymbolTableRecord
100
AcDbDimStyleTableRecord
  2
SLDDIMSTYLE2
 70
     0
 41
2.5
 44
0.0
 45
0.000000001
 73
     0
 74
     0
 77
     1
 78
    12
 79
     3
140
3.0
147
0.75
172
     1
173
     1
178
     0
271
     3
272
     3
276
     2
284
    12
289
     0
340
7C
  0
ENDTAB
  0
TABLE
  2
BLOCK_RECORD
  5
1
330
0
100
AcDbSymbolTable
 70
    24
  0
BLOCK_RECORD
  5
1F
330
1
100
AcDbSymbolTableRecord
100
AcDbBlockTableRecord
  2
*Model_Space
340
22
  0
BLOCK_RECORD
  5
1B
330
1
100
AcDbSymbolTableRecord
100
AcDbBlockTableRecord
  2
*Paper_Space
340
1E
  0
BLOCK_RECORD
  5
23
330
1
100
AcDbSymbolTableRecord
100
AcDbBlockTableRecord
  2
*Paper_Space0
340
26
  0
BLOCK_RECORD
  5
75
330
1
100
AcDbSymbolTableRecord
100
AcDbBlockTableRecord
  2
Änderungsindex a
340
0
  0
BLOCK_RECORD
  5
78
330
1
100
AcDbSymbolTableRecord
100
AcDbBlockTableRecord
  2
SW_NOTE_0
340
0
102
{BLKREFS
331
7E
102
}
  0
BLOCK_RECORD
  5
7F
330
1
100
AcDbSymbolTableRecord
100
AcDbBlockTableRecord
  2
Zuluft Text
340
0
102
{BLKREFS
331
19B
102
}
  0
BLOCK_RECORD
  5
82
330
1
100
AcDbSymbolTableRecord
100
AcDbBlockTableRecord
  2
SW_NOTE_1
340
0
102
{BLKREFS
331
89
102
}
  0
BLOCK_RECORD
  5
8A
330
1
100
AcDbSymbolTableRecord
100
AcDbBlockTableRecord
  2
Abluft Text
340
0
102
{BLKREFS
331
19E
102
}
  0
BLOCK_RECORD
  5
8D
330
1
100
AcDbSymbolTableRecord
100
AcDbBlockTableRecord
  2
SW_NOTE_2
340
0
102
{BLKREFS
331
94
102
}
  0
BLOCK_RECORD
  5
124
330
1
100
AcDbSymbolTableRecord
100
AcDbBlockTableRecord
  2
SW_NOTE_3
340
0
102
{BLKREFS
331
12D
102
}
  0
BLOCK_RECORD
  5
12F
330
1
100
AcDbSymbolTableRecord
100
AcDbBlockTableRecord
  2
SW_NOTE_4
340
0
102
{BLKREFS
331
134
102
}
  0
BLOCK_RECORD
  5
1A2
330
1
100
AcDbSymbolTableRecord
100
AcDbBlockTableRecord
  2
_D
340
0
  0
BLOCK_RECORD
  5
1AC
330
1
100
AcDbSymbolTableRecord
100
AcDbBlockTableRecord
  2
_D_1
340
0
  0
BLOCK_RECORD
  5
1B6
330
1
100
AcDbSymbolTableRecord
100
AcDbBlockTableRecord
  2
_D_2
340
0
  0
BLOCK_RECORD
  5
1C0
330
1
100
AcDbSymbolTableRecord
100
AcDbBlockTableRecord
  2
_D_3
340
0
  0
BLOCK_RECORD
  5
1CA
330
1
100
AcDbSymbolTableRecord
100
AcDbBlockTableRecord
  2
_D_4
340
0
  0
BLOCK_RECORD
  5
1D4
330
1
100
AcDbSymbolTableRecord
100
AcDbBlockTableRecord
  2
_D_5
340
0
  0
BLOCK_RECORD
  5
1DE
330
1
100
AcDbSymbolTableRecord
100
AcDbBlockTableRecord
  2
_D_6
340
0
  0
BLOCK_RECORD
  5
1E6
330
1
100
AcDbSymbolTableRecord
100
AcDbBlockTableRecord
  2
SW_CENTERMARKSYMBOL_0
340
0
102
{BLKREFS
331
1F1
102
}
  0
BLOCK_RECORD
  5
2F2
330
1
100
AcDbSymbolTableRecord
100
AcDbBlockTableRecord
  2
_D_7
340
0
  0
BLOCK_RECORD
  5
2FD
330
1
100
AcDbSymbolTableRecord
100
AcDbBlockTableRecord
  2
_D_8
340
0
  0
BLOCK_RECORD
  5
309
330
1
100
AcDbSymbolTableRecord
100
AcDbBlockTableRecord
  2
_D_9
340
0
  0
BLOCK_RECORD
  5
312
330
1
100
AcDbSymbolTableRecord
100
AcDbBlockTableRecord
  2
SW_CENTERMARKSYMBOL_1
340
0
102
{BLKREFS
331
31D
102
}
  0
BLOCK_RECORD
  5
31E
330
1
100
AcDbSymbolTableRecord
100
AcDbBlockTableRecord
  2
SW_CENTERMARKSYMBOL_2
340
0
102
{BLKREFS
331
329
102
}
  0
BLOCK_RECORD
  5
32A
330
1
100
AcDbSymbolTableRecord
100
AcDbBlockTableRecord
  2
SW_CENTERMARKSYMBOL_3
340
0
102
{BLKREFS
331
335
102
}
  0
BLOCK_RECORD
  5
336
330
1
100
AcDbSymbolTableRecord
100
AcDbBlockTableRecord
  2
SW_CENTERMARKSYMBOL_4
340
0
102
{BLKREFS
331
341
102
}
  0
ENDTAB
  0
ENDSEC
  0
SECTION
  2
BLOCKS
  0
BLOCK
  5
20
330
1F
100
AcDbEntity
  8
0
100
AcDbBlockBegin
  2
*Model_Space
 70
     0
 10
0.0
 20
0.0
 30
0.0
  3
*Model_Space
  1

  0
ENDBLK
  5
21
330
1F
100
AcDbEntity
  8
0
100
AcDbBlockEnd
  0
BLOCK
  5
1C
330
1B
100
AcDbEntity
 67
     1
  8
0
100
AcDbBlockBegin
  2
*Paper_Space
 70
     0
 10
0.0
 20
0.0
 30
0.0
  3
*Paper_Space
  1

  0
ENDBLK
  5
1D
330
1B
100
AcDbEntity
 67
     1
  8
0
100
AcDbBlockEnd
  0
BLOCK
  5
24
330
23
100
AcDbEntity
  8
0
100
AcDbBlockBegin
  2
*Paper_Space0
 70
     0
 10
0.0
 20
0.0
 30
0.0
  3
*Paper_Space0
  1

  0
ENDBLK
  5
25
330
23
100
AcDbEntity
  8
0
100
AcDbBlockEnd
  0
BLOCK
  5
76
330
75
100
AcDbEntity
  8
0
100
AcDbBlockBegin
  2
Änderungsindex a
 70
     0
 10
0.0
 20
0.0
 30
0.0
  3
Änderungsindex a
  1

  0
INSERT
  5
7E
330
75
100
AcDbEntity
  8
0
  6
Continuous
 62
     7
370
     0
100
AcDbBlockReference
  2
SW_NOTE_0
 10
-2.6785442717
 20
-4.2179726306
 30
0.0
  0
ENDBLK
  5
77
330
75
100
AcDbEntity
  8
0
100
AcDbBlockEnd
  0
BLOCK
  5
79
330
78
100
AcDbEntity
  8
0
100
AcDbBlockBegin
  2
SW_NOTE_0
 70
     0
 10
0.0
 20
0.0
 30
0.0
  3
SW_NOTE_0
  1

  0
CIRCLE
  5
7B
330
78
100
AcDbEntity
  8
0
  6
SLD-Durchgehend
 62
     0
370
     0
100
AcDbCircle
 10
2.2903442717
 20
4.4413809806
 30
0.0
 40
4.60970460902865
  0
MTEXT
  5
7D
330
78
100
AcDbEntity
  8
0
  6
Continuous
 62
     0
370
     0
100
AcDbMText
 10
0.0
 20
7.7344064386
 30
0.0
 40
6.0
 41
0.0
 71
     1
 72
     1
  1
a
  7
SLDTEXTSTYLE0
 73
     1
 44
1.0
  0
ENDBLK
  5
7A
330
78
100
AcDbEntity
  8
0
100
AcDbBlockEnd
  0
BLOCK
  5
80
330
7F
100
AcDbEntity
  8
0
100
AcDbBlockBegin
  2
Zuluft Text
 70
     0
 10
0.0
 20
0.0
 30
0.0
  3
Zuluft Text
  1

  0
INSERT
  5
89
330
7F
100
AcDbEntity
  8
0
  6
Continuous
 62
     7
370
     0
100
AcDbBlockReference
  2
SW_NOTE_1
 10
0.1613250167
 20
8.3026932579
 30
0.0
  0
ENDBLK
  5
81
330
7F
100
AcDbEntity
  8
0
100
AcDbBlockEnd
  0
BLOCK
  5
83
330
82
100
AcDbEntity
  8
0
100
AcDbBlockBegin
  2
SW_NOTE_1
 70
     0
 10
0.0
 20
0.0
 30
0.0
  3
SW_NOTE_1
  1

  0
MTEXT
  5
85
330
82
100
AcDbEntity
  8
0
  6
Continuous
 62
     0
370
     0
100
AcDbMText
 10
0.0
 20
4.0927900738
 30
0.0
 40
3.175
 41
0.0
 71
     1
 72
     1
  1
G1/4 
  7
SLDTEXTSTYLE0
 73
     1
 44
1.0
  0
MTEXT
  5
86
330
82
100
AcDbEntity
  8
0
  6
Continuous
 62
     0
370
     0
100
AcDbMText
 10
0.0
 20
-0.1405432084
 30
0.0
 40
3.175
 41
0.0
 71
     1
 72
     1
  1
Zuluft
  7
SLDTEXTSTYLE0
 73
     1
 44
1.0
  0
MTEXT
  5
87
330
82
100
AcDbEntity
  8
0
  6
Continuous
 62
     0
370
     0
100
AcDbMText
 10
0.0
 20
-4.3738764906
 30
0.0
 40
3.175
 41
0.0
 71
     1
 72
     1
  1
Air supply
  7
SLDTEXTSTYLE0
 73
     1
 44
1.0
  0
MTEXT
  5
88
330
82
100
AcDbEntity
  8
0
  6
Continuous
 62
     0
370
     0
100
AcDbMText
 10
0.0
 20
-8.6072097727
 30
0.0
 40
3.175
 41
0.0
 71
     1
 72
     1
  1
Arrivée d´air
  7
SLDTEXTSTYLE0
 73
     1
 44
1.0
  0
ENDBLK
  5
84
330
82
100
AcDbEntity
  8
0
100
AcDbBlockEnd
  0
BLOCK
  5
8B
330
8A
100
AcDbEntity
  8
0
100
AcDbBlockBegin
  2
Abluft Text
 70
     0
 10
0.0
 20
0.0
 30
0.0
  3
Abluft Text
  1

  0
INSERT
  5
94
330
8A
100
AcDbEntity
  8
0
  6
Continuous
 62
     7
370
     0
100
AcDbBlockReference
  2
SW_NOTE_2
 10
-5.2446904882
 20
15.5999407175
 30
0.0
  0
ENDBLK
  5
8C
330
8A
100
AcDbEntity
  8
0
100
AcDbBlockEnd
  0
BLOCK
  5
8E
330
8D
100
AcDbEntity
  8
0
100
AcDbBlockBegin
  2
SW_NOTE_2
 70
     0
 10
0.0
 20
0.0
 30
0.0
  3
SW_NOTE_2
  1

  0
MTEXT
  5
90
330
8D
100
AcDbEntity
  8
0
  6
Continuous
 62
     0
370
     0
100
AcDbMText
 10
0.0
 20
3.8672032193
 30
0.0
 40
3.0
 41
0.0
 71
     1
 72
     1
  1
G1/4
  7
SLDTEXTSTYLE0
 73
     1
 44
1.0
  0
MTEXT
  5
91
330
8D
100
AcDbEntity
  8
0
  6
Continuous
 62
     0
370
     0
100
AcDbMText
 10
0.0
 20
-0.1327969707
 30
0.0
 40
3.0
 41
0.0
 71
     1
 72
     1
  1
Abluft
  7
SLDTEXTSTYLE0
 73
     1
 44
1.0
  0
MTEXT
  5
92
330
8D
100
AcDbEntity
  8
0
  6
Continuous
 62
     0
370
     0
100
AcDbMText
 10
0.0
 20
-4.1327971607
 30
0.0
 40
3.0
 41
0.0
 71
     1
 72
     1
  1
Exhaust
  7
SLDTEXTSTYLE0
 73
     1
 44
1.0
  0
MTEXT
  5
93
330
8D
100
AcDbEntity
  8
0
  6
Continuous
 62
     0
370
     0
100
AcDbMText
 10
0.0
 20
-8.1327973507
 30
0.0
 40
3.0
 41
0.0
 71
     1
 72
     1
  1
Echappment
  7
SLDTEXTSTYLE0
 73
     1
 44
1.0
  0
ENDBLK
  5
8F
330
8D
100
AcDbEntity
  8
0
100
AcDbBlockEnd
  0
BLOCK
  5
125
330
124
100
AcDbEntity
  8
0
100
AcDbBlockBegin
  2
SW_NOTE_3
 70
     0
 10
0.0
 20
0.0
 30
0.0
  3
SW_NOTE_3
  1

  0
MTEXT
  5
127
330
124
100
AcDbEntity
  8
0
  6
Continuous
 62
     0
370
     0
100
AcDbMText
 10
0.0
 20
2.3874608764
 30
0.0
 40
1.8520833333
 41
0.0
 71
     1
 72
     1
  1
Tel.: +49 6134 2901-0, www.
  7
SLDTEXTSTYLE0
 73
     1
 44
1.0
  0
MTEXT
  5
129
330
124
100
AcDbEntity
  8
0
  6
Continuous
 62
     0
370
     0
100
AcDbMText
 10
31.6226072609
 20
2.2325681125
 30
0.0
 40
1.8520833333
 41
0.0
 71
     1
 72
     1
  1
Netter
  7
SLDTEXTSTYLE1
 73
     1
 44
1.0
  0
MTEXT
  5
12B
330
124
100
AcDbEntity
  8
0
  6
Continuous
 62
     0
370
     0
100
AcDbMText
 10
39.4425168633
 20
2.3157006648
 30
0.0
 40
1.8520833333
 41
0.0
 71
     1
 72
     1
  1
Vibration
  7
SLDTEXTSTYLE2
 73
     1
 44
1.0
  0
MTEXT
  5
12C
330
124
100
AcDbEntity
  8
0
  6
Continuous
 62
     0
370
     0
100
AcDbMText
 10
49.1865314543
 20
2.3874608764
 30
0.0
 40
1.8520833333
 41
0.0
 71
     1
 72
     1
  1
.com
  7
SLDTEXTSTYLE0
 73
     1
 44
1.0
  0
ENDBLK
  5
126
330
124
100
AcDbEntity
  8
0
100
AcDbBlockEnd
  0
BLOCK
  5
130
330
12F
100
AcDbEntity
  8
0
100
AcDbBlockBegin
  2
SW_NOTE_4
 70
     0
 10
0.0
 20
0.0
 30
0.0
  3
SW_NOTE_4
  1

  0
MTEXT
  5
132
330
12F
100
AcDbEntity
  8
0
  6
Continuous
 62
     0
370
     0
100
AcDbMText
 10
0.0
 20
4.8649193548
 30
0.0
 40
3.96875
 41
0.0
 71
     1
 72
     1
  1
Netter
  7
SLDTEXTSTYLE1
 73
     1
 44
1.0
  0
MTEXT
  5
133
330
12F
100
AcDbEntity
  8
0
  6
Continuous
 62
     0
370
     0
100
AcDbMText
 10
16.7569443583
 20
5.0430605384
 30
0.0
 40
3.96875
 41
0.0
 71
     1
 72
     1
  1
Vibration
  7
SLDTEXTSTYLE2
 73
     1
 44
1.0
  0
ENDBLK
  5
131
330
12F
100
AcDbEntity
  8
0
100
AcDbBlockEnd
  0
BLOCK
  5
1A3
330
1A2
100
AcDbEntity
  8
0
100
AcDbBlockBegin
  2
_D
 70
     0
 10
0.0
 20
0.0
 30
0.0
  3
_D
  1

  0
SOLID
  5
1A5
330
1A2
100
AcDbEntity
  8
0
  6
SLD-Durchgehend
 62
     7
370
     0
100
AcDbTrace
 10
166.3968747454
 20
167.6806491835
 30
0.0
 11
165.9568747454
 21
165.1806491835
 31
0.0
 12
166.8368747454
 22
165.1806491835
 32
0.0
 13
166.8368747454
 23
165.1806491835
 33
0.0
  0
SOLID
  5
1A6
330
1A2
100
AcDbEntity
  8
0
  6
SLD-Durchgehend
 62
     7
370
     0
100
AcDbTrace
 10
166.3968747454
 20
151.6806491835
 30
0.0
 11
166.8368747454
 21
154.1806491835
 31
0.0
 12
165.9568747454
 22
154.1806491835
 32
0.0
 13
165.9568747454
 23
154.1806491835
 33
0.0
  0
LINE
  5
1A7
330
1A2
100
AcDbEntity
  8
0
  6
SLD-Durchgehend
 62
     7
370
     0
100
AcDbLine
 10
157.3968747454
 20
167.6806491835
 30
0.0
 11
167.3968747454
 21
167.6806491835
 31
0.0
  0
LINE
  5
1A8
330
1A2
100
AcDbEntity
  8
0
  6
SLD-Durchgehend
 62
     7
370
     0
100
AcDbLine
 10
157.3968747454
 20
151.6806491835
 30
0.0
 11
167.3968747454
 21
151.6806491835
 31
0.0
  0
LINE
  5
1A9
330
1A2
100
AcDbEntity
  8
0
  6
SLD-Durchgehend
 62
     7
370
     0
100
AcDbLine
 10
166.3968747454
 20
167.6806491835
 30
0.0
 11
166.3968747454
 21
151.6806491835
 31
0.0
  0
MTEXT
  5
1AA
330
1A2
100
AcDbEntity
  8
0
  6
SLD-Durchgehend
 62
     7
370
     0
100
AcDbMText
 10
162.5296712932
 20
157.3904491835
 30
0.0
 40
3.0
 41
0.0
 71
     1
 72
     1
  1
16
  7
SLDTEXTSTYLE0
 11
-7.044195017643634E-15
 21
1.0
 31
0.0
 73
     1
 44
1.0
  0
ENDBLK
  5
1A4
330
1A2
100
AcDbEntity
  8
0
100
AcDbBlockEnd
  0
BLOCK
  5
1AD
330
1AC
100
AcDbEntity
  8
0
100
AcDbBlockBegin
  2
_D_1
 70
     0
 10
0.0
 20
0.0
 30
0.0
  3
_D_1
  1

  0
SOLID
  5
1AF
330
1AC
100
AcDbEntity
  8
0
  6
SLD-Durchgehend
 62
     7
370
     0
100
AcDbTrace
 10
176.8139712026
 20
231.6806491835
 30
0.0
 11
176.3739712026
 21
229.1806491835
 31
0.0
 12
177.2539712026
 22
229.1806491835
 32
0.0
 13
177.2539712026
 23
229.1806491835
 33
0.0
  0
SOLID
  5
1B0
330
1AC
100
AcDbEntity
  8
0
  6
SLD-Durchgehend
 62
     7
370
     0
100
AcDbTrace
 10
176.8139712026
 20
151.6806491835
 30
0.0
 11
177.2539712026
 21
154.1806491835
 31
0.0
 12
176.3739712026
 22
154.1806491835
 32
0.0
 13
176.3739712026
 23
154.1806491835
 33
0.0
  0
LINE
  5
1B1
330
1AC
100
AcDbEntity
  8
0
  6
SLD-Durchgehend
 62
     7
370
     0
100
AcDbLine
 10
133.3968747454
 20
231.6806491835
 30
0.0
 11
177.8139712026
 21
231.6806491835
 31
0.0
  0
LINE
  5
1B2
330
1AC
100
AcDbEntity
  8
0
  6
SLD-Durchgehend
 62
     7
370
     0
100
AcDbLine
 10
157.3968747454
 20
151.6806491835
 30
0.0
 11
177.8139712026
 21
151.6806491835
 31
0.0
  0
LINE
  5
1B3
330
1AC
100
AcDbEntity
  8
0
  6
SLD-Durchgehend
 62
     7
370
     0
100
AcDbLine
 10
176.8139712026
 20
231.6806491835
 30
0.0
 11
176.8139712026
 21
151.6806491835
 31
0.0
  0
MTEXT
  5
1B4
330
1AC
100
AcDbEntity
  8
0
  6
SLD-Durchgehend
 62
     7
370
     0
100
AcDbMText
 10
172.9467677504
 20
189.3904491835
 30
0.0
 40
3.0
 41
0.0
 71
     1
 72
     1
  1
80
  7
SLDTEXTSTYLE0
 11
-7.044195017643634E-15
 21
1.0
 31
0.0
 73
     1
 44
1.0
  0
ENDBLK
  5
1AE
330
1AC
100
AcDbEntity
  8
0
100
AcDbBlockEnd
  0
BLOCK
  5
1B7
330
1B6
100
AcDbEntity
  8
0
100
AcDbBlockBegin
  2
_D_2
 70
     0
 10
0.0
 20
0.0
 30
0.0
  3
_D_2
  1

  0
SOLID
  5
1B9
330
1B6
100
AcDbEntity
  8
0
  6
SLD-Durchgehend
 62
     7
370
     0
100
AcDbTrace
 10
189.9649977844
 20
266.6806491835
 30
0.0
 11
189.5249977844
 21
264.1806491835
 31
0.0
 12
190.4049977844
 22
264.1806491835
 32
0.0
 13
190.4049977844
 23
264.1806491835
 33
0.0
  0
SOLID
  5
1BA
330
1B6
100
AcDbEntity
  8
0
  6
SLD-Durchgehend
 62
     7
370
     0
100
AcDbTrace
 10
189.9649977844
 20
151.6806491835
 30
0.0
 11
190.4049977844
 21
154.1806491835
 31
0.0
 12
189.5249977844
 22
154.1806491835
 32
0.0
 13
189.5249977844
 23
154.1806491835
 33
0.0
  0
LINE
  5
1BB
330
1B6
100
AcDbEntity
  8
0
  6
SLD-Durchgehend
 62
     7
370
     0
100
AcDbLine
 10
71.3968747454
 20
266.6806491835
 30
0.0
 11
190.9649977844
 21
266.6806491835
 31
0.0
  0
LINE
  5
1BC
330
1B6
100
AcDbEntity
  8
0
  6
SLD-Durchgehend
 62
     7
370
     0
100
AcDbLine
 10
157.3968747454
 20
151.6806491835
 30
0.0
 11
190.9649977844
 21
151.6806491835
 31
0.0
  0
LINE
  5
1BD
330
1B6
100
AcDbEntity
  8
0
  6
SLD-Durchgehend
 62
     7
370
     0
100
AcDbLine
 10
189.9649977844
 20
266.6806491835
 30
0.0
 11
189.9649977844
 21
151.6806491835
 31
0.0
  0
MTEXT
  5
1BE
330
1B6
100
AcDbEntity
  8
0
  6
SLD-Durchgehend
 62
     7
370
     0
100
AcDbMText
 10
186.0977943322
 20
205.7436991835
 30
0.0
 40
3.0
 41
0.0
 71
     1
 72
     1
  1
115
  7
SLDTEXTSTYLE0
 11
-7.044195017643634E-15
 21
1.0
 31
0.0
 73
     1
 44
1.0
  0
ENDBLK
  5
1B8
330
1B6
100
AcDbEntity
  8
0
100
AcDbBlockEnd
  0
BLOCK
  5
1C1
330
1C0
100
AcDbEntity
  8
0
100
AcDbBlockBegin
  2
_D_3
 70
     0
 10
0.0
 20
0.0
 30
0.0
  3
_D_3
  1

  0
SOLID
  5
1C3
330
1C0
100
AcDbEntity
  8
0
  6
SLD-Durchgehend
 62
     7
370
     0
100
AcDbTrace
 10
28.3968747454
 20
131.5190223292
 30
0.0
 11
30.8968747454
 21
131.0790223292
 31
0.0
 12
30.8968747454
 22
131.9590223292
 32
0.0
 13
30.8968747454
 23
131.9590223292
 33
0.0
  0
SOLID
  5
1C4
330
1C0
100
AcDbEntity
  8
0
  6
SLD-Durchgehend
 62
     7
370
     0
100
AcDbTrace
 10
156.3968747454
 20
131.5190223292
 30
0.0
 11
153.8968747454
 21
131.9590223292
 31
0.0
 12
153.8968747454
 22
131.0790223292
 32
0.0
 13
153.8968747454
 23
131.0790223292
 33
0.0
  0
LINE
  5
1C5
330
1C0
100
AcDbEntity
  8
0
  6
SLD-Durchgehend
 62
     7
370
     0
100
AcDbLine
 10
28.3968747454
 20
150.6806491835
 30
0.0
 11
28.3968747454
 21
130.5190223292
 31
0.0
  0
LINE
  5
1C6
330
1C0
100
AcDbEntity
  8
0
  6
SLD-Durchgehend
 62
     7
370
     0
100
AcDbLine
 10
156.3968747454
 20
150.6806491835
 30
0.0
 11
156.3968747454
 21
130.5190223292
 31
0.0
  0
LINE
  5
1C7
330
1C0
100
AcDbEntity
  8
0
  6
SLD-Durchgehend
 62
     7
370
     0
100
AcDbLine
 10
28.3968747454
 20
131.5190223292
 30
0.0
 11
156.3968747454
 21
131.5190223292
 31
0.0
  0
MTEXT
  5
1C8
330
1C0
100
AcDbEntity
  8
0
  6
SLD-Durchgehend
 62
     7
370
     0
100
AcDbMText
 10
88.9599247454
 20
135.3862257813
 30
0.0
 40
3.0
 41
0.0
 71
     1
 72
     1
  1
128
  7
SLDTEXTSTYLE0
 73
     1
 44
1.0
  0
ENDBLK
  5
1C2
330
1C0
100
AcDbEntity
  8
0
100
AcDbBlockEnd
  0
BLOCK
  5
1CB
330
1CA
100
AcDbEntity
  8
0
100
AcDbBlockBegin
  2
_D_4
 70
     0
 10
0.0
 20
0.0
 30
0.0
  3
_D_4
  1

  0
SOLID
  5
1CD
330
1CA
100
AcDbEntity
  8
0
  6
SLD-Durchgehend
 62
     7
370
     0
100
AcDbTrace
 10
52.3968747454
 20
276.6806491835
 30
0.0
 11
54.8968747454
 21
276.2406491835
 31
0.0
 12
54.8968747454
 22
277.1206491835
 32
0.0
 13
54.8968747454
 23
277.1206491835
 33
0.0
  0
SOLID
  5
1CE
330
1CA
100
AcDbEntity
  8
0
  6
SLD-Durchgehend
 62
     7
370
     0
100
AcDbTrace
 10
132.3968747454
 20
276.6806491835
 30
0.0
 11
129.8968747454
 21
277.1206491835
 31
0.0
 12
129.8968747454
 22
276.2406491835
 32
0.0
 13
129.8968747454
 23
276.2406491835
 33
0.0
  0
LINE
  5
1CF
330
1CA
100
AcDbEntity
  8
0
  6
SLD-Durchgehend
 62
     7
370
     0
100
AcDbLine
 10
52.3968747454
 20
232.6806491835
 30
0.0
 11
52.3968747454
 21
277.6806491835
 31
0.0
  0
LINE
  5
1D0
330
1CA
100
AcDbEntity
  8
0
  6
SLD-Durchgehend
 62
     7
370
     0
100
AcDbLine
 10
132.3968747454
 20
232.6806491835
 30
0.0
 11
132.3968747454
 21
277.6806491835
 31
0.0
  0
LINE
  5
1D1
330
1CA
100
AcDbEntity
  8
0
  6
SLD-Durchgehend
 62
     7
370
     0
100
AcDbLine
 10
52.3968747454
 20
276.6806491835
 30
0.0
 11
132.3968747454
 21
276.6806491835
 31
0.0
  0
MTEXT
  5
1D2
330
1CA
100
AcDbEntity
  8
0
  6
SLD-Durchgehend
 62
     7
370
     0
100
AcDbMText
 10
90.1066747454
 20
280.5478526357
 30
0.0
 40
3.0
 41
0.0
 71
     1
 72
     1
  1
80
  7
SLDTEXTSTYLE0
 73
     1
 44
1.0
  0
ENDBLK
  5
1CC
330
1CA
100
AcDbEntity
  8
0
100
AcDbBlockEnd
  0
BLOCK
  5
1D5
330
1D4
100
AcDbEntity
  8
0
100
AcDbBlockBegin
  2
_D_5
 70
     0
 10
0.0
 20
0.0
 30
0.0
  3
_D_5
  1

  0
SOLID
  5
1D7
330
1D4
100
AcDbEntity
  8
0
  6
SLD-Durchgehend
 62
     7
370
     0
100
AcDbTrace
 10
122.3968747454
 20
141.6806491835
 30
0.0
 11
119.8968747454
 21
142.1206491835
 31
0.0
 12
119.8968747454
 22
141.2406491835
 32
0.0
 13
119.8968747454
 23
141.2406491835
 33
0.0
  0
SOLID
  5
1D8
330
1D4
100
AcDbEntity
  8
0
  6
SLD-Durchgehend
 62
     7
370
     0
100
AcDbTrace
 10
62.3968747454
 20
141.6806491835
 30
0.0
 11
64.8968747454
 21
141.2406491835
 31
0.0
 12
64.8968747454
 22
142.1206491835
 32
0.0
 13
64.8968747454
 23
142.1206491835
 33
0.0
  0
LINE
  5
1D9
330
1D4
100
AcDbEntity
  8
0
  6
SLD-Durchgehend
 62
     7
370
     0
100
AcDbLine
 10
122.3968747454
 20
160.6806491835
 30
0.0
 11
122.3968747454
 21
140.6806491835
 31
0.0
  0
LINE
  5
1DA
330
1D4
100
AcDbEntity
  8
0
  6
SLD-Durchgehend
 62
     7
370
     0
100
AcDbLine
 10
62.3968747454
 20
160.6806491835
 30
0.0
 11
62.3968747454
 21
140.6806491835
 31
0.0
  0
LINE
  5
1DB
330
1D4
100
AcDbEntity
  8
0
  6
SLD-Durchgehend
 62
     7
370
     0
100
AcDbLine
 10
122.3968747454
 20
141.6806491835
 30
0.0
 11
62.3968747454
 21
141.6806491835
 31
0.0
  0
MTEXT
  5
1DC
330
1D4
100
AcDbEntity
  8
0
  6
SLD-Durchgehend
 62
     7
370
     0
100
AcDbMText
 10
90.1052081687
 20
145.5478526357
 30
0.0
 40
3.0
 41
0.0
 71
     1
 72
     1
  1
60
  7
SLDTEXTSTYLE0
 73
     1
 44
1.0
  0
ENDBLK
  5
1D6
330
1D4
100
AcDbEntity
  8
0
100
AcDbBlockEnd
  0
BLOCK
  5
1DF
330
1DE
100
AcDbEntity
  8
0
100
AcDbBlockBegin
  2
_D_6
 70
     0
 10
0.0
 20
0.0
 30
0.0
  3
_D_6
  1

  0
SOLID
  5
1E1
330
1DE
100
AcDbEntity
  8
0
  6
SLD-Durchgehend
 62
     7
370
     0
100
AcDbTrace
 10
49.0122957652
 20
161.6806491835
 30
0.0
 11
48.5722957652
 21
159.1806491835
 31
0.0
 12
49.4522957652
 22
159.1806491835
 32
0.0
 13
49.4522957652
 23
159.1806491835
 33
0.0
  0
SOLID
  5
1E2
330
1DE
100
AcDbEntity
  8
0
  6
SLD-Durchgehend
 62
     7
370
     0
100
AcDbTrace
 10
49.0122957652
 20
151.6806491835
 30
0.0
 11
49.4522957652
 21
154.1806491835
 31
0.0
 12
48.5722957652
 22
154.1806491835
 32
0.0
 13
48.5722957652
 23
154.1806491835
 33
0.0
  0
LINE
  5
1E3
330
1DE
100
AcDbEntity
  8
0
  6
SLD-Durchgehend
 62
     7
370
     0
100
AcDbLine
 10
61.3968747454
 20
161.6806491835
 30
0.0
 11
48.0122957652
 21
161.6806491835
 31
0.0
  0
LINE
  5
1E4
330
1DE
100
AcDbEntity
  8
0
  6
SLD-Durchgehend
 62
     7
370
     0
100
AcDbLine
 10
49.0122957652
 20
161.6806491835
 30
0.0
 11
49.0122957652
 21
151.6806491835
 31
0.0
  0
MTEXT
  5
1E5
330
1DE
100
AcDbEntity
  8
0
  6
SLD-Durchgehend
 62
     7
370
     0
100
AcDbMText
 10
45.1450923131
 20
154.3889826069
 30
0.0
 40
3.0
 41
0.0
 71
     1
 72
     1
  1
10
  7
SLDTEXTSTYLE0
 11
-7.044195017643634E-15
 21
1.0
 31
0.0
 73
     1
 44
1.0
  0
ENDBLK
  5
1E0
330
1DE
100
AcDbEntity
  8
0
100
AcDbBlockEnd
  0
BLOCK
  5
1E7
330
1E6
100
AcDbEntity
  8
0
100
AcDbBlockBegin
  2
SW_CENTERMARKSYMBOL_0
 70
     0
 10
0.0
 20
0.0
 30
0.0
  3
SW_CENTERMARKSYMBOL_0
  1

  0
LINE
  5
1E9
330
1E6
100
AcDbEntity
  8
0
  6
SLD-Durchgehend
 62
     0
370
     0
100
AcDbLine
 10
0.0
 20
0.0
 30
0.0
 11
0.0
 21
1.0
 31
0.0
  0
LINE
  5
1EA
330
1E6
100
AcDbEntity
  8
0
  6
SLD-Durchgehend
 62
     0
370
     0
100
AcDbLine
 10
0.0
 20
0.0
 30
0.0
 11
-1.0
 21
0.0
 31
0.0
  0
LINE
  5
1EB
330
1E6
100
AcDbEntity
  8
0
  6
SLD-Durchgehend
 62
     0
370
     0
100
AcDbLine
 10
0.0
 20
0.0
 30
0.0
 11
0.0
 21
-1.0
 31
0.0
  0
LINE
  5
1EC
330
1E6
100
AcDbEntity
  8
0
  6
SLD-Durchgehend
 62
     0
370
     0
100
AcDbLine
 10
0.0
 20
0.0
 30
0.0
 11
1.0
 21
0.0
 31
0.0
  0
LINE
  5
1ED
330
1E6
100
AcDbEntity
  8
0
  6
SLD-Durchgehend
 62
     0
370
     0
100
AcDbLine
 10
0.0
 20
2.0
 30
0.0
 11
0.0
 21
33.25
 31
0.0
  0
LINE
  5
1EE
330
1E6
100
AcDbEntity
  8
0
  6
SLD-Durchgehend
 62
     0
370
     0
100
AcDbLine
 10
-2.0
 20
0.0
 30
0.0
 11
-33.25
 21
0.0
 31
0.0
  0
LINE
  5
1EF
330
1E6
100
AcDbEntity
  8
0
  6
SLD-Durchgehend
 62
     0
370
     0
100
AcDbLine
 10
0.0
 20
-2.0
 30
0.0
 11
0.0
 21
-33.25
 31
0.0
  0
LINE
  5
1F0
330
1E6
100
AcDbEntity
  8
0
  6
SLD-Durchgehend
 62
     0
370
     0
100
AcDbLine
 10
2.0
 20
0.0
 30
0.0
 11
33.25
 21
0.0
 31
0.0
  0
ENDBLK
  5
1E8
330
1E6
100
AcDbEntity
  8
0
100
AcDbBlockEnd
  0
BLOCK
  5
2F3
330
2F2
100
AcDbEntity
  8
0
100
AcDbBlockBegin
  2
_D_7
 70
     0
 10
0.0
 20
0.0
 30
0.0
  3
_D_7
  1

  0
SOLID
  5
2F5
330
2F2
100
AcDbEntity
  8
0
  6
SLD-Durchgehend
 62
     7
370
     0
100
AcDbTrace
 10
378.5601958108
 20
78.2211010216
 30
0.0
 11
376.0601958108
 21
78.6611010216
 31
0.0
 12
376.0601958108
 22
77.7811010216
 32
0.0
 13
376.0601958108
 23
77.7811010216
 33
0.0
  0
SOLID
  5
2F6
330
2F2
100
AcDbEntity
  8
0
  6
SLD-Durchgehend
 62
     7
370
     0
100
AcDbTrace
 10
274.5601958108
 20
78.2211010216
 30
0.0
 11
277.0601958108
 21
77.7811010216
 31
0.0
 12
277.0601958108
 22
78.6611010216
 32
0.0
 13
277.0601958108
 23
78.6611010216
 33
0.0
  0
LINE
  5
2F7
330
2F2
100
AcDbEntity
  8
0
  6
SLD-Durchgehend
 62
     7
370
     0
100
AcDbLine
 10
378.5601958108
 20
100.2211010216
 30
0.0
 11
378.5601958108
 21
77.2211010216
 31
0.0
  0
LINE
  5
2F8
330
2F2
100
AcDbEntity
  8
0
  6
SLD-Durchgehend
 62
     7
370
     0
100
AcDbLine
 10
274.5601958108
 20
100.2211010216
 30
0.0
 11
274.5601958108
 21
77.2211010216
 31
0.0
  0
LINE
  5
2F9
330
2F2
100
AcDbEntity
  8
0
  6
SLD-Durchgehend
 62
     7
370
     0
100
AcDbLine
 10
378.5601958108
 20
78.2211010216
 30
0.0
 11
274.5601958108
 21
78.2211010216
 31
0.0
  0
MTEXT
  5
2FA
330
2F2
100
AcDbEntity
  8
0
  6
SLD-Durchgehend
 62
     7
370
     0
100
AcDbMText
 10
323.1232458108
 20
82.0883044737
 30
0.0
 40
3.0
 41
0.0
 71
     1
 72
     1
  1
104
  7
SLDTEXTSTYLE0
 73
     1
 44
1.0
  0
ENDBLK
  5
2F4
330
2F2
100
AcDbEntity
  8
0
100
AcDbBlockEnd
  0
BLOCK
  5
2FE
330
2FD
100
AcDbEntity
  8
0
100
AcDbBlockBegin
  2
_D_8
 70
     0
 10
0.0
 20
0.0
 30
0.0
  3
_D_8
  1

  0
SOLID
  5
300
330
2FD
100
AcDbEntity
  8
0
  6
SLD-Durchgehend
 62
     7
370
     0
100
AcDbTrace
 10
252.7511118998
 20
111.2211010216
 30
0.0
 11
253.1911118998
 21
113.7211010216
 31
0.0
 12
252.3111118998
 22
113.7211010216
 32
0.0
 13
252.3111118998
 23
113.7211010216
 33
0.0
  0
SOLID
  5
301
330
2FD
100
AcDbEntity
  8
0
  6
SLD-Durchgehend
 62
     7
370
     0
100
AcDbTrace
 10
252.7511118998
 20
102.2211010216
 30
0.0
 11
252.3111118998
 21
99.7211010216
 31
0.0
 12
253.1911118998
 22
99.7211010216
 32
0.0
 13
253.1911118998
 23
99.7211010216
 33
0.0
  0
LINE
  5
302
330
2FD
100
AcDbEntity
  8
0
  6
SLD-Durchgehend
 62
     7
370
     0
100
AcDbLine
 10
261.5601958108
 20
111.2211010216
 30
0.0
 11
251.7511118998
 21
111.2211010216
 31
0.0
  0
LINE
  5
303
330
2FD
100
AcDbEntity
  8
0
  6
SLD-Durchgehend
 62
     7
370
     0
100
AcDbLine
 10
261.5601958108
 20
102.2211010216
 30
0.0
 11
251.7511118998
 21
102.2211010216
 31
0.0
  0
LINE
  5
304
330
2FD
100
AcDbEntity
  8
0
  6
SLD-Durchgehend
 62
     7
370
     0
100
AcDbLine
 10
252.7511118998
 20
111.2211010216
 30
0.0
 11
252.7511118998
 21
114.7211010216
 31
0.0
  0
LINE
  5
305
330
2FD
100
AcDbEntity
  8
0
  6
SLD-Durchgehend
 62
     7
370
     0
100
AcDbLine
 10
252.7511118998
 20
111.2211010216
 30
0.0
 11
252.7511118998
 21
102.2211010216
 31
0.0
  0
LINE
  5
306
330
2FD
100
AcDbEntity
  8
0
  6
SLD-Durchgehend
 62
     7
370
     0
100
AcDbLine
 10
252.7511118998
 20
102.2211010216
 30
0.0
 11
252.7511118998
 21
98.7211010216
 31
0.0
  0
MTEXT
  5
307
330
2FD
100
AcDbEntity
  8
0
  6
SLD-Durchgehend
 62
     7
370
     0
100
AcDbMText
 10
248.8839084477
 20
105.5760010216
 30
0.0
 40
3.0
 41
0.0
 71
     1
 72
     1
  1
9
  7
SLDTEXTSTYLE0
 11
-1.414962237524464E-14
 21
1.0
 31
0.0
 73
     1
 44
1.0
  0
ENDBLK
  5
2FF
330
2FD
100
AcDbEntity
  8
0
100
AcDbBlockEnd
  0
BLOCK
  5
30A
330
309
100
AcDbEntity
  8
0
100
AcDbBlockBegin
  2
_D_9
 70
     0
 10
0.0
 20
0.0
 30
0.0
  3
_D_9
  1

  0
SOLID
  5
30C
330
309
100
AcDbEntity
  8
0
  6
SLD-Durchgehend
 62
     7
370
     0
100
AcDbTrace
 10
242.2149033297
 20
125.2211010216
 30
0.0
 11
241.7749033297
 21
122.7211010216
 31
0.0
 12
242.6549033297
 22
122.7211010216
 32
0.0
 13
242.6549033297
 23
122.7211010216
 33
0.0
  0
SOLID
  5
30D
330
309
100
AcDbEntity
  8
0
  6
SLD-Durchgehend
 62
     7
370
     0
100
AcDbTrace
 10
242.2149033297
 20
88.2211010216
 30
0.0
 11
242.6549033297
 21
90.7211010216
 31
0.0
 12
241.7749033297
 22
90.7211010216
 32
0.0
 13
241.7749033297
 23
90.7211010216
 33
0.0
  0
LINE
  5
30E
330
309
100
AcDbEntity
  8
0
  6
SLD-Durchgehend
 62
     7
370
     0
100
AcDbLine
 10
261.5601958108
 20
125.2211010216
 30
0.0
 11
241.2149033297
 21
125.2211010216
 31
0.0
  0
LINE
  5
30F
330
309
100
AcDbEntity
  8
0
  6
SLD-Durchgehend
 62
     7
370
     0
100
AcDbLine
 10
261.5601958108
 20
88.2211010216
 30
0.0
 11
241.2149033297
 21
88.2211010216
 31
0.0
  0
LINE
  5
310
330
309
100
AcDbEntity
  8
0
  6
SLD-Durchgehend
 62
     7
370
     0
100
AcDbLine
 10
242.2149033297
 20
125.2211010216
 30
0.0
 11
242.2149033297
 21
88.2211010216
 31
0.0
  0
MTEXT
  5
311
330
309
100
AcDbEntity
  8
0
  6
SLD-Durchgehend
 62
     7
370
     0
100
AcDbMText
 10
238.3476998776
 20
104.4309010216
 30
0.0
 40
3.0
 41
0.0
 71
     1
 72
     1
  1
37
  7
SLDTEXTSTYLE0
 11
-1.414962237524464E-14
 21
1.0
 31
0.0
 73
     1
 44
1.0
  0
ENDBLK
  5
30B
330
309
100
AcDbEntity
  8
0
100
AcDbBlockEnd
  0
BLOCK
  5
313
330
312
100
AcDbEntity
  8
0
100
AcDbBlockBegin
  2
SW_CENTERMARKSYMBOL_1
 70
     0
 10
0.0
 20
0.0
 30
0.0
  3
SW_CENTERMARKSYMBOL_1
  1

  0
LINE
  5
315
330
312
100
AcDbEntity
  8
0
  6
SLD-Durchgehend
 62
     0
370
     0
100
AcDbLine
 10
0.0
 20
0.0
 30
0.0
 11
0.0
 21
1.0
 31
0.0
  0
LINE
  5
316
330
312
100
AcDbEntity
  8
0
  6
SLD-Durchgehend
 62
     0
370
     0
100
AcDbLine
 10
0.0
 20
0.0
 30
0.0
 11
-1.0
 21
0.0
 31
0.0
  0
LINE
  5
317
330
312
100
AcDbEntity
  8
0
  6
SLD-Durchgehend
 62
     0
370
     0
100
AcDbLine
 10
0.0
 20
0.0
 30
0.0
 11
0.0
 21
-1.0
 31
0.0
  0
LINE
  5
318
330
312
100
AcDbEntity
  8
0
  6
SLD-Durchgehend
 62
     0
370
     0
100
AcDbLine
 10
0.0
 20
0.0
 30
0.0
 11
1.0
 21
0.0
 31
0.0
  0
LINE
  5
319
330
312
100
AcDbEntity
  8
0
  6
SLD-Durchgehend
 62
     0
370
     0
100
AcDbLine
 10
0.0
 20
2.0
 30
0.0
 11
0.0
 21
5.5
 31
0.0
  0
LINE
  5
31A
330
312
100
AcDbEntity
  8
0
  6
SLD-Durchgehend
 62
     0
370
     0
100
AcDbLine
 10
-2.0
 20
0.0
 30
0.0
 11
-5.5
 21
0.0
 31
0.0
  0
LINE
  5
31B
330
312
100
AcDbEntity
  8
0
  6
SLD-Durchgehend
 62
     0
370
     0
100
AcDbLine
 10
0.0
 20
-2.0
 30
0.0
 11
0.0
 21
-5.5
 31
0.0
  0
LINE
  5
31C
330
312
100
AcDbEntity
  8
0
  6
SLD-Durchgehend
 62
     0
370
     0
100
AcDbLine
 10
2.0
 20
0.0
 30
0.0
 11
5.5
 21
0.0
 31
0.0
  0
ENDBLK
  5
314
330
312
100
AcDbEntity
  8
0
100
AcDbBlockEnd
  0
BLOCK
  5
31F
330
31E
100
AcDbEntity
  8
0
100
AcDbBlockBegin
  2
SW_CENTERMARKSYMBOL_2
 70
     0
 10
0.0
 20
0.0
 30
0.0
  3
SW_CENTERMARKSYMBOL_2
  1

  0
LINE
  5
321
330
31E
100
AcDbEntity
  8
0
  6
SLD-Durchgehend
 62
     0
370
     0
100
AcDbLine
 10
0.0
 20
0.0
 30
0.0
 11
0.0
 21
1.0
 31
0.0
  0
LINE
  5
322
330
31E
100
AcDbEntity
  8
0
  6
SLD-Durchgehend
 62
     0
370
     0
100
AcDbLine
 10
0.0
 20
0.0
 30
0.0
 11
-1.0
 21
0.0
 31
0.0
  0
LINE
  5
323
330
31E
100
AcDbEntity
  8
0
  6
SLD-Durchgehend
 62
     0
370
     0
100
AcDbLine
 10
0.0
 20
0.0
 30
0.0
 11
0.0
 21
-1.0
 31
0.0
  0
LINE
  5
324
330
31E
100
AcDbEntity
  8
0
  6
SLD-Durchgehend
 62
     0
370
     0
100
AcDbLine
 10
0.0
 20
0.0
 30
0.0
 11
1.0
 21
0.0
 31
0.0
  0
LINE
  5
325
330
31E
100
AcDbEntity
  8
0
  6
SLD-Durchgehend
 62
     0
370
     0
100
AcDbLine
 10
0.0
 20
2.0
 30
0.0
 11
0.0
 21
5.5
 31
0.0
  0
LINE
  5
326
330
31E
100
AcDbEntity
  8
0
  6
SLD-Durchgehend
 62
     0
370
     0
100
AcDbLine
 10
-2.0
 20
0.0
 30
0.0
 11
-5.5
 21
0.0
 31
0.0
  0
LINE
  5
327
330
31E
100
AcDbEntity
  8
0
  6
SLD-Durchgehend
 62
     0
370
     0
100
AcDbLine
 10
0.0
 20
-2.0
 30
0.0
 11
0.0
 21
-5.5
 31
0.0
  0
LINE
  5
328
330
31E
100
AcDbEntity
  8
0
  6
SLD-Durchgehend
 62
     0
370
     0
100
AcDbLine
 10
2.0
 20
0.0
 30
0.0
 11
5.5
 21
0.0
 31
0.0
  0
ENDBLK
  5
320
330
31E
100
AcDbEntity
  8
0
100
AcDbBlockEnd
  0
BLOCK
  5
32B
330
32A
100
AcDbEntity
  8
0
100
AcDbBlockBegin
  2
SW_CENTERMARKSYMBOL_3
 70
     0
 10
0.0
 20
0.0
 30
0.0
  3
SW_CENTERMARKSYMBOL_3
  1

  0
LINE
  5
32D
330
32A
100
AcDbEntity
  8
0
  6
SLD-Durchgehend
 62
     0
370
     0
100
AcDbLine
 10
0.0
 20
0.0
 30
0.0
 11
0.0
 21
1.0
 31
0.0
  0
LINE
  5
32E
330
32A
100
AcDbEntity
  8
0
  6
SLD-Durchgehend
 62
     0
370
     0
100
AcDbLine
 10
0.0
 20
0.0
 30
0.0
 11
-1.0
 21
0.0
 31
0.0
  0
LINE
  5
32F
330
32A
100
AcDbEntity
  8
0
  6
SLD-Durchgehend
 62
     0
370
     0
100
AcDbLine
 10
0.0
 20
0.0
 30
0.0
 11
0.0
 21
-1.0
 31
0.0
  0
LINE
  5
330
330
32A
100
AcDbEntity
  8
0
  6
SLD-Durchgehend
 62
     0
370
     0
100
AcDbLine
 10
0.0
 20
0.0
 30
0.0
 11
1.0
 21
0.0
 31
0.0
  0
LINE
  5
331
330
32A
100
AcDbEntity
  8
0
  6
SLD-Durchgehend
 62
     0
370
     0
100
AcDbLine
 10
0.0
 20
2.0
 30
0.0
 11
0.0
 21
10.25
 31
0.0
  0
LINE
  5
332
330
32A
100
AcDbEntity
  8
0
  6
SLD-Durchgehend
 62
     0
370
     0
100
AcDbLine
 10
-2.0
 20
0.0
 30
0.0
 11
-10.25
 21
0.0
 31
0.0
  0
LINE
  5
333
330
32A
100
AcDbEntity
  8
0
  6
SLD-Durchgehend
 62
     0
370
     0
100
AcDbLine
 10
0.0
 20
-2.0
 30
0.0
 11
0.0
 21
-10.25
 31
0.0
  0
LINE
  5
334
330
32A
100
AcDbEntity
  8
0
  6
SLD-Durchgehend
 62
     0
370
     0
100
AcDbLine
 10
2.0
 20
0.0
 30
0.0
 11
10.25
 21
0.0
 31
0.0
  0
ENDBLK
  5
32C
330
32A
100
AcDbEntity
  8
0
100
AcDbBlockEnd
  0
BLOCK
  5
337
330
336
100
AcDbEntity
  8
0
100
AcDbBlockBegin
  2
SW_CENTERMARKSYMBOL_4
 70
     0
 10
0.0
 20
0.0
 30
0.0
  3
SW_CENTERMARKSYMBOL_4
  1

  0
LINE
  5
339
330
336
100
AcDbEntity
  8
0
  6
SLD-Durchgehend
 62
     0
370
     0
100
AcDbLine
 10
0.0
 20
0.0
 30
0.0
 11
0.0
 21
1.0
 31
0.0
  0
LINE
  5
33A
330
336
100
AcDbEntity
  8
0
  6
SLD-Durchgehend
 62
     0
370
     0
100
AcDbLine
 10
0.0
 20
0.0
 30
0.0
 11
-1.0
 21
0.0
 31
0.0
  0
LINE
  5
33B
330
336
100
AcDbEntity
  8
0
  6
SLD-Durchgehend
 62
     0
370
     0
100
AcDbLine
 10
0.0
 20
0.0
 30
0.0
 11
0.0
 21
-1.0
 31
0.0
  0
LINE
  5
33C
330
336
100
AcDbEntity
  8
0
  6
SLD-Durchgehend
 62
     0
370
     0
100
AcDbLine
 10
0.0
 20
0.0
 30
0.0
 11
1.0
 21
0.0
 31
0.0
  0
LINE
  5
33D
330
336
100
AcDbEntity
  8
0
  6
SLD-Durchgehend
 62
     0
370
     0
100
AcDbLine
 10
0.0
 20
2.0
 30
0.0
 11
0.0
 21
7.7225
 31
0.0
  0
LINE
  5
33E
330
336
100
AcDbEntity
  8
0
  6
SLD-Durchgehend
 62
     0
370
     0
100
AcDbLine
 10
-2.0
 20
0.0
 30
0.0
 11
-7.7225
 21
0.0
 31
0.0
  0
LINE
  5
33F
330
336
100
AcDbEntity
  8
0
  6
SLD-Durchgehend
 62
     0
370
     0
100
AcDbLine
 10
0.0
 20
-2.0
 30
0.0
 11
0.0
 21
-7.7225
 31
0.0
  0
LINE
  5
340
330
336
100
AcDbEntity
  8
0
  6
SLD-Durchgehend
 62
     0
370
     0
100
AcDbLine
 10
2.0
 20
0.0
 30
0.0
 11
7.7225
 21
0.0
 31
0.0
  0
ENDBLK
  5
338
330
336
100
AcDbEntity
  8
0
100
AcDbBlockEnd
  0
ENDSEC
  0
SECTION
  2
ENTITIES
  0
HATCH
  5
95
330
1F
100
AcDbEntity
  8
0
  6
Continuous
 62
    52
100
AcDbHatch
 10
0.0
 20
0.0
 30
0.0
210
0.0
220
0.0
230
1.0
  2
SOLID
 70
     1
 71
     0
 91
        1
 92
        0
 93
        6
 72
     2
 10
397.2166905884209
 20
27.19368183392314
 40
9.336383935046287
 50
28.83743273930608
 51
198.8193368338523
 73
     1
 72
     1
 10
388.3794255903911
 20
24.18190290159952
 11
388.7816097341537
 21
24.18190290159952
 72
     1
 10
388.7816097341537
 20
24.18190290159952
 11
390.8103449730125
 21
31.54854125382066
 72
     1
 10
390.8103449730125
 20
31.54854125382066
 11
392.6133250240622
 21
31.54854125382066
 72
     2
 10
398.3341692458886
 20
29.54038196427235
 40
6.063065424569007
 50
199.3423480985319
 51
339.1651749394908
 73
     0
 72
     1
 10
404.0007687940603
 20
31.69686333522489
 11
405.3952859047894
 21
31.69686333522489
 97
        0
 75
     0
 76
     1
 98
        1
 10
0.0
 20
0.0
  0
HATCH
  5
96
330
1F
100
AcDbEntity
  8
0
  6
Continuous
 62
     7
100
AcDbHatch
 10
0.0
 20
0.0
 30
0.0
210
0.0
220
0.0
230
1.0
  2
SOLID
 70
     1
 71
     0
 91
        2
 92
        0
 93
        6
 72
     1
 10
390.9093832949075
 20
31.41854125382066
 11
392.7062226385282
 21
31.41854125382066
 72
     2
 10
398.3341692458886
 20
29.54038196427235
 40
5.933065424568984
 50
198.4548941224166
 51
340.0282228512785
 73
     0
 72
     1
 10
403.9104259280544
 20
31.56686333522489
 11
405.6123864120185
 21
31.56686333522489
 72
     2
 10
397.2166905884209
 20
27.19368183392314
 40
9.46638393504625
 50
27.51427472226174
 51
199.3834076115143
 73
     1
 72
     1
 10
388.2868725641771
 20
24.05190290159952
 11
388.8806480560487
 21
24.05190290159952
 72
     1
 10
388.8806480560487
 20
24.05190290159952
 11
390.9093832949075
 21
31.41854125382066
 97
        0
 92
        0
 93
        6
 72
     1
 10
388.7816097341537
 20
24.18190290159952
 11
388.3794255903911
 21
24.18190290159952
 72
     2
 10
397.2166905884209
 20
27.19368183392314
 40
9.336383935046287
 50
161.1806631661485
 51
331.1625672606947
 73
     0
 72
     1
 10
405.3952859047894
 20
31.69686333522489
 11
404.0007687940603
 21
31.69686333522489
 72
     2
 10
398.3341692458886
 20
29.54038196427235
 40
6.063065424569007
 50
20.83482506051003
 51
160.6576519014689
 73
     1
 72
     1
 10
392.6133250240622
 20
31.54854125382066
 11
390.8103449730125
 21
31.54854125382066
 72
     1
 10
390.8103449730125
 20
31.54854125382066
 11
388.7816097341537
 21
24.18190290159952
 97
        0
 75
     0
 76
     1
 98
        1
 10
0.0
 20
0.0
  0
HATCH
  5
97
330
1F
100
AcDbEntity
  8
0
  6
Continuous
 62
     7
100
AcDbHatch
 10
0.0
 20
0.0
 30
0.0
210
0.0
220
0.0
230
1.0
  2
SOLID
 70
     1
 71
     0
 91
        1
 92
        0
 93
       10
 72
     1
 10
391.2557525416791
 20
31.17133921476775
 11
389.4249433061572
 21
24.10134359540109
 72
     1
 10
389.4249433061572
 20
24.10134359540109
 11
391.9979725360537
 21
24.10134359540109
 72
     1
 10
391.9979725360537
 20
24.10134359540109
 11
392.9875987755306
 21
27.90826414852663
 72
     1
 10
392.9875987755306
 20
27.90826414852663
 11
394.5215202651154
 21
24.1013435954011
 72
     1
 10
394.5215202651154
 20
24.1013435954011
 11
397.1935124966802
 21
24.1013435954011
 72
     1
 10
397.1935124966802
 20
24.1013435954011
 11
398.8758772296985
 21
31.07245782716463
 72
     1
 10
398.8758772296985
 20
31.07245782716463
 11
396.4512925023055
 21
31.07245782716463
 72
     1
 10
396.4512925023055
 20
31.07245782716463
 11
395.5606280054266
 21
27.16665660141341
 72
     1
 10
395.5606280054266
 20
27.16665660141341
 11
393.8782632724091
 21
31.17133921476775
 72
     1
 10
393.8782632724091
 20
31.17133921476775
 11
391.2557525416791
 21
31.17133921476775
 97
        0
 75
     0
 76
     1
 98
        1
 10
0.0
 20
0.0
  0
HATCH
  5
98
330
1F
100
AcDbEntity
  8
0
  6
Continuous
 62
     7
100
AcDbHatch
 10
0.0
 20
0.0
 30
0.0
210
0.0
220
0.0
230
1.0
  2
SOLID
 70
     1
 71
     0
 91
        2
 92
        0
 93
        3
 72
     1
 10
393.1360432780339
 20
26.3261669517193
 11
392.5549013500252
 21
24.05190290159952
 72
     1
 10
392.5549013500252
 20
24.05190290159952
 11
394.0761880166766
 21
24.05190290159952
 72
     1
 10
394.0761880166766
 20
24.05190290159952
 11
393.1360432780339
 21
26.3261669517193
 97
        0
 92
        0
 93
        3
 72
     1
 10
393.8817783160101
 20
24.18190290159951
 11
392.7222972997866
 21
24.18190290159952
 72
     1
 10
392.7222972997866
 20
24.18190290159952
 11
393.1652269908361
 21
25.91528165906799
 72
     1
 10
393.1652269908361
 20
25.91528165906799
 11
393.8817783160101
 21
24.18190290159951
 97
        0
 75
     0
 76
     1
 98
        1
 10
0.0
 20
0.0
  0
HATCH
  5
99
330
1F
100
AcDbEntity
  8
0
  6
Continuous
 62
    52
100
AcDbHatch
 10
0.0
 20
0.0
 30
0.0
210
0.0
220
0.0
230
1.0
  2
SOLID
 70
     1
 71
     0
 91
        1
 92
        0
 93
        3
 72
     1
 10
393.1652269908361
 20
25.91528165906799
 11
392.7222972997866
 21
24.18190290159952
 72
     1
 10
392.7222972997866
 20
24.18190290159952
 11
393.8817783160101
 21
24.18190290159951
 72
     1
 10
393.8817783160101
 20
24.18190290159951
 11
393.1652269908361
 21
25.91528165906799
 97
        0
 75
     0
 76
     1
 98
        1
 10
0.0
 20
0.0
  0
HATCH
  5
9A
330
1F
100
AcDbEntity
  8
0
  6
Continuous
 62
     7
100
AcDbHatch
 10
0.0
 20
0.0
 30
0.0
210
0.0
220
0.0
230
1.0
  2
SOLID
 70
     1
 71
     0
 91
        1
 92
        0
 93
        8
 72
     1
 10
399.4696539806409
 20
31.12189852096661
 11
398.7274339862658
 21
28.25434757518244
 72
     1
 10
398.7274339862658
 20
28.25434757518244
 11
399.1727662347047
 21
24.00246292277559
 72
     1
 10
399.1727662347047
 20
24.00246292277559
 11
402.3395709564733
 21
24.00246292277559
 72
     1
 10
402.3395709564733
 20
24.00246292277559
 11
406.5454846776286
 21
31.07245782718087
 72
     1
 10
406.5454846776286
 20
31.07245782718087
 11
403.7745294443889
 21
31.07245782718087
 72
     1
 10
403.7745294443889
 20
31.07245782718087
 11
401.5478694612618
 21
27.0677752138452
 72
     1
 10
401.5478694612618
 20
27.0677752138452
 11
401.0530569710604
 21
31.12189852096661
 72
     1
 10
401.0530569710604
 20
31.12189852096661
 11
399.4696539806409
 21
31.12189852096661
 97
        0
 75
     0
 76
     1
 98
        1
 10
0.0
 20
0.0
  0
HATCH
  5
9B
330
1F
100
AcDbEntity
  8
0
  6
Continuous
 62
     7
100
AcDbHatch
 10
0.0
 20
0.0
 30
0.0
210
0.0
220
0.0
230
1.0
  2
SOLID
 70
     1
 71
     0
 91
        2
 92
        0
 93
        3
 72
     2
 10
398.60159497708
 20
26.88049322517953
 40
8.003675602344106
 50
339.303884922883
 51
377.0191257258724
 73
     1
 72
     1
 10
406.2547664701381
 20
29.22309631691353
 11
403.0323094500141
 21
24.05190290159952
 72
     1
 10
403.0323094500141
 20
24.05190290159952
 11
406.0887773529079
 21
24.05190290159952
 97
        0
 92
        0
 93
        3
 72
     1
 10
403.2664948845861
 20
24.18190290159952
 11
406.2102984795193
 21
28.90593107979706
 72
     2
 10
398.60159497708
 20
26.88049322517953
 40
7.873675602344119
 50
345.0935417050616
 51
380.0436402959713
 73
     0
 72
     1
 10
405.99837655804
 20
24.18190290159952
 11
403.2664948845861
 21
24.18190290159952
 97
        0
 75
     0
 76
     1
 98
        1
 10
0.0
 20
0.0
  0
HATCH
  5
9C
330
1F
100
AcDbEntity
  8
0
  6
Continuous
 62
    52
100
AcDbHatch
 10
0.0
 20
0.0
 30
0.0
210
0.0
220
0.0
230
1.0
  2
SOLID
 70
     1
 71
     0
 91
        1
 92
        0
 93
        3
 72
     2
 10
398.60159497708
 20
26.88049322517953
 40
7.873675602344119
 50
339.9563597040303
 51
374.90645829494
 73
     1
 72
     1
 10
406.2102984795193
 20
28.90593107979706
 11
403.2664948845861
 21
24.18190290159952
 72
     1
 10
403.2664948845861
 20
24.18190290159952
 11
405.99837655804
 21
24.18190290159952
 97
        0
 75
     0
 76
     1
 98
        1
 10
0.0
 20
0.0
  0
LINE
  5
9D
330
1F
100
AcDbEntity
  8
0
  6
SLD-Durchgehend
 62
     7
370
     0
100
AcDbLine
 10
222.0
 20
45.0
 30
0.0
 11
222.0
 21
10.0
 31
0.0
  0
LINE
  5
9E
330
1F
100
AcDbEntity
  8
0
  6
SLD-Durchgehend
 62
     7
370
     0
100
AcDbLine
 10
410.0
 20
65.0
 30
0.0
 11
410.0
 21
10.0
 31
0.0
  0
LINE
  5
9F
330
1F
100
AcDbEntity
  8
0
  6
SLD-Durchgehend
 62
     7
370
     0
100
AcDbLine
 10
222.0
 20
10.0
 30
0.0
 11
410.0
 21
10.0
 31
0.0
  0
LINE
  5
A0
330
1F
100
AcDbEntity
  8
0
  6
SLD-Durchgehend
 62
     7
370
     0
100
AcDbLine
 10
222.0
 20
10.0
 30
0.0
 11
410.0
 21
10.0
 31
0.0
  0
LINE
  5
A1
330
1F
100
AcDbEntity
  8
0
  6
SLD-Durchgehend
 62
     7
370
     0
100
AcDbLine
 10
410.0
 20
45.0
 30
0.0
 11
410.0
 21
10.0
 31
0.0
  0
LINE
  5
A2
330
1F
100
AcDbEntity
  8
0
  6
SLD-Durchgehend
 62
     7
370
     0
100
AcDbLine
 10
222.0
 20
45.0
 30
0.0
 11
410.0
 21
45.0
 31
0.0
  0
LINE
  5
A3
330
1F
100
AcDbEntity
  8
0
  6
SLD-Durchgehend
 62
     7
370
     0
100
AcDbLine
 10
345.0
 20
45.0
 30
0.0
 11
345.0
 21
10.0
 31
0.0
  0
LINE
  5
A4
330
1F
100
AcDbEntity
  8
0
  6
SLD-Durchgehend
 62
     7
370
     0
100
AcDbLine
 10
274.0
 20
45.0
 30
0.0
 11
274.0
 21
10.0
 31
0.0
  0
LINE
  5
A5
330
1F
100
AcDbEntity
  8
0
  6
SLD-Durchgehend
 62
     7
370
     0
100
AcDbLine
 10
222.0
 20
24.5
 30
0.0
 11
274.0
 21
24.5
 31
0.0
  0
LINE
  5
A6
330
1F
100
AcDbEntity
  8
0
  6
SLD-Durchgehend
 62
     7
370
     0
100
AcDbLine
 10
222.0
 20
17.25
 30
0.0
 11
274.0
 21
17.25
 31
0.0
  0
LINE
  5
A7
330
1F
100
AcDbEntity
  8
0
  6
SLD-Durchgehend
 62
     7
370
     0
100
AcDbLine
 10
388.2868725642
 20
24.0519029016
 30
0.0
 11
388.880648056
 21
24.0519029016
 31
0.0
  0
LINE
  5
A8
330
1F
100
AcDbEntity
  8
0
  6
SLD-Durchgehend
 62
     7
370
     0
100
AcDbLine
 10
388.880648056
 20
24.0519029016
 30
0.0
 11
390.9093832949
 21
31.4185412538
 31
0.0
  0
LINE
  5
A9
330
1F
100
AcDbEntity
  8
0
  6
SLD-Durchgehend
 62
     7
370
     0
100
AcDbLine
 10
390.9093832949
 20
31.4185412538
 30
0.0
 11
392.7062226385
 21
31.4185412538
 31
0.0
  0
LINE
  5
AA
330
1F
100
AcDbEntity
  8
0
  6
SLD-Durchgehend
 62
     7
370
     0
100
AcDbLine
 10
403.9104259281
 20
31.5668633352
 30
0.0
 11
405.612386412
 21
31.5668633352
 31
0.0
  0
LINE
  5
AB
330
1F
100
AcDbEntity
  8
0
  6
SLD-Durchgehend
 62
     7
370
     0
100
AcDbLine
 10
391.2557525417
 20
31.1713392148
 30
0.0
 11
393.8782632724
 21
31.1713392148
 31
0.0
  0
LINE
  5
AC
330
1F
100
AcDbEntity
  8
0
  6
SLD-Durchgehend
 62
     7
370
     0
100
AcDbLine
 10
393.8782632724
 20
31.1713392148
 30
0.0
 11
395.5606280054
 21
27.1666566014
 31
0.0
  0
LINE
  5
AD
330
1F
100
AcDbEntity
  8
0
  6
SLD-Durchgehend
 62
     7
370
     0
100
AcDbLine
 10
395.5606280054
 20
27.1666566014
 30
0.0
 11
396.4512925023
 21
31.0724578272
 31
0.0
  0
LINE
  5
AE
330
1F
100
AcDbEntity
  8
0
  6
SLD-Durchgehend
 62
     7
370
     0
100
AcDbLine
 10
396.4512925023
 20
31.0724578272
 30
0.0
 11
398.8758772297
 21
31.0724578272
 31
0.0
  0
LINE
  5
AF
330
1F
100
AcDbEntity
  8
0
  6
SLD-Durchgehend
 62
     7
370
     0
100
AcDbLine
 10
398.8758772297
 20
31.0724578272
 30
0.0
 11
397.1935124967
 21
24.1013435954
 31
0.0
  0
LINE
  5
B0
330
1F
100
AcDbEntity
  8
0
  6
SLD-Durchgehend
 62
     7
370
     0
100
AcDbLine
 10
397.1935124967
 20
24.1013435954
 30
0.0
 11
394.5215202651
 21
24.1013435954
 31
0.0
  0
LINE
  5
B1
330
1F
100
AcDbEntity
  8
0
  6
SLD-Durchgehend
 62
     7
370
     0
100
AcDbLine
 10
394.5215202651
 20
24.1013435954
 30
0.0
 11
392.9875987755
 21
27.9082641485
 31
0.0
  0
LINE
  5
B2
330
1F
100
AcDbEntity
  8
0
  6
SLD-Durchgehend
 62
     7
370
     0
100
AcDbLine
 10
392.9875987755
 20
27.9082641485
 30
0.0
 11
391.9979725361
 21
24.1013435954
 31
0.0
  0
LINE
  5
B3
330
1F
100
AcDbEntity
  8
0
  6
SLD-Durchgehend
 62
     7
370
     0
100
AcDbLine
 10
391.9979725361
 20
24.1013435954
 30
0.0
 11
389.4249433062
 21
24.1013435954
 31
0.0
  0
LINE
  5
B4
330
1F
100
AcDbEntity
  8
0
  6
SLD-Durchgehend
 62
     7
370
     0
100
AcDbLine
 10
389.4249433062
 20
24.1013435954
 30
0.0
 11
391.2557525417
 21
31.1713392148
 31
0.0
  0
LINE
  5
B5
330
1F
100
AcDbEntity
  8
0
  6
SLD-Durchgehend
 62
     7
370
     0
100
AcDbLine
 10
393.136043278
 20
26.3261669517
 30
0.0
 11
394.0761880167
 21
24.0519029016
 31
0.0
  0
LINE
  5
B6
330
1F
100
AcDbEntity
  8
0
  6
SLD-Durchgehend
 62
     7
370
     0
100
AcDbLine
 10
394.0761880167
 20
24.0519029016
 30
0.0
 11
392.55490135
 21
24.0519029016
 31
0.0
  0
LINE
  5
B7
330
1F
100
AcDbEntity
  8
0
  6
SLD-Durchgehend
 62
     7
370
     0
100
AcDbLine
 10
392.55490135
 20
24.0519029016
 30
0.0
 11
393.136043278
 21
26.3261669517
 31
0.0
  0
LINE
  5
B8
330
1F
100
AcDbEntity
  8
0
  6
SLD-Durchgehend
 62
     7
370
     0
100
AcDbLine
 10
399.4696539806
 20
31.121898521
 30
0.0
 11
401.0530569711
 21
31.121898521
 31
0.0
  0
LINE
  5
B9
330
1F
100
AcDbEntity
  8
0
  6
SLD-Durchgehend
 62
     7
370
     0
100
AcDbLine
 10
401.0530569711
 20
31.121898521
 30
0.0
 11
401.5478694613
 21
27.0677752138
 31
0.0
  0
LINE
  5
BA
330
1F
100
AcDbEntity
  8
0
  6
SLD-Durchgehend
 62
     7
370
     0
100
AcDbLine
 10
222.0
 20
10.0
 30
0.0
 11
410.0
 21
10.0
 31
0.0
  0
LINE
  5
BB
330
1F
100
AcDbEntity
  8
0
  6
SLD-Durchgehend
 62
     7
370
     0
100
AcDbLine
 10
401.5478694613
 20
27.0677752138
 30
0.0
 11
403.7745294444
 21
31.0724578272
 31
0.0
  0
LINE
  5
BC
330
1F
100
AcDbEntity
  8
0
  6
SLD-Durchgehend
 62
     7
370
     0
100
AcDbLine
 10
403.7745294444
 20
31.0724578272
 30
0.0
 11
406.5454846776
 21
31.0724578272
 31
0.0
  0
LINE
  5
BD
330
1F
100
AcDbEntity
  8
0
  6
SLD-Durchgehend
 62
     7
370
     0
100
AcDbLine
 10
406.5454846776
 20
31.0724578272
 30
0.0
 11
402.3395709565
 21
24.0024629228
 31
0.0
  0
LINE
  5
BE
330
1F
100
AcDbEntity
  8
0
  6
SLD-Durchgehend
 62
     7
370
     0
100
AcDbLine
 10
402.3395709565
 20
24.0024629228
 30
0.0
 11
399.1727662347
 21
24.0024629228
 31
0.0
  0
LINE
  5
BF
330
1F
100
AcDbEntity
  8
0
  6
SLD-Durchgehend
 62
     7
370
     0
100
AcDbLine
 10
399.1727662347
 20
24.0024629228
 30
0.0
 11
398.7274339863
 21
28.2543475752
 31
0.0
  0
LINE
  5
C0
330
1F
100
AcDbEntity
  8
0
  6
SLD-Durchgehend
 62
     7
370
     0
100
AcDbLine
 10
398.7274339863
 20
28.2543475752
 30
0.0
 11
399.4696539806
 21
31.121898521
 31
0.0
  0
LINE
  5
C1
330
1F
100
AcDbEntity
  8
0
  6
SLD-Durchgehend
 62
     7
370
     0
100
AcDbLine
 10
403.03230945
 20
24.0519029016
 30
0.0
 11
406.2547664701
 21
29.2230963169
 31
0.0
  0
LINE
  5
C2
330
1F
100
AcDbEntity
  8
0
  6
SLD-Durchgehend
 62
     7
370
     0
100
AcDbLine
 10
403.03230945
 20
24.0519029016
 30
0.0
 11
406.0887773529
 21
24.0519029016
 31
0.0
  0
LINE
  5
C3
330
1F
100
AcDbEntity
  8
0
  6
SLD-Durchgehend
 62
     7
370
     0
100
AcDbLine
 10
403.2664948846
 20
24.1819029016
 30
0.0
 11
405.998376558
 21
24.1819029016
 31
0.0
  0
LINE
  5
C4
330
1F
100
AcDbEntity
  8
0
  6
SLD-Durchgehend
 62
     7
370
     0
100
AcDbLine
 10
222.0
 20
10.0
 30
0.0
 11
410.0
 21
10.0
 31
0.0
  0
LINE
  5
C5
330
1F
100
AcDbEntity
  8
0
  6
SLD-Durchgehend
 62
     7
370
     0
100
AcDbLine
 10
410.0
 20
42.5
 30
0.0
 11
410.0
 21
10.0
 31
0.0
  0
LINE
  5
C6
330
1F
100
AcDbEntity
  8
0
  6
SLD-Durchgehend
 62
     7
370
     0
100
AcDbLine
 10
403.2664948846
 20
24.1819029016
 30
0.0
 11
406.2102984795
 21
28.9059310798
 31
0.0
  0
LINE
  5
C7
330
1F
100
AcDbEntity
  8
0
  6
SLD-Durchgehend
 62
     7
370
     0
100
AcDbLine
 10
404.0007687941
 20
31.6968633352
 30
0.0
 11
405.3952859048
 21
31.6968633352
 31
0.0
  0
LINE
  5
C8
330
1F
100
AcDbEntity
  8
0
  6
SLD-Durchgehend
 62
     7
370
     0
100
AcDbLine
 10
388.3794255904
 20
24.1819029016
 30
0.0
 11
388.7816097342
 21
24.1819029016
 31
0.0
  0
LINE
  5
C9
330
1F
100
AcDbEntity
  8
0
  6
SLD-Durchgehend
 62
     7
370
     0
100
AcDbLine
 10
388.7816097342
 20
24.1819029016
 30
0.0
 11
390.810344973
 21
31.5485412538
 31
0.0
  0
LINE
  5
CA
330
1F
100
AcDbEntity
  8
0
  6
SLD-Durchgehend
 62
     7
370
     0
100
AcDbLine
 10
390.810344973
 20
31.5485412538
 30
0.0
 11
392.6133250241
 21
31.5485412538
 31
0.0
  0
LINE
  5
CB
330
1F
100
AcDbEntity
  8
0
  6
SLD-Durchgehend
 62
     7
370
     0
100
AcDbLine
 10
393.1652269908
 20
25.9152816591
 30
0.0
 11
393.881778316
 21
24.1819029016
 31
0.0
  0
LINE
  5
CC
330
1F
100
AcDbEntity
  8
0
  6
SLD-Durchgehend
 62
     7
370
     0
100
AcDbLine
 10
393.881778316
 20
24.1819029016
 30
0.0
 11
392.7222972998
 21
24.1819029016
 31
0.0
  0
LINE
  5
CD
330
1F
100
AcDbEntity
  8
0
  6
SLD-Durchgehend
 62
     7
370
     0
100
AcDbLine
 10
392.7222972998
 20
24.1819029016
 30
0.0
 11
393.1652269908
 21
25.9152816591
 31
0.0
  0
LINE
  5
CE
330
1F
100
AcDbEntity
  8
0
  6
SLD-Durchgehend
 62
     7
370
     0
100
AcDbLine
 10
410.0
 20
50.5
 30
0.0
 11
410.0
 21
42.5
 31
0.0
  0
LINE
  5
CF
330
1F
100
AcDbEntity
  8
0
  6
SLD-Durchgehend
 62
     7
370
     0
100
AcDbLine
 10
410.0
 20
73.0
 30
0.0
 11
410.0
 21
65.0
 31
0.0
  0
LINE
  5
D0
330
1F
100
AcDbEntity
  8
0
  6
SLD-Durchgehend
 62
     7
370
     0
100
AcDbLine
 10
260.0
 20
10.0
 30
0.0
 11
260.0
 21
5.0
 31
0.0
  0
LINE
  5
D1
330
1F
100
AcDbEntity
  8
0
  6
SLD-Durchgehend
 62
     7
370
     0
100
AcDbLine
 10
410.0
 20
287.0
 30
0.0
 11
10.0
 21
287.0
 31
0.0
  0
LINE
  5
D2
330
1F
100
AcDbEntity
  8
0
  6
SLD-Durchgehend
 62
     7
370
     0
100
AcDbLine
 10
10.0
 20
10.0
 30
0.0
 11
410.0
 21
10.0
 31
0.0
  0
LINE
  5
D3
330
1F
100
AcDbEntity
  8
0
  6
SLD-Durchgehend
 62
     7
370
     0
100
AcDbLine
 10
5.0
 20
5.0
 30
0.0
 11
415.0
 21
5.0
 31
0.0
  0
LINE
  5
D4
330
1F
100
AcDbEntity
  8
0
  6
SLD-Durchgehend
 62
     7
370
     0
100
AcDbLine
 10
415.0
 20
292.0
 30
0.0
 11
5.0
 21
292.0
 31
0.0
  0
LINE
  5
D5
330
1F
100
AcDbEntity
  8
0
  6
SLD-Durchgehend
 62
     7
370
     0
100
AcDbLine
 10
310.0
 20
10.0
 30
0.0
 11
310.0
 21
5.0
 31
0.0
  0
LINE
  5
D6
330
1F
100
AcDbEntity
  8
0
  6
SLD-Durchgehend
 62
     7
370
     0
100
AcDbLine
 10
5.0
 20
292.0
 30
0.0
 11
5.0
 21
5.0
 31
0.0
  0
LINE
  5
D7
330
1F
100
AcDbEntity
  8
0
  6
SLD-Durchgehend
 62
     7
370
     0
100
AcDbLine
 10
10.0
 20
287.0
 30
0.0
 11
10.0
 21
191.5
 31
0.0
  0
LINE
  5
D8
330
1F
100
AcDbEntity
  8
0
  6
SLD-Durchgehend
 62
     7
370
     0
100
AcDbLine
 10
60.0
 20
10.0
 30
0.0
 11
60.0
 21
5.0
 31
0.0
  0
LINE
  5
D9
330
1F
100
AcDbEntity
  8
0
  6
SLD-Durchgehend
 62
     7
370
     0
100
AcDbLine
 10
10.0
 20
56.166
 30
0.0
 11
5.0
 21
56.166
 31
0.0
  0
LINE
  5
DA
330
1F
100
AcDbEntity
  8
0
  6
SLD-Durchgehend
 62
     7
370
     0
100
AcDbLine
 10
10.0
 20
102.332
 30
0.0
 11
5.0
 21
102.332
 31
0.0
  0
LINE
  5
DB
330
1F
100
AcDbEntity
  8
0
  6
SLD-Durchgehend
 62
     7
370
     0
100
AcDbLine
 10
10.0
 20
148.498
 30
0.0
 11
5.0
 21
148.498
 31
0.0
  0
LINE
  5
DC
330
1F
100
AcDbEntity
  8
0
  6
SLD-Durchgehend
 62
     7
370
     0
100
AcDbLine
 10
110.0
 20
10.0
 30
0.0
 11
110.0
 21
5.0
 31
0.0
  0
LINE
  5
DD
330
1F
100
AcDbEntity
  8
0
  6
SLD-Durchgehend
 62
     7
370
     0
100
AcDbLine
 10
360.0
 20
10.0
 30
0.0
 11
360.0
 21
5.0
 31
0.0
  0
LINE
  5
DE
330
1F
100
AcDbEntity
  8
0
  6
SLD-Durchgehend
 62
     7
370
     0
100
AcDbLine
 10
210.0
 20
10.0
 30
0.0
 11
210.0
 21
5.0
 31
0.0
  0
LINE
  5
DF
330
1F
100
AcDbEntity
  8
0
  6
SLD-Durchgehend
 62
     7
370
     0
100
AcDbLine
 10
160.0
 20
10.0
 30
0.0
 11
160.0
 21
5.0
 31
0.0
  0
LINE
  5
E0
330
1F
100
AcDbEntity
  8
0
  6
SLD-Durchgehend
 62
     7
370
     0
100
AcDbLine
 10
10.0
 20
194.664
 30
0.0
 11
5.0
 21
194.664
 31
0.0
  0
LINE
  5
E1
330
1F
100
AcDbEntity
  8
0
  6
SLD-Durchgehend
 62
     7
370
     0
100
AcDbLine
 10
10.0
 20
240.83
 30
0.0
 11
5.0
 21
240.83
 31
0.0
  0
LINE
  5
E2
330
1F
100
AcDbEntity
  8
0
  6
SLD-Durchgehend
 62
     7
370
     0
100
AcDbLine
 10
60.0
 20
292.0
 30
0.0
 11
60.0
 21
287.0
 31
0.0
  0
LINE
  5
E3
330
1F
100
AcDbEntity
  8
0
  6
SLD-Durchgehend
 62
     7
370
     0
100
AcDbLine
 10
110.0
 20
292.0
 30
0.0
 11
110.0
 21
287.0
 31
0.0
  0
LINE
  5
E4
330
1F
100
AcDbEntity
  8
0
  6
SLD-Durchgehend
 62
     7
370
     0
100
AcDbLine
 10
210.0
 20
292.0
 30
0.0
 11
210.0
 21
287.0
 31
0.0
  0
LINE
  5
E5
330
1F
100
AcDbEntity
  8
0
  6
SLD-Durchgehend
 62
     7
370
     0
100
AcDbLine
 10
160.0
 20
292.0
 30
0.0
 11
160.0
 21
287.0
 31
0.0
  0
LINE
  5
E6
330
1F
100
AcDbEntity
  8
0
  6
SLD-Durchgehend
 62
     7
370
     0
100
AcDbLine
 10
410.0
 20
287.0
 30
0.0
 11
410.0
 21
10.0
 31
0.0
  0
LINE
  5
E7
330
1F
100
AcDbEntity
  8
0
  6
SLD-Durchgehend
 62
     7
370
     0
100
AcDbLine
 10
415.0
 20
292.0
 30
0.0
 11
415.0
 21
5.0
 31
0.0
  0
LINE
  5
E8
330
1F
100
AcDbEntity
  8
0
  6
SLD-Durchgehend
 62
     7
370
     0
100
AcDbLine
 10
415.0
 20
56.166
 30
0.0
 11
410.0
 21
56.166
 31
0.0
  0
LINE
  5
E9
330
1F
100
AcDbEntity
  8
0
  6
SLD-Durchgehend
 62
     7
370
     0
100
AcDbLine
 10
415.0
 20
102.332
 30
0.0
 11
410.0
 21
102.332
 31
0.0
  0
LINE
  5
EA
330
1F
100
AcDbEntity
  8
0
  6
SLD-Durchgehend
 62
     7
370
     0
100
AcDbLine
 10
415.0
 20
148.498
 30
0.0
 11
410.0
 21
148.498
 31
0.0
  0
LINE
  5
EB
330
1F
100
AcDbEntity
  8
0
  6
SLD-Durchgehend
 62
     7
370
     0
100
AcDbLine
 10
260.0
 20
292.0
 30
0.0
 11
260.0
 21
287.0
 31
0.0
  0
LINE
  5
EC
330
1F
100
AcDbEntity
  8
0
  6
SLD-Durchgehend
 62
     7
370
     0
100
AcDbLine
 10
310.0
 20
292.0
 30
0.0
 11
310.0
 21
287.0
 31
0.0
  0
LINE
  5
ED
330
1F
100
AcDbEntity
  8
0
  6
SLD-Durchgehend
 62
     7
370
     0
100
AcDbLine
 10
415.0
 20
194.664
 30
0.0
 11
410.0
 21
194.664
 31
0.0
  0
LINE
  5
EE
330
1F
100
AcDbEntity
  8
0
  6
SLD-Durchgehend
 62
     7
370
     0
100
AcDbLine
 10
415.0
 20
240.83
 30
0.0
 11
410.0
 21
240.83
 31
0.0
  0
LINE
  5
EF
330
1F
100
AcDbEntity
  8
0
  6
SLD-Durchgehend
 62
     7
370
     0
100
AcDbLine
 10
360.0
 20
292.0
 30
0.0
 11
360.0
 21
287.0
 31
0.0
  0
LINE
  5
F0
330
1F
100
AcDbEntity
  8
0
  6
SLD-Durchgehend
 62
     7
370
     0
100
AcDbLine
 10
222.0
 20
5.0
 30
0.0
 11
222.0
 21
0.0
 31
0.0
  0
LINE
  5
F1
330
1F
100
AcDbEntity
  8
0
  6
SLD-Durchgehend
 62
     7
370
     0
100
AcDbLine
 10
120.0
 20
5.0
 30
0.0
 11
120.0
 21
0.0
 31
0.0
  0
LINE
  5
F2
330
1F
100
AcDbEntity
  8
0
  6
SLD-Durchgehend
 62
     7
370
     0
100
AcDbLine
 10
120.0
 20
292.0
 30
0.0
 11
120.0
 21
297.0
 31
0.0
  0
LINE
  5
F3
330
1F
100
AcDbEntity
  8
0
  6
SLD-Durchgehend
 62
     7
370
     0
100
AcDbLine
 10
222.0
 20
292.0
 30
0.0
 11
222.0
 21
297.0
 31
0.0
  0
LINE
  5
F4
330
1F
100
AcDbEntity
  8
0
  6
SLD-Durchgehend
 62
     7
370
     0
100
AcDbLine
 10
5.0
 20
148.5
 30
0.0
 11
0.0
 21
148.5
 31
0.0
  0
LINE
  5
F5
330
1F
100
AcDbEntity
  8
0
  6
SLD-Durchgehend
 62
     7
370
     0
100
AcDbLine
 10
10.0
 20
185.5
 30
0.0
 11
10.0
 21
111.5
 31
0.0
  0
LINE
  5
F6
330
1F
100
AcDbEntity
  8
0
  6
SLD-Durchgehend
 62
     7
370
     0
100
AcDbLine
 10
10.0
 20
105.5
 30
0.0
 11
10.0
 21
10.0
 31
0.0
  0
LINE
  5
F7
330
1F
100
AcDbEntity
  8
0
  6
SLD-Durchgehend
 62
     7
370
     0
100
AcDbLine
 10
222.0
 20
31.75
 30
0.0
 11
274.0
 21
31.75
 31
0.0
  0
LINE
  5
F8
330
1F
100
AcDbEntity
  8
0
  6
SLD-Durchgehend
 62
     7
370
     0
100
AcDbLine
 10
0.0
 20
0.0
 30
0.0
 11
420.0
 21
0.0
 31
0.0
  0
LINE
  5
F9
330
1F
100
AcDbEntity
  8
0
  6
SLD-Durchgehend
 62
     7
370
     0
100
AcDbLine
 10
0.0
 20
0.0
 30
0.0
 11
0.0
 21
297.0
 31
0.0
  0
LINE
  5
FA
330
1F
100
AcDbEntity
  8
0
  6
SLD-Durchgehend
 62
     7
370
     0
100
AcDbLine
 10
0.0
 20
297.0
 30
0.0
 11
420.0
 21
297.0
 31
0.0
  0
LINE
  5
FB
330
1F
100
AcDbEntity
  8
0
  6
SLD-Durchgehend
 62
     7
370
     0
100
AcDbLine
 10
420.0
 20
0.0
 30
0.0
 11
420.0
 21
297.0
 31
0.0
  0
CIRCLE
  5
FC
330
1F
100
AcDbEntity
  8
0
  6
SLD-Durchgehend
 62
     7
370
     0
100
AcDbCircle
 10
10.0
 20
188.5
 30
0.0
 40
3.000000000000001
  0
CIRCLE
  5
FD
330
1F
100
AcDbEntity
  8
0
  6
SLD-Durchgehend
 62
     7
370
     0
100
AcDbCircle
 10
10.0
 20
108.5
 30
0.0
 40
3.000000000000005
  0
ARC
  5
FE
330
1F
100
AcDbEntity
  8
0
  6
SLD-Durchgehend
 62
     7
370
     0
100
AcDbCircle
 10
397.2166905884
 20
27.1936818339
 30
0.0
 40
9.466383935046306
100
AcDbArc
 50
27.5142747223
 51
199.3834076115
  0
ARC
  5
FF
330
1F
100
AcDbEntity
  8
0
  6
SLD-Durchgehend
 62
     7
370
     0
100
AcDbCircle
 10
398.3341692459
 20
29.5403819643
 30
0.0
 40
5.933065424568992
100
AcDbArc
 50
19.9717771487
 51
161.5451058776
  0
ARC
  5
100
330
1F
100
AcDbEntity
  8
0
  6
SLD-Durchgehend
 62
     7
370
     0
100
AcDbCircle
 10
398.6015949771
 20
26.8804932252
 30
0.0
 40
8.003675602344112
100
AcDbArc
 50
339.3038849229
 51
17.0191257259
  0
CIRCLE
  5
101
330
1F
100
AcDbEntity
  8
0
  6
SLD-Durchgehend
 62
     7
370
     0
100
AcDbCircle
 10
407.3866676737
 20
30.5286123403
 30
0.0
 40
0.6921638106894162
  0
ARC
  5
102
330
1F
100
AcDbEntity
  8
0
  6
SLD-Durchgehend
 62
     7
370
     0
100
AcDbCircle
 10
398.6015949771
 20
26.8804932252
 30
0.0
 40
7.873675602344121
100
AcDbArc
 50
339.956359704
 51
14.9064582949
  0
ARC
  5
103
330
1F
100
AcDbEntity
  8
0
  6
SLD-Durchgehend
 62
     7
370
     0
100
AcDbCircle
 10
398.3341692459
 20
29.5403819643
 30
0.0
 40
6.063065424569016
100
AcDbArc
 50
20.8348250605
 51
160.6576519015
  0
ARC
  5
104
330
1F
100
AcDbEntity
  8
0
  6
SLD-Durchgehend
 62
     7
370
     0
100
AcDbCircle
 10
397.2166905884
 20
27.1936818339
 30
0.0
 40
9.336383935046333
100
AcDbArc
 50
28.8374327393
 51
198.8193368339
  0
MTEXT
  5
105
330
1F
100
AcDbEntity
  8
0
  6
Continuous
 62
     7
370
     0
100
AcDbMText
 10
5.7028577714
 20
34.989604144
 30
0.0
 40
4.0
 41
0.0
 71
     1
 72
     1
  1
A
  7
SLDTEXTSTYLE0
 73
     1
 44
1.0
  0
MTEXT
  5
106
330
1F
100
AcDbEntity
  8
0
  6
Continuous
 62
     7
370
     0
100
AcDbMText
 10
33.5
 20
9.489604144
 30
0.0
 40
4.0
 41
0.0
 71
     1
 72
     1
  1
8
  7
SLDTEXTSTYLE0
 73
     1
 44
1.0
  0
MTEXT
  5
107
330
1F
100
AcDbEntity
  8
0
  6
Continuous
 62
     7
370
     0
100
AcDbMText
 10
5.7622862171
 20
80.989604144
 30
0.0
 40
4.0
 41
0.0
 71
     1
 72
     1
  1
B
  7
SLDTEXTSTYLE0
 73
     1
 44
1.0
  0
MTEXT
  5
108
330
1F
100
AcDbEntity
  8
0
  6
Continuous
 62
     7
370
     0
100
AcDbMText
 10
5.6317379175
 20
126.8054731028
 30
0.0
 40
4.0
 41
0.0
 71
     1
 72
     1
  1
C
  7
SLDTEXTSTYLE0
 73
     1
 44
1.0
  0
MTEXT
  5
109
330
1F
100
AcDbEntity
  8
0
  6
Continuous
 62
     7
370
     0
100
AcDbMText
 10
133.5
 20
9.489604144
 30
0.0
 40
4.0
 41
0.0
 71
     1
 72
     1
  1
6
  7
SLDTEXTSTYLE0
 73
     1
 44
1.0
  0
MTEXT
  5
10A
330
1F
100
AcDbEntity
  8
0
  6
Continuous
 62
     7
370
     0
100
AcDbMText
 10
83.5
 20
9.489604144
 30
0.0
 40
4.0
 41
0.0
 71
     1
 72
     1
  1
7
  7
SLDTEXTSTYLE0
 73
     1
 44
1.0
  0
MTEXT
  5
10B
330
1F
100
AcDbEntity
  8
0
  6
Continuous
 62
     7
370
     0
100
AcDbMText
 10
183.5
 20
9.489604144
 30
0.0
 40
4.0
 41
0.0
 71
     1
 72
     1
  1
5
  7
SLDTEXTSTYLE0
 73
     1
 44
1.0
  0
MTEXT
  5
10C
330
1F
100
AcDbEntity
  8
0
  6
Continuous
 62
     7
370
     0
100
AcDbMText
 10
5.5396723969
 20
173.989604144
 30
0.0
 40
4.0
 41
0.0
 71
     1
 72
     1
  1
D
  7
SLDTEXTSTYLE0
 73
     1
 44
1.0
  0
MTEXT
  5
10D
330
1F
100
AcDbEntity
  8
0
  6
Continuous
 62
     7
370
     0
100
AcDbMText
 10
5.7692745255
 20
219.989604144
 30
0.0
 40
4.0
 41
0.0
 71
     1
 72
     1
  1
E
  7
SLDTEXTSTYLE0
 73
     1
 44
1.0
  0
MTEXT
  5
10E
330
1F
100
AcDbEntity
  8
0
  6
Continuous
 62
     7
370
     0
100
AcDbMText
 10
6.0
 20
265.989604144
 30
0.0
 40
4.0
 41
0.0
 71
     1
 72
     1
  1
F
  7
SLDTEXTSTYLE0
 73
     1
 44
1.0
  0
MTEXT
  5
10F
330
1F
100
AcDbEntity
  8
0
  6
Continuous
 62
     7
370
     0
100
AcDbMText
 10
33.5
 20
291.489604144
 30
0.0
 40
4.0
 41
0.0
 71
     1
 72
     1
  1
8
  7
SLDTEXTSTYLE0
 73
     1
 44
1.0
  0
MTEXT
  5
110
330
1F
100
AcDbEntity
  8
0
  6
Continuous
 62
     7
370
     0
100
AcDbMText
 10
83.5
 20
291.489604144
 30
0.0
 40
4.0
 41
0.0
 71
     1
 72
     1
  1
7
  7
SLDTEXTSTYLE0
 73
     1
 44
1.0
  0
MTEXT
  5
111
330
1F
100
AcDbEntity
  8
0
  6
Continuous
 62
     7
370
     0
100
AcDbMText
 10
133.5
 20
291.489604144
 30
0.0
 40
4.0
 41
0.0
 71
     1
 72
     1
  1
6
  7
SLDTEXTSTYLE0
 73
     1
 44
1.0
  0
MTEXT
  5
112
330
1F
100
AcDbEntity
  8
0
  6
Continuous
 62
     7
370
     0
100
AcDbMText
 10
183.5
 20
291.489604144
 30
0.0
 40
4.0
 41
0.0
 71
     1
 72
     1
  1
5
  7
SLDTEXTSTYLE0
 73
     1
 44
1.0
  0
MTEXT
  5
113
330
1F
100
AcDbEntity
  8
0
  6
Continuous
 62
     7
370
     0
100
AcDbMText
 10
410.7729847128
 20
34.9442010866
 30
0.0
 40
4.0
 41
0.0
 71
     1
 72
     1
  1
A
  7
SLDTEXTSTYLE0
 73
     1
 44
1.0
  0
MTEXT
  5
114
330
1F
100
AcDbEntity
  8
0
  6
Continuous
 62
     7
370
     0
100
AcDbMText
 10
410.7121909102
 20
81.1364716754
 30
0.0
 40
4.0
 41
0.0
 71
     1
 72
     1
  1
B
  7
SLDTEXTSTYLE0
 73
     1
 44
1.0
  0
MTEXT
  5
115
330
1F
100
AcDbEntity
  8
0
  6
Continuous
 62
     7
370
     0
100
AcDbMText
 10
410.6203893089
 20
126.989604144
 30
0.0
 40
4.0
 41
0.0
 71
     1
 72
     1
  1
C
  7
SLDTEXTSTYLE0
 73
     1
 44
1.0
  0
MTEXT
  5
116
330
1F
100
AcDbEntity
  8
0
  6
Continuous
 62
     7
370
     0
100
AcDbMText
 10
233.5
 20
291.489604144
 30
0.0
 40
4.0
 41
0.0
 71
     1
 72
     1
  1
4
  7
SLDTEXTSTYLE0
 73
     1
 44
1.0
  0
MTEXT
  5
117
330
1F
100
AcDbEntity
  8
0
  6
Continuous
 62
     7
370
     0
100
AcDbMText
 10
284.0
 20
291.489604144
 30
0.0
 40
4.0
 41
0.0
 71
     1
 72
     1
  1
3
  7
SLDTEXTSTYLE0
 73
     1
 44
1.0
  0
MTEXT
  5
118
330
1F
100
AcDbEntity
  8
0
  6
Continuous
 62
     7
370
     0
100
AcDbMText
 10
334.0
 20
291.489604144
 30
0.0
 40
4.0
 41
0.0
 71
     1
 72
     1
  1
2
  7
SLDTEXTSTYLE0
 73
     1
 44
1.0
  0
MTEXT
  5
119
330
1F
100
AcDbEntity
  8
0
  6
Continuous
 62
     7
370
     0
100
AcDbMText
 10
410.5396138496
 20
174.1137585664
 30
0.0
 40
4.0
 41
0.0
 71
     1
 72
     1
  1
D
  7
SLDTEXTSTYLE0
 73
     1
 44
1.0
  0
MTEXT
  5
11A
330
1F
100
AcDbEntity
  8
0
  6
Continuous
 62
     7
370
     0
100
AcDbMText
 10
410.7442616209
 20
220.1816801137
 30
0.0
 40
4.0
 41
0.0
 71
     1
 72
     1
  1
E
  7
SLDTEXTSTYLE0
 73
     1
 44
1.0
  0
MTEXT
  5
11B
330
1F
100
AcDbEntity
  8
0
  6
Continuous
 62
     7
370
     0
100
AcDbMText
 10
384.0
 20
291.489604144
 30
0.0
 40
4.0
 41
0.0
 71
     1
 72
     1
  1
1
  7
SLDTEXTSTYLE0
 73
     1
 44
1.0
  0
MTEXT
  5
11C
330
1F
100
AcDbEntity
  8
0
  6
Continuous
 62
     7
370
     0
100
AcDbMText
 10
411.0
 20
265.989604144
 30
0.0
 40
4.0
 41
0.0
 71
     1
 72
     1
  1
F
  7
SLDTEXTSTYLE0
 73
     1
 44
1.0
  0
MTEXT
  5
11D
330
1F
100
AcDbEntity
  8
0
  6
Continuous
 62
     7
370
     0
100
AcDbMText
 10
233.8998971425
 20
9.6619578374
 30
0.0
 40
4.0
 41
0.0
 71
     1
 72
     1
  1
4
  7
SLDTEXTSTYLE0
 73
     1
 44
1.0
  0
MTEXT
  5
11E
330
1F
100
AcDbEntity
  8
0
  6
Continuous
 62
     7
370
     0
100
AcDbMText
 10
284.3998971425
 20
9.6619578374
 30
0.0
 40
4.0
 41
0.0
 71
     1
 72
     1
  1
3
  7
SLDTEXTSTYLE0
 73
     1
 44
1.0
  0
MTEXT
  5
11F
330
1F
100
AcDbEntity
  8
0
  6
Continuous
 62
     7
370
     0
100
AcDbMText
 10
334.3998971425
 20
9.6619578374
 30
0.0
 40
4.0
 41
0.0
 71
     1
 72
     1
  1
2
  7
SLDTEXTSTYLE0
 73
     1
 44
1.0
  0
MTEXT
  5
120
330
1F
100
AcDbEntity
  8
0
  6
Continuous
 62
     7
370
     0
100
AcDbMText
 10
384.3998971425
 20
9.6619578374
 30
0.0
 40
4.0
 41
0.0
 71
     1
 72
     1
  1
1
  7
SLDTEXTSTYLE0
 73
     1
 44
1.0
  0
MTEXT
  5
121
330
1F
100
AcDbEntity
  8
0
  6
Continuous
 62
     7
370
     0
100
AcDbMText
 10
235.333368457
 20
13.9532375323
 30
0.0
 40
3.0
 41
0.0
 71
     1
 72
     1
  1
01810000
  7
SLDTEXTSTYLE0
 73
     1
 44
1.0
  0
MTEXT
  5
122
330
1F
100
AcDbEntity
  8
0
  6
Continuous
 62
     7
370
     0
100
AcDbMText
 10
277.5042038186
 20
17.4849420031
 30
0.0
 40
4.0
 41
0.0
 71
     1
 72
     1
  1
Vibrateur à bille
  7
SLDTEXTSTYLE0
 73
     1
 44
1.0
  0
MTEXT
  5
123
330
1F
100
AcDbEntity
  8
0
  6
Continuous
 62
     7
370
     0
100
AcDbMText
 10
223.3772893016
 20
16.5178662951
 30
0.0
 40
2.0
 41
0.0
 71
     1
 72
     1
  1
Bestell Nr.: / Part no.: / No d`article:
  7
SLDTEXTSTYLE0
 73
     1
 44
1.0
  0
INSERT
  5
12D
330
1F
100
AcDbEntity
  8
0
  6
Continuous
 62
     7
370
     0
100
AcDbBlockReference
  2
SW_NOTE_3
 10
347.2177413053
 20
17.0976931256
 30
0.0
  0
MTEXT
  5
12E
330
1F
100
AcDbEntity
  8
0
  6
Continuous
 62
     7
370
     0
100
AcDbMText
 10
347.2177413053
 20
22.8281708005
 30
0.0
 40
1.8520833333
 41
0.0
 71
     1
 72
     1
  1
Fritz-Lenges-Straße 3,  55252 Mainz-Kastel
  7
SLDTEXTSTYLE0
 73
     1
 44
1.0
  0
INSERT
  5
134
330
1F
100
AcDbEntity
  8
0
  6
Continuous
 62
     7
370
     0
100
AcDbBlockReference
  2
SW_NOTE_4
 10
347.2177413053
 20
23.0066254519
 30
0.0
  0
MTEXT
  5
135
330
1F
100
AcDbEntity
  8
0
  6
Continuous
 62
     7
370
     0
100
AcDbMText
 10
407.0748866834
 20
30.8708309295
 30
0.0
 40
0.65
 41
0.0
 71
     1
 72
     1
  1
R
  7
SLDTEXTSTYLE0
 73
     1
 44
1.0
  0
MTEXT
  5
136
330
1F
100
AcDbEntity
  8
0
  6
Continuous
 62
     7
370
     0
100
AcDbMText
 10
277.5042038186
 20
24.4879186679
 30
0.0
 40
4.0
 41
0.0
 71
     1
 72
     1
  1
Ball vibrator
  7
SLDTEXTSTYLE0
 73
     1
 44
1.0
  0
MTEXT
  5
137
330
1F
100
AcDbEntity
  8
0
  6
Continuous
 62
     7
370
     0
100
AcDbMText
 10
277.5042038186
 20
31.495794101
 30
0.0
 40
4.0
 41
0.0
 71
     1
 72
     1
  1
Kugelvibrator
  7
SLDTEXTSTYLE0
 73
     1
 44
1.0
  0
MTEXT
  5
139
330
1F
100
AcDbEntity
  8
0
  6
Continuous
 62
     7
370
     0
100
AcDbMText
 10
277.5042038186
 20
40.9994003142
 30
0.0
 40
4.0
 41
0.0
 71
     1
 72
     1
  1
NCB 10
  7
SLDTEXTSTYLE3
 73
     1
 44
1.0
  0
MTEXT
  5
13A
330
1F
100
AcDbEntity
  8
0
  6
Continuous
 62
     7
370
     0
100
AcDbMText
 10
223.3772893016
 20
23.7813752683
 30
0.0
 40
2.0
 41
0.0
 71
     1
 72
     1
  1
Angebot Nr.: / Quotation no.: / Offre no.:
  7
SLDTEXTSTYLE0
 73
     1
 44
1.0
  0
MTEXT
  5
13B
330
1F
100
AcDbEntity
  8
0
  6
Continuous
 62
     7
370
     0
100
AcDbMText
 10
225.29574253
 20
36.1700862926
 30
0.0
 40
2.5
 41
0.0
 71
     1
 72
     1
  1
tous droits réservés
  7
SLDTEXTSTYLE0
 73
     1
 44
1.0
  0
MTEXT
  5
13C
330
1F
100
AcDbEntity
  8
0
  6
Continuous
 62
     7
370
     0
100
AcDbMText
 10
225.29574253
 20
40.2315981188
 30
0.0
 40
2.5
 41
0.0
 71
     1
 72
     1
  1
all rights reserved
  7
SLDTEXTSTYLE0
 73
     1
 44
1.0
  0
MTEXT
  5
13D
330
1F
100
AcDbEntity
  8
0
  6
Continuous
 62
     7
370
     0
100
AcDbMText
 10
225.29574253
 20
44.0417302482
 30
0.0
 40
2.5
 41
0.0
 71
     1
 72
     1
  1
alle Schutzrechte vorbehalten
  7
SLDTEXTSTYLE0
 73
     1
 44
1.0
  0
MTEXT
  5
13E
330
1F
100
AcDbEntity
  8
0
  6
Continuous
 62
     7
370
     0
100
AcDbMText
 10
223.3772893016
 20
31.3281263199
 30
0.0
 40
2.0
 41
0.0
 71
     1
 72
     1
  1
Datum: / Date: / Date:
  7
SLDTEXTSTYLE0
 73
     1
 44
1.0
  0
MTEXT
  5
13F
330
1F
100
AcDbEntity
  8
0
  6
Continuous
 62
     7
370
     0
100
AcDbMText
 10
235.333368457
 20
28.459898148
 30
0.0
 40
3.0
 41
0.0
 71
     1
 72
     1
  1
27.06.2022
  7
SLDTEXTSTYLE0
 73
     1
 44
1.0
  0
LINE
  5
140
330
1F
100
AcDbEntity
  8
0
  6
SLD-Durchgehend
 62
     7
370
    15
100
AcDbLine
 10
80.1468750658
 20
232.1806493027
 30
0.0
 11
80.1468750658
 21
263.1806525214
 31
0.0
  0
LINE
  5
141
330
1F
100
AcDbEntity
  8
0
  6
SLD-Durchgehend
 62
     7
370
    15
100
AcDbLine
 10
60.6468737321
 20
239.6806496007
 30
0.0
 11
60.6468737321
 21
232.1806493027
 31
0.0
  0
LINE
  5
142
330
1F
100
AcDbEntity
  8
0
  6
SLD-Durchgehend
 62
     7
370
    15
100
AcDbLine
 10
60.6468737321
 20
247.680650912
 30
0.0
 11
60.6468737321
 21
241.6806499286
 31
0.0
  0
LINE
  5
143
330
1F
100
AcDbEntity
  8
0
  6
SLD-Durchgehend
 62
     7
370
    15
100
AcDbLine
 10
60.6468737321
 20
255.6806522234
 30
0.0
 11
60.6468737321
 21
249.6806475146
 31
0.0
  0
LINE
  5
144
330
1F
100
AcDbEntity
  8
0
  6
SLD-Durchgehend
 62
     7
370
    15
100
AcDbLine
 10
60.6468737321
 20
263.1806525214
 30
0.0
 11
60.6468737321
 21
257.6806488259
 31
0.0
  0
ARC
  5
145
330
1F
100
AcDbEntity
  8
0
  6
SLD-Durchgehend
 62
     7
370
    15
100
AcDbCircle
 10
61.1468747454
 20
263.1806491835
 30
0.0
 40
0.5000000000000071
100
AcDbArc
 50
90.0
 51
180.0
  0
ARC
  5
146
330
1F
100
AcDbEntity
  8
0
  6
SLD-Durchgehend
 62
     7
370
    15
100
AcDbCircle
 10
79.6468747454
 20
263.1806491835
 30
0.0
 40
0.5000000000000142
100
AcDbArc
 50
0.0
 51
90.0
  0
ARC
  5
147
330
1F
100
AcDbEntity
  8
0
  6
SLD-Durchgehend
 62
     7
370
    15
100
AcDbCircle
 10
61.1468747454
 20
232.1806491835
 30
0.0
 40
0.5000000000000071
100
AcDbArc
 50
180.0
 51
270.0
  0
ARC
  5
148
330
1F
100
AcDbEntity
  8
0
  6
SLD-Durchgehend
 62
     7
370
    15
100
AcDbCircle
 10
79.6468747454
 20
232.1806491835
 30
0.0
 40
0.5
100
AcDbArc
 50
270.0
 51
0.0
  0
LINE
  5
149
330
1F
100
AcDbEntity
  8
0
  6
SLD-Durchgehend
 62
     7
370
    15
100
AcDbLine
 10
61.8968744027
 20
249.6806475146
 30
0.0
 11
61.8968744027
 21
247.680650912
 31
0.0
  0
LINE
  5
14A
330
1F
100
AcDbEntity
  8
0
  6
SLD-Durchgehend
 62
     7
370
    15
100
AcDbLine
 10
61.8968744027
 20
241.6806499286
 30
0.0
 11
61.8968744027
 21
239.6806496007
 31
0.0
  0
LINE
  5
14B
330
1F
100
AcDbEntity
  8
0
  6
SLD-Durchgehend
 62
     7
370
    15
100
AcDbLine
 10
61.8968744027
 20
257.6806488259
 30
0.0
 11
61.8968744027
 21
255.6806522234
 31
0.0
  0
LINE
  5
14C
330
1F
100
AcDbEntity
  8
0
  6
SLD-Durchgehend
 62
     7
370
    15
100
AcDbLine
 10
70.3968748646
 20
241.6806499286
 30
0.0
 11
70.3968748646
 21
239.6806496007
 31
0.0
  0
LINE
  5
14D
330
1F
100
AcDbEntity
  8
0
  6
SLD-Durchgehend
 62
     7
370
    15
100
AcDbLine
 10
60.6468737321
 20
241.6806499286
 30
0.0
 11
70.3968748646
 21
241.6806499286
 31
0.0
  0
LINE
  5
14E
330
1F
100
AcDbEntity
  8
0
  6
SLD-Durchgehend
 62
     7
370
    15
100
AcDbLine
 10
60.6468737321
 20
239.6806496007
 30
0.0
 11
70.3968748646
 21
239.6806496007
 31
0.0
  0
LINE
  5
14F
330
1F
100
AcDbEntity
  8
0
  6
SLD-Durchgehend
 62
     7
370
    15
100
AcDbLine
 10
60.6468737321
 20
247.680650912
 30
0.0
 11
70.3968748646
 21
247.680650912
 31
0.0
  0
LINE
  5
150
330
1F
100
AcDbEntity
  8
0
  6
SLD-Durchgehend
 62
     7
370
    15
100
AcDbLine
 10
70.3968748646
 20
247.680650912
 30
0.0
 11
70.3968748646
 21
249.6806475146
 31
0.0
  0
LINE
  5
151
330
1F
100
AcDbEntity
  8
0
  6
SLD-Durchgehend
 62
     7
370
    15
100
AcDbLine
 10
60.6468737321
 20
249.6806475146
 30
0.0
 11
70.3968748646
 21
249.6806475146
 31
0.0
  0
LINE
  5
152
330
1F
100
AcDbEntity
  8
0
  6
SLD-Durchgehend
 62
     7
370
    15
100
AcDbLine
 10
60.6468737321
 20
255.6806522234
 30
0.0
 11
70.3968748646
 21
255.6806522234
 31
0.0
  0
LINE
  5
153
330
1F
100
AcDbEntity
  8
0
  6
SLD-Durchgehend
 62
     7
370
    15
100
AcDbLine
 10
70.3968748646
 20
255.6806522234
 30
0.0
 11
70.3968748646
 21
257.6806488259
 31
0.0
  0
LINE
  5
154
330
1F
100
AcDbEntity
  8
0
  6
SLD-Durchgehend
 62
     7
370
    15
100
AcDbLine
 10
60.6468737321
 20
257.6806488259
 30
0.0
 11
70.3968748646
 21
257.6806488259
 31
0.0
  0
LINE
  5
155
330
1F
100
AcDbEntity
  8
0
  6
SLD-Durchgehend
 62
     7
370
    15
100
AcDbLine
 10
61.1468747454
 20
263.6806460841
 30
0.0
 11
79.6468749838
 21
263.6806460841
 31
0.0
  0
LINE
  5
156
330
1F
100
AcDbEntity
  8
0
  6
SLD-Durchgehend
 62
     7
370
    15
100
AcDbLine
 10
64.3968738811
 20
266.6806521637
 30
0.0
 11
70.3968748646
 21
266.6806521637
 31
0.0
  0
LINE
  5
157
330
1F
100
AcDbEntity
  8
0
  6
SLD-Durchgehend
 62
     7
370
    15
100
AcDbLine
 10
70.3968748646
 20
266.6806521637
 30
0.0
 11
76.3968739854
 21
266.6806521637
 31
0.0
  0
ARC
  5
158
330
1F
100
AcDbEntity
  8
0
  6
SLD-Durchgehend
 62
     7
370
    15
100
AcDbCircle
 10
77.3968747454
 20
264.1806491835
 30
0.0
 40
0.5000000000000284
100
AcDbArc
 50
180.0
 51
270.0
  0
ARC
  5
159
330
1F
100
AcDbEntity
  8
0
  6
SLD-Durchgehend
 62
     7
370
    15
100
AcDbCircle
 10
63.3968747454
 20
264.1806491835
 30
0.0
 40
0.5000000000000142
100
AcDbArc
 50
270.0
 51
0.0
  0
ARC
  5
15A
330
1F
100
AcDbEntity
  8
0
  6
SLD-Durchgehend
 62
     7
370
    15
100
AcDbCircle
 10
64.3968747454
 20
266.1806491835
 30
0.0
 40
0.5
100
AcDbArc
 50
90.0
 51
180.0
  0
LINE
  5
15B
330
1F
100
AcDbEntity
  8
0
  6
SLD-Durchgehend
 62
     7
370
    15
100
AcDbLine
 10
63.8968747305
 20
264.1806470974
 30
0.0
 11
63.8968747305
 21
266.1806511505
 31
0.0
  0
ARC
  5
15C
330
1F
100
AcDbEntity
  8
0
  6
SLD-Durchgehend
 62
     7
370
    15
100
AcDbCircle
 10
76.3968747454
 20
266.1806491835
 30
0.0
 40
0.5
100
AcDbArc
 50
0.0
 51
90.0
  0
LINE
  5
15D
330
1F
100
AcDbEntity
  8
0
  6
SLD-Durchgehend
 62
     7
370
    15
100
AcDbLine
 10
76.8968749987
 20
266.1806511505
 30
0.0
 11
76.8968749987
 21
264.1806470974
 31
0.0
  0
CIRCLE
  5
15E
330
1F
100
AcDbEntity
  8
0
  6
SLD-Durchgehend
 62
     7
370
    15
100
AcDbCircle
 10
92.3968747454
 20
191.6806491835
 30
0.0
 40
32.06698729810779
  0
LINE
  5
15F
330
1F
100
AcDbEntity
  8
0
  6
SLD-Durchgehend
 62
     7
370
    15
100
AcDbLine
 10
125.3968745666
 20
217.68064972
 30
0.0
 11
122.3968740748
 21
211.6806487365
 31
0.0
  0
CIRCLE
  5
160
330
1F
100
AcDbEntity
  8
0
  6
SLD-Durchgehend
 62
     7
370
    15
100
AcDbCircle
 10
122.3968747454
 20
161.6806491835
 30
0.0
 40
1.0
  0
LINE
  5
161
330
1F
100
AcDbEntity
  8
0
  6
SLD-Durchgehend
 62
     7
370
    15
100
AcDbLine
 10
123.3968742387
 20
152.1806473656
 30
0.0
 11
61.396875252
 21
152.1806473656
 31
0.0
  0
LINE
  5
162
330
1F
100
AcDbEntity
  8
0
  6
SLD-Durchgehend
 62
     7
370
    15
100
AcDbLine
 10
123.3968742387
 20
217.68064972
 30
0.0
 11
125.3968745666
 21
217.68064972
 31
0.0
  0
ARC
  5
163
330
1F
100
AcDbEntity
  8
0
  6
SLD-Durchgehend
 62
     7
370
    15
100
AcDbCircle
 10
134.8968747454
 20
170.1806491835
 30
0.0
 40
2.5
100
AcDbArc
 50
180.0
 51
270.0
  0
LINE
  5
164
330
1F
100
AcDbEntity
  8
0
  6
SLD-Durchgehend
 62
     7
370
    15
100
AcDbLine
 10
59.3968749242
 20
219.6806500478
 30
0.0
 11
61.396875252
 21
219.6806500478
 31
0.0
  0
LINE
  5
165
330
1F
100
AcDbEntity
  8
0
  6
SLD-Durchgehend
 62
     7
370
    15
100
AcDbLine
 10
123.3968742387
 20
225.6806510313
 30
0.0
 11
123.3968742387
 21
217.68064972
 31
0.0
  0
LINE
  5
166
330
1F
100
AcDbEntity
  8
0
  6
SLD-Durchgehend
 62
     7
370
    15
100
AcDbLine
 10
121.3968739109
 20
217.68064972
 30
0.0
 11
121.3968739109
 21
225.6806510313
 31
0.0
  0
LINE
  5
167
330
1F
100
AcDbEntity
  8
0
  6
SLD-Durchgehend
 62
     7
370
    15
100
AcDbLine
 10
61.396875252
 20
211.6806487365
 30
0.0
 11
63.3968755799
 21
211.6806487365
 31
0.0
  0
LINE
  5
168
330
1F
100
AcDbEntity
  8
0
  6
SLD-Durchgehend
 62
     7
370
    15
100
AcDbLine
 10
122.3968740748
 20
211.6806487365
 30
0.0
 11
119.3968754457
 21
217.68064972
 31
0.0
  0
LINE
  5
169
330
1F
100
AcDbEntity
  8
0
  6
SLD-Durchgehend
 62
     7
370
    15
100
AcDbLine
 10
63.3968755799
 20
219.6806500478
 30
0.0
 11
65.396874045
 21
219.6806500478
 31
0.0
  0
ARC
  5
16A
330
1F
100
AcDbEntity
  8
0
  6
SLD-Durchgehend
 62
     7
370
    15
100
AcDbCircle
 10
49.8968747454
 20
170.1806491835
 30
0.0
 40
2.5
100
AcDbArc
 50
270.0
 51
0.0
  0
LINE
  5
16B
330
1F
100
AcDbEntity
  8
0
  6
SLD-Durchgehend
 62
     7
370
    15
100
AcDbLine
 10
62.3968754159
 20
225.6806510313
 30
0.0
 11
59.3968749242
 21
219.6806500478
 31
0.0
  0
CIRCLE
  5
16C
330
1F
100
AcDbEntity
  8
0
  6
SLD-Durchgehend
 62
     7
370
    15
100
AcDbCircle
 10
92.3968747454
 20
191.6806491835
 30
0.0
 40
32.24999999999999
  0
LINE
  5
16D
330
1F
100
AcDbEntity
  8
0
  6
SLD-Durchgehend
 62
     7
370
    15
100
AcDbLine
 10
61.396875252
 20
219.6806500478
 30
0.0
 11
61.396875252
 21
211.6806487365
 31
0.0
  0
CIRCLE
  5
16E
330
1F
100
AcDbEntity
  8
0
  6
SLD-Durchgehend
 62
     7
370
    15
100
AcDbCircle
 10
62.3968747454
 20
161.6806491835
 30
0.0
 40
1.0
  0
LINE
  5
16F
330
1F
100
AcDbEntity
  8
0
  6
SLD-Durchgehend
 62
     7
370
    15
100
AcDbLine
 10
123.3968742387
 20
151.6806500776
 30
0.0
 11
123.3968742387
 21
152.1806473656
 31
0.0
  0
LINE
  5
170
330
1F
100
AcDbEntity
  8
0
  6
SLD-Durchgehend
 62
     7
370
    15
100
AcDbLine
 10
61.396875252
 20
152.1806473656
 30
0.0
 11
61.396875252
 21
151.6806500776
 31
0.0
  0
LINE
  5
171
330
1F
100
AcDbEntity
  8
0
  6
SLD-Durchgehend
 62
     7
370
    15
100
AcDbLine
 10
132.3968738513
 20
231.6806482894
 30
0.0
 11
132.3968738513
 21
170.1806484534
 31
0.0
  0
LINE
  5
172
330
1F
100
AcDbEntity
  8
0
  6
SLD-Durchgehend
 62
     7
370
    15
100
AcDbLine
 10
134.8968751924
 20
167.6806489749
 30
0.0
 11
156.3968777852
 21
167.6806489749
 31
0.0
  0
LINE
  5
173
330
1F
100
AcDbEntity
  8
0
  6
SLD-Durchgehend
 62
     7
370
    15
100
AcDbLine
 10
28.3968717055
 20
167.6806489749
 30
0.0
 11
49.8968742984
 21
167.6806489749
 31
0.0
  0
LINE
  5
174
330
1F
100
AcDbEntity
  8
0
  6
SLD-Durchgehend
 62
     7
370
    15
100
AcDbLine
 10
52.3968756395
 20
170.1806484534
 30
0.0
 11
52.3968756395
 21
231.6806482894
 31
0.0
  0
LINE
  5
175
330
1F
100
AcDbEntity
  8
0
  6
SLD-Durchgehend
 62
     7
370
    15
100
AcDbLine
 10
63.3968755799
 20
211.6806487365
 30
0.0
 11
63.3968755799
 21
219.6806500478
 31
0.0
  0
LINE
  5
176
330
1F
100
AcDbEntity
  8
0
  6
SLD-Durchgehend
 62
     7
370
    15
100
AcDbLine
 10
132.3968738513
 20
231.6806482894
 30
0.0
 11
52.3968756395
 21
231.6806482894
 31
0.0
  0
LINE
  5
177
330
1F
100
AcDbEntity
  8
0
  6
SLD-Durchgehend
 62
     7
370
    15
100
AcDbLine
 10
65.396874045
 20
219.6806500478
 30
0.0
 11
62.3968754159
 21
225.6806510313
 31
0.0
  0
LINE
  5
178
330
1F
100
AcDbEntity
  8
0
  6
SLD-Durchgehend
 62
     7
370
    15
100
AcDbLine
 10
123.3968742387
 20
151.6806500776
 30
0.0
 11
156.3968777852
 21
151.6806500776
 31
0.0
  0
LINE
  5
179
330
1F
100
AcDbEntity
  8
0
  6
SLD-Durchgehend
 62
     7
370
    15
100
AcDbLine
 10
28.3968717055
 20
167.6806489749
 30
0.0
 11
28.3968717055
 21
151.6806500776
 31
0.0
  0
LINE
  5
17A
330
1F
100
AcDbEntity
  8
0
  6
SLD-Durchgehend
 62
     7
370
    15
100
AcDbLine
 10
28.3968717055
 20
151.6806500776
 30
0.0
 11
61.396875252
 21
151.6806500776
 31
0.0
  0
LINE
  5
17B
330
1F
100
AcDbEntity
  8
0
  6
SLD-Durchgehend
 62
     7
370
    15
100
AcDbLine
 10
121.3968739109
 20
225.6806510313
 30
0.0
 11
123.3968742387
 21
225.6806510313
 31
0.0
  0
LINE
  5
17C
330
1F
100
AcDbEntity
  8
0
  6
SLD-Durchgehend
 62
     7
370
    15
100
AcDbLine
 10
156.3968777852
 20
151.6806500776
 30
0.0
 11
156.3968777852
 21
167.6806489749
 31
0.0
  0
LINE
  5
17D
330
1F
100
AcDbEntity
  8
0
  6
SLD-Durchgehend
 62
     7
370
    15
100
AcDbLine
 10
119.3968754457
 20
217.68064972
 30
0.0
 11
121.3968739109
 21
217.68064972
 31
0.0
  0
LINE
  5
17E
330
1F
100
AcDbEntity
  8
0
  6
SLD-Durchgehend
 62
     8
370
     0
100
AcDbLine
 10
80.1468750658
 20
263.1806525214
 30
0.0
 11
60.6468737321
 21
263.1806525214
 31
0.0
  0
LINE
  5
17F
330
1F
100
AcDbEntity
  8
0
  6
SLD-Durchgehend
 62
     8
370
     0
100
AcDbLine
 10
60.6468737321
 20
232.1806493027
 30
0.0
 11
80.1468750658
 21
232.1806493027
 31
0.0
  0
LWPOLYLINE
  5
180
330
1F
100
AcDbEntity
  8
0
  6
SLD-Durchgehend
 62
     8
370
     0
100
AcDbPolyline
 90
        9
 70
   128
 43
0.0
 10
69.8968738513
 20
263.6806460841
 10
69.9456472145
 20
263.690257333
 10
69.9925448941
 20
263.7187111003
 10
70.0357675748
 20
263.7649121506
 10
70.0736519145
 20
263.8270946963
 10
70.1047413247
 20
263.902867101
 10
70.1278437125
 20
263.989308737
 10
70.1420705961
 20
264.0831040962
 10
70.146874358
 20
264.1806470974
  0
LINE
  5
181
330
1F
100
AcDbEntity
  8
0
  6
SLD-Durchgehend
 62
     8
370
     0
100
AcDbLine
 10
70.6468753712
 20
264.1806470974
 30
0.0
 11
70.146874358
 21
264.1806470974
 31
0.0
  0
LWPOLYLINE
  5
182
330
1F
100
AcDbEntity
  8
0
  6
SLD-Durchgehend
 62
     8
370
     0
100
AcDbPolyline
 90
        9
 70
   128
 43
0.0
 10
70.8968740152
 20
263.6806460841
 10
70.8481025146
 20
263.690257333
 10
70.8012029724
 20
263.7187111003
 10
70.7579821544
 20
263.7649121506
 10
70.7200978147
 20
263.8270946963
 10
70.6890065419
 20
263.902867101
 10
70.6659041541
 20
263.989308737
 10
70.6516791331
 20
264.0831040962
 10
70.6468753712
 20
264.1806470974
  0
LINE
  5
183
330
1F
100
AcDbEntity
  8
0
  6
SLD-Durchgehend
 62
     8
370
     0
100
AcDbLine
 10
70.6468753712
 20
264.1806470974
 30
0.0
 11
76.6468744921
 21
264.1806470974
 31
0.0
  0
LWPOLYLINE
  5
184
330
1F
100
AcDbEntity
  8
0
  6
SLD-Durchgehend
 62
     8
370
     0
100
AcDbPolyline
 90
        9
 70
   128
 43
0.0
 10
76.8968749987
 20
263.6806460841
 10
76.8481025668
 20
263.690257333
 10
76.8012039559
 20
263.7187111003
 10
76.7579812752
 20
263.7649121506
 10
76.7200987982
 20
263.8270946963
 10
76.6890075253
 20
263.902867101
 10
76.6659051376
 20
263.989308737
 10
76.6516782539
 20
264.0831040962
 10
76.6468744921
 20
264.1806470974
  0
LWPOLYLINE
  5
185
330
1F
100
AcDbEntity
  8
0
  6
SLD-Durchgehend
 62
     8
370
     0
100
AcDbPolyline
 90
        9
 70
   128
 43
0.0
 10
63.8968747305
 20
263.6806460841
 10
63.9456480937
 20
263.690257333
 10
63.9925457733
 20
263.7187111003
 10
64.0357665913
 20
263.7649121506
 10
64.073650931
 20
263.8270946963
 10
64.1047422038
 20
263.902867101
 10
64.1278445916
 20
263.989308737
 10
64.1420714753
 20
264.0831040962
 10
64.1468752371
 20
264.1806470974
  0
LINE
  5
186
330
1F
100
AcDbEntity
  8
0
  6
SLD-Durchgehend
 62
     8
370
     0
100
AcDbLine
 10
64.1468752371
 20
264.1806470974
 30
0.0
 11
70.146874358
 21
264.1806470974
 31
0.0
  0
LWPOLYLINE
  5
187
330
1F
100
AcDbEntity
  8
0
  6
SLD-Durchgehend
 62
     8
370
     0
100
AcDbPolyline
 90
        9
 70
   128
 43
0.0
 10
70.146874358
 20
266.1806511505
 10
70.1516781198
 20
266.2781941516
 10
70.1659050034
 20
266.3719895108
 10
70.1890073912
 20
266.4584311469
 10
70.2200986641
 20
266.5342035515
 10
70.2579830038
 20
266.5963860972
 10
70.3012038218
 20
266.6425871475
 10
70.3481015014
 20
266.6710409148
 10
70.3968748646
 20
266.6806521637
  0
LWPOLYLINE
  5
188
330
1F
100
AcDbEntity
  8
0
  6
SLD-Durchgehend
 62
     8
370
     0
100
AcDbPolyline
 90
        9
 70
   128
 43
0.0
 10
70.6468753712
 20
266.1806511505
 10
70.6420716094
 20
266.2781941516
 10
70.6278447257
 20
266.3719895108
 10
70.604742338
 20
266.4584311469
 10
70.5736510651
 20
266.5342035515
 10
70.5357667254
 20
266.5963860972
 10
70.4925459074
 20
266.6425871475
 10
70.4456482278
 20
266.6710409148
 10
70.3968748646
 20
266.6806521637
  0
LINE
  5
189
330
1F
100
AcDbEntity
  8
0
  6
SLD-Durchgehend
 62
     8
370
     0
100
AcDbLine
 10
70.146874358
 20
266.1806511505
 30
0.0
 11
70.6468753712
 21
266.1806511505
 31
0.0
  0
LINE
  5
18A
330
1F
100
AcDbEntity
  8
0
  6
SLD-Durchgehend
 62
     8
370
     0
100
AcDbLine
 10
70.146874358
 20
264.1806470974
 30
0.0
 11
70.146874358
 21
266.1806511505
 31
0.0
  0
LINE
  5
18B
330
1F
100
AcDbEntity
  8
0
  6
SLD-Durchgehend
 62
     8
370
     0
100
AcDbLine
 10
70.6468753712
 20
266.1806511505
 30
0.0
 11
70.6468753712
 21
264.1806470974
 31
0.0
  0
LINE
  5
18C
330
1F
100
AcDbEntity
  8
0
  6
SLD-Durchgehend
 62
     8
370
     0
100
AcDbLine
 10
70.146874358
 20
266.1806511505
 30
0.0
 11
64.1468752371
 21
266.1806511505
 31
0.0
  0
LWPOLYLINE
  5
18D
330
1F
100
AcDbEntity
  8
0
  6
SLD-Durchgehend
 62
     8
370
     0
100
AcDbPolyline
 90
        9
 70
   128
 43
0.0
 10
64.1468752371
 20
266.1806511505
 10
64.151678999
 20
266.2781941516
 10
64.16590402
 20
266.3719895108
 10
64.1890082704
 20
266.4584311469
 10
64.2200976806
 20
266.5342035515
 10
64.2579820203
 20
266.5963860972
 10
64.301204701
 20
266.6425871475
 10
64.3481023805
 20
266.6710409148
 10
64.3968738811
 20
266.6806521637
  0
LINE
  5
18E
330
1F
100
AcDbEntity
  8
0
  6
SLD-Durchgehend
 62
     8
370
     0
100
AcDbLine
 10
64.1468752371
 20
266.1806511505
 30
0.0
 11
64.1468752371
 21
264.1806470974
 31
0.0
  0
LINE
  5
18F
330
1F
100
AcDbEntity
  8
0
  6
SLD-Durchgehend
 62
     8
370
     0
100
AcDbLine
 10
76.6468744921
 20
266.1806511505
 30
0.0
 11
70.6468753712
 21
266.1806511505
 31
0.0
  0
LWPOLYLINE
  5
190
330
1F
100
AcDbEntity
  8
0
  6
SLD-Durchgehend
 62
     8
370
     0
100
AcDbPolyline
 90
        9
 70
   128
 43
0.0
 10
76.6468744921
 20
266.1806511505
 10
76.6420707302
 20
266.2781941516
 10
76.6278438466
 20
266.3719895108
 10
76.6047414588
 20
266.4584311469
 10
76.5736520486
 20
266.5342035515
 10
76.5357677089
 20
266.5963860972
 10
76.4925450282
 20
266.6425871475
 10
76.4456473487
 20
266.6710409148
 10
76.3968739854
 20
266.6806521637
  0
LINE
  5
191
330
1F
100
AcDbEntity
  8
0
  6
SLD-Durchgehend
 62
     8
370
     0
100
AcDbLine
 10
76.6468744921
 20
264.1806470974
 30
0.0
 11
76.6468744921
 21
266.1806511505
 31
0.0
  0
LINE
  5
192
330
1F
100
AcDbEntity
  8
0
  6
SLD-Durchgehend
 62
     8
370
     0
100
AcDbLine
 10
76.8968749987
 20
264.1806470974
 30
0.0
 11
76.6468744921
 21
264.1806470974
 31
0.0
  0
LINE
  5
193
330
1F
100
AcDbEntity
  8
0
  6
SLD-Durchgehend
 62
     8
370
     0
100
AcDbLine
 10
64.1468752371
 20
264.1806470974
 30
0.0
 11
63.8968747305
 21
264.1806470974
 31
0.0
  0
LINE
  5
194
330
1F
100
AcDbEntity
  8
0
  6
SLD-Durchgehend
 62
     8
370
     0
100
AcDbLine
 10
63.8968747305
 20
266.1806511505
 30
0.0
 11
64.1468752371
 21
266.1806511505
 31
0.0
  0
LINE
  5
195
330
1F
100
AcDbEntity
  8
0
  6
SLD-Durchgehend
 62
     8
370
     0
100
AcDbLine
 10
76.6468744921
 20
266.1806511505
 30
0.0
 11
76.8968749987
 21
266.1806511505
 31
0.0
  0
CIRCLE
  5
196
330
1F
100
AcDbEntity
  8
0
  6
SLD-Durchgehend
 62
     8
370
     0
100
AcDbCircle
 10
92.3968747454
 20
191.6806491835
 30
0.0
 40
9.0
  0
CIRCLE
  5
197
330
1F
100
AcDbEntity
  8
0
  6
SLD-Durchgehend
 62
     8
370
     0
100
AcDbCircle
 10
92.3968747454
 20
191.6806491835
 30
0.0
 40
21.23228752215593
  0
CIRCLE
  5
198
330
1F
100
AcDbEntity
  8
0
  6
SLD-Durchgehend
 62
     8
370
     0
100
AcDbCircle
 10
92.3968747454
 20
191.6806491835
 30
0.0
 40
29.4689110867545
  0
CIRCLE
  5
199
330
1F
100
AcDbEntity
  8
0
  6
SLD-Durchgehend
 62
     8
370
     0
100
AcDbCircle
 10
92.3968747454
 20
191.6806491835
 30
0.0
 40
28.60288568297008
  0
CIRCLE
  5
19A
330
1F
100
AcDbEntity
  8
0
  6
SLD-Durchgehend
 62
     8
370
     0
100
AcDbCircle
 10
92.3968747454
 20
191.6806491835
 30
0.0
 40
21.95183384698862
  0
INSERT
  5
19B
330
1F
100
AcDbEntity
  8
0
  6
Continuous
 62
     7
100
AcDbBlockReference
  2
Zuluft Text
 10
138.0441957067
 20
247.3859705452
 30
0.0
  0
LEADER
  5
19D
330
1F
100
AcDbEntity
  8
0
  6
Continuous
 62
     7
100
AcDbLeader
  3
SLDDIMSTYLE0
 76
     2
 10
115.2157866733
 20
231.8806491835
 30
0.0
 10
138.0441957067
 20
247.3859705452
 30
0.0
  0
INSERT
  5
19E
330
1F
100
AcDbEntity
  8
0
  6
Continuous
 62
     7
100
AcDbBlockReference
  2
Abluft Text
 10
31.0489334826
 20
244.1724627819
 30
0.0
  0
LEADER
  5
19F
330
1F
100
AcDbEntity
  8
0
  6
Continuous
 62
     7
100
AcDbLeader
  3
SLDDIMSTYLE0
 76
     2
 10
69.9803312123
 20
231.6806491835
 30
0.0
 10
31.0489334826
 20
244.1724627819
 30
0.0
  0
DIMENSION
  5
1A0
330
1F
100
AcDbEntity
  8
0
  6
SLD-Durchgehend
 62
     7
370
     0
100
AcDbDimension
  2
_D
 10
166.3968747454
 20
151.6806491835
 30
0.0
 11
166.3968747454
 21
159.6806491835
 31
0.0
 70
   160
  1
<>
 71
     2
 42
-1.0
  3
SLDDIMSTYLE1
100
AcDbAlignedDimension
 13
156.3968747454
 23
167.6806491835
 33
0.0
 14
156.3968747454
 24
151.6806491835
 34
0.0
 50
90.0
100
AcDbRotatedDimension
  0
DIMENSION
  5
1AB
330
1F
100
AcDbEntity
  8
0
  6
SLD-Durchgehend
 62
     7
370
     0
100
AcDbDimension
  2
_D_1
 10
176.8139712026
 20
151.6806491835
 30
0.0
 11
176.8139712026
 21
191.6806491835
 31
0.0
 70
   160
  1
<>
 71
     2
 42
-1.0
  3
SLDDIMSTYLE1
100
AcDbAlignedDimension
 13
132.3968747454
 23
231.6806491835
 33
0.0
 14
156.3968747454
 24
151.6806491835
 34
0.0
 50
90.0
100
AcDbRotatedDimension
  0
DIMENSION
  5
1B5
330
1F
100
AcDbEntity
  8
0
  6
SLD-Durchgehend
 62
     7
370
     0
100
AcDbDimension
  2
_D_2
 10
189.9649977844
 20
151.6806491835
 30
0.0
 11
189.9649977844
 21
209.1806491835
 31
0.0
 70
   160
  1
<>
 71
     2
 42
-1.0
  3
SLDDIMSTYLE1
100
AcDbAlignedDimension
 13
70.3968747454
 23
266.6806491835
 33
0.0
 14
156.3968747454
 24
151.6806491835
 34
0.0
 50
90.0
100
AcDbRotatedDimension
  0
DIMENSION
  5
1BF
330
1F
100
AcDbEntity
  8
0
  6
SLD-Durchgehend
 62
     7
370
     0
100
AcDbDimension
  2
_D_3
 10
156.3968747454
 20
131.5190223292
 30
0.0
 11
92.3968747454
 21
131.5190223292
 31
0.0
 70
   160
  1
<>
 71
     2
 42
-1.0
  3
SLDDIMSTYLE1
100
AcDbAlignedDimension
 13
28.3968747454
 23
151.6806491835
 33
0.0
 14
156.3968747454
 24
151.6806491835
 34
0.0
100
AcDbRotatedDimension
  0
DIMENSION
  5
1C9
330
1F
100
AcDbEntity
  8
0
  6
SLD-Durchgehend
 62
     7
370
     0
100
AcDbDimension
  2
_D_4
 10
132.3968747454
 20
276.6806491835
 30
0.0
 11
92.3968747454
 21
276.6806491835
 31
0.0
 70
   160
  1
<>
 71
     2
 42
-1.0
  3
SLDDIMSTYLE1
100
AcDbAlignedDimension
 13
52.3968747454
 23
231.6806491835
 33
0.0
 14
132.3968747454
 24
231.6806491835
 34
0.0
100
AcDbRotatedDimension
  0
DIMENSION
  5
1D3
330
1F
100
AcDbEntity
  8
0
  6
SLD-Durchgehend
 62
     7
370
     0
100
AcDbDimension
  2
_D_5
 10
62.3968747454
 20
141.6806491835
 30
0.0
 11
92.3968747454
 21
141.6806491835
 31
0.0
 70
   160
  1
<>
 71
     2
 42
-1.0
  3
SLDDIMSTYLE1
100
AcDbAlignedDimension
 13
122.3968747454
 23
161.6806491835
 33
0.0
 14
62.3968747454
 24
161.6806491835
 34
0.0
100
AcDbRotatedDimension
  0
DIMENSION
  5
1DD
330
1F
100
AcDbEntity
  8
0
  6
SLD-Durchgehend
 62
     7
370
     0
100
AcDbDimension
  2
_D_6
 10
49.0122957652
 20
151.6806491835
 30
0.0
 11
49.0122957652
 21
156.6806491835
 31
0.0
 70
   160
  1
<>
 71
     2
 42
-1.0
  3
SLDDIMSTYLE1
100
AcDbAlignedDimension
 13
62.3968747454
 23
161.6806491835
 33
0.0
 14
61.3968747454
 24
151.6806491835
 34
0.0
 50
90.0
100
AcDbRotatedDimension
  0
INSERT
  5
1F1
330
1F
100
AcDbEntity
  8
0
  6
SLD-Durchgehend
 62
     7
370
     0
100
AcDbBlockReference
  2
SW_CENTERMARKSYMBOL_0
 10
92.3968747454
 20
191.6806491835
 30
0.0
  0
ARC
  5
1F2
330
1F
100
AcDbEntity
  8
0
  6
SLD-Durchgehend
 62
     7
370
    15
100
AcDbCircle
 10
218.2589315719
 20
232.1806491835
 30
0.0
 40
0.5
100
AcDbArc
 50
180.0
 51
270.0
  0
ARC
  5
1F3
330
1F
100
AcDbEntity
  8
0
  6
SLD-Durchgehend
 62
     7
370
    15
100
AcDbCircle
 10
236.7589315719
 20
232.1806491835
 30
0.0
 40
0.5
100
AcDbArc
 50
270.0
 51
0.0
  0
LINE
  5
1F4
330
1F
100
AcDbEntity
  8
0
  6
SLD-Durchgehend
 62
     7
370
    15
100
AcDbLine
 10
237.2589317731
 20
257.6806488259
 30
0.0
 11
237.2589317731
 21
263.1806525214
 31
0.0
  0
LINE
  5
1F5
330
1F
100
AcDbEntity
  8
0
  6
SLD-Durchgehend
 62
     7
370
    15
100
AcDbLine
 10
237.2589317731
 20
249.6806475146
 30
0.0
 11
237.2589317731
 21
255.6806522234
 31
0.0
  0
LINE
  5
1F6
330
1F
100
AcDbEntity
  8
0
  6
SLD-Durchgehend
 62
     7
370
    15
100
AcDbLine
 10
237.2589317731
 20
241.6806499286
 30
0.0
 11
237.2589317731
 21
247.680650912
 31
0.0
  0
LINE
  5
1F7
330
1F
100
AcDbEntity
  8
0
  6
SLD-Durchgehend
 62
     7
370
    15
100
AcDbLine
 10
237.2589317731
 20
232.1806493027
 30
0.0
 11
237.2589317731
 21
239.6806496007
 31
0.0
  0
LINE
  5
1F8
330
1F
100
AcDbEntity
  8
0
  6
SLD-Durchgehend
 62
     7
370
    15
100
AcDbLine
 10
217.7589313707
 20
239.6806496007
 30
0.0
 11
217.7589313707
 21
232.1806493027
 31
0.0
  0
LINE
  5
1F9
330
1F
100
AcDbEntity
  8
0
  6
SLD-Durchgehend
 62
     7
370
    15
100
AcDbLine
 10
217.7589313707
 20
247.680650912
 30
0.0
 11
217.7589313707
 21
241.6806499286
 31
0.0
  0
LINE
  5
1FA
330
1F
100
AcDbEntity
  8
0
  6
SLD-Durchgehend
 62
     7
370
    15
100
AcDbLine
 10
217.7589313707
 20
255.6806522234
 30
0.0
 11
217.7589313707
 21
249.6806475146
 31
0.0
  0
LINE
  5
1FB
330
1F
100
AcDbEntity
  8
0
  6
SLD-Durchgehend
 62
     7
370
    15
100
AcDbLine
 10
217.7589313707
 20
263.1806525214
 30
0.0
 11
217.7589313707
 21
257.6806488259
 31
0.0
  0
ARC
  5
1FC
330
1F
100
AcDbEntity
  8
0
  6
SLD-Durchgehend
 62
     7
370
    15
100
AcDbCircle
 10
218.2589315719
 20
263.1806491835
 30
0.0
 40
0.5
100
AcDbArc
 50
90.0
 51
180.0
  0
ARC
  5
1FD
330
1F
100
AcDbEntity
  8
0
  6
SLD-Durchgehend
 62
     7
370
    15
100
AcDbCircle
 10
236.7589315719
 20
263.1806491835
 30
0.0
 40
0.5000000000000284
100
AcDbArc
 50
0.0
 51
90.0
  0
ARC
  5
1FE
330
1F
100
AcDbEntity
  8
0
  6
SLD-Durchgehend
 62
     7
370
    15
100
AcDbCircle
 10
219.5807283416
 20
264.1806491835
 30
0.0
 40
0.5
100
AcDbArc
 50
270.0
 51
0.0
  0
ARC
  5
1FF
330
1F
100
AcDbEntity
  8
0
  6
SLD-Durchgehend
 62
     7
370
    15
100
AcDbCircle
 10
235.4371348022
 20
264.1806491835
 30
0.0
 40
0.5
100
AcDbArc
 50
180.0
 51
270.0
  0
ARC
  5
200
330
1F
100
AcDbEntity
  8
0
  6
SLD-Durchgehend
 62
     7
370
    15
100
AcDbCircle
 10
220.5807283416
 20
266.1806491835
 30
0.0
 40
0.5
100
AcDbArc
 50
90.0
 51
180.0
  0
LINE
  5
201
330
1F
100
AcDbEntity
  8
0
  6
SLD-Durchgehend
 62
     7
370
    15
100
AcDbLine
 10
220.0807283281
 20
266.1806511505
 30
0.0
 11
220.0807283281
 21
264.1806470974
 31
0.0
  0
LINE
  5
202
330
1F
100
AcDbEntity
  8
0
  6
SLD-Durchgehend
 62
     7
370
    15
100
AcDbLine
 10
234.9371348157
 20
264.1806470974
 30
0.0
 11
234.9371348157
 21
266.1806511505
 31
0.0
  0
ARC
  5
203
330
1F
100
AcDbEntity
  8
0
  6
SLD-Durchgehend
 62
     7
370
    15
100
AcDbCircle
 10
234.4371348022
 20
266.1806491835
 30
0.0
 40
0.5
100
AcDbArc
 50
0.0
 51
90.0
  0
LINE
  5
204
330
1F
100
AcDbEntity
  8
0
  6
SLD-Durchgehend
 62
     7
370
    15
100
AcDbLine
 10
209.0089313335
 20
205.6806496156
 30
0.0
 11
208.8089316732
 21
205.6806496156
 31
0.0
  0
LINE
  5
205
330
1F
100
AcDbEntity
  8
0
  6
SLD-Durchgehend
 62
     7
370
    15
100
AcDbLine
 10
209.0089313335
 20
230.6806499882
 30
0.0
 11
208.8089316732
 21
230.6806499882
 31
0.0
  0
LINE
  5
206
330
1F
100
AcDbEntity
  8
0
  6
SLD-Durchgehend
 62
     7
370
    15
100
AcDbLine
 10
208.8089316732
 20
230.6806499882
 30
0.0
 11
208.8089316732
 21
205.6806496156
 31
0.0
  0
LINE
  5
207
330
1F
100
AcDbEntity
  8
0
  6
SLD-Durchgehend
 62
     7
370
    15
100
AcDbLine
 10
237.2589317731
 20
241.6806499286
 30
0.0
 11
237.2589317731
 21
239.6806496007
 31
0.0
  0
LINE
  5
208
330
1F
100
AcDbEntity
  8
0
  6
SLD-Durchgehend
 62
     7
370
    15
100
AcDbLine
 10
217.7589313707
 20
241.6806499286
 30
0.0
 11
237.2589317731
 21
241.6806499286
 31
0.0
  0
LINE
  5
209
330
1F
100
AcDbEntity
  8
0
  6
SLD-Durchgehend
 62
     7
370
    15
100
AcDbLine
 10
217.7589313707
 20
239.6806496007
 30
0.0
 11
217.7589313707
 21
241.6806499286
 31
0.0
  0
LINE
  5
20A
330
1F
100
AcDbEntity
  8
0
  6
SLD-Durchgehend
 62
     7
370
    15
100
AcDbLine
 10
217.7589313707
 20
239.6806496007
 30
0.0
 11
237.2589317731
 21
239.6806496007
 31
0.0
  0
LINE
  5
20B
330
1F
100
AcDbEntity
  8
0
  6
SLD-Durchgehend
 62
     7
370
    15
100
AcDbLine
 10
217.7589313707
 20
247.680650912
 30
0.0
 11
237.2589317731
 21
247.680650912
 31
0.0
  0
LINE
  5
20C
330
1F
100
AcDbEntity
  8
0
  6
SLD-Durchgehend
 62
     7
370
    15
100
AcDbLine
 10
237.2589317731
 20
247.680650912
 30
0.0
 11
237.2589317731
 21
249.6806475146
 31
0.0
  0
LINE
  5
20D
330
1F
100
AcDbEntity
  8
0
  6
SLD-Durchgehend
 62
     7
370
    15
100
AcDbLine
 10
217.7589313707
 20
249.6806475146
 30
0.0
 11
237.2589317731
 21
249.6806475146
 31
0.0
  0
LINE
  5
20E
330
1F
100
AcDbEntity
  8
0
  6
SLD-Durchgehend
 62
     7
370
    15
100
AcDbLine
 10
217.7589313707
 20
249.6806475146
 30
0.0
 11
217.7589313707
 21
247.680650912
 31
0.0
  0
LINE
  5
20F
330
1F
100
AcDbEntity
  8
0
  6
SLD-Durchgehend
 62
     7
370
    15
100
AcDbLine
 10
217.7589313707
 20
255.6806522234
 30
0.0
 11
237.2589317731
 21
255.6806522234
 31
0.0
  0
LINE
  5
210
330
1F
100
AcDbEntity
  8
0
  6
SLD-Durchgehend
 62
     7
370
    15
100
AcDbLine
 10
237.2589317731
 20
255.6806522234
 30
0.0
 11
237.2589317731
 21
257.6806488259
 31
0.0
  0
LINE
  5
211
330
1F
100
AcDbEntity
  8
0
  6
SLD-Durchgehend
 62
     7
370
    15
100
AcDbLine
 10
217.7589313707
 20
257.6806488259
 30
0.0
 11
237.2589317731
 21
257.6806488259
 31
0.0
  0
LINE
  5
212
330
1F
100
AcDbEntity
  8
0
  6
SLD-Durchgehend
 62
     7
370
    15
100
AcDbLine
 10
217.7589313707
 20
257.6806488259
 30
0.0
 11
217.7589313707
 21
255.6806522234
 31
0.0
  0
LINE
  5
213
330
1F
100
AcDbEntity
  8
0
  6
SLD-Durchgehend
 62
     7
370
    15
100
AcDbLine
 10
218.2589314527
 20
263.6806460841
 30
0.0
 11
236.7589316911
 21
263.6806460841
 31
0.0
  0
LINE
  5
214
330
1F
100
AcDbEntity
  8
0
  6
SLD-Durchgehend
 62
     7
370
    15
100
AcDbLine
 10
219.00893111
 20
249.6806475146
 30
0.0
 11
219.00893111
 21
247.680650912
 31
0.0
  0
LINE
  5
215
330
1F
100
AcDbEntity
  8
0
  6
SLD-Durchgehend
 62
     7
370
    15
100
AcDbLine
 10
236.0089320338
 20
249.6806475146
 30
0.0
 11
236.0089320338
 21
247.680650912
 31
0.0
  0
LINE
  5
216
330
1F
100
AcDbEntity
  8
0
  6
SLD-Durchgehend
 62
     7
370
    15
100
AcDbLine
 10
236.0089320338
 20
239.6806496007
 30
0.0
 11
236.0089320338
 21
241.6806499286
 31
0.0
  0
LINE
  5
217
330
1F
100
AcDbEntity
  8
0
  6
SLD-Durchgehend
 62
     7
370
    15
100
AcDbLine
 10
219.00893111
 20
239.6806496007
 30
0.0
 11
219.00893111
 21
241.6806499286
 31
0.0
  0
LINE
  5
218
330
1F
100
AcDbEntity
  8
0
  6
SLD-Durchgehend
 62
     7
370
    15
100
AcDbLine
 10
219.00893111
 20
257.6806488259
 30
0.0
 11
219.00893111
 21
255.6806522234
 31
0.0
  0
LINE
  5
219
330
1F
100
AcDbEntity
  8
0
  6
SLD-Durchgehend
 62
     7
370
    15
100
AcDbLine
 10
236.0089320338
 20
257.6806488259
 30
0.0
 11
236.0089320338
 21
255.6806522234
 31
0.0
  0
LINE
  5
21A
330
1F
100
AcDbEntity
  8
0
  6
SLD-Durchgehend
 62
     7
370
    15
100
AcDbLine
 10
224.044829991
 20
266.6806521637
 30
0.0
 11
230.9730331528
 21
266.6806521637
 31
0.0
  0
LINE
  5
21B
330
1F
100
AcDbEntity
  8
0
  6
SLD-Durchgehend
 62
     7
370
    15
100
AcDbLine
 10
220.5807284101
 20
266.6806521637
 30
0.0
 11
224.044829991
 21
266.6806521637
 31
0.0
  0
LINE
  5
21C
330
1F
100
AcDbEntity
  8
0
  6
SLD-Durchgehend
 62
     7
370
    15
100
AcDbLine
 10
230.9730331528
 20
266.6806521637
 30
0.0
 11
234.4371347337
 21
266.6806521637
 31
0.0
  0
LINE
  5
21D
330
1F
100
AcDbEntity
  8
0
  6
SLD-Durchgehend
 62
     7
370
    15
100
AcDbLine
 10
209.0089313335
 20
167.6806489749
 30
0.0
 11
209.0089313335
 21
151.6806500776
 31
0.0
  0
LINE
  5
21E
330
1F
100
AcDbEntity
  8
0
  6
SLD-Durchgehend
 62
     7
370
    15
100
AcDbLine
 10
223.0089317656
 20
151.6806500776
 30
0.0
 11
223.0089317656
 21
167.6806489749
 31
0.0
  0
LINE
  5
21F
330
1F
100
AcDbEntity
  8
0
  6
SLD-Durchgehend
 62
     7
370
    15
100
AcDbLine
 10
209.0089313335
 20
167.6806489749
 30
0.0
 11
223.0089317656
 21
167.6806489749
 31
0.0
  0
LINE
  5
220
330
1F
100
AcDbEntity
  8
0
  6
SLD-Durchgehend
 62
     7
370
    15
100
AcDbLine
 10
223.0089317656
 20
151.6806500776
 30
0.0
 11
209.0089313335
 21
151.6806500776
 31
0.0
  0
LINE
  5
221
330
1F
100
AcDbEntity
  8
0
  6
SLD-Durchgehend
 62
     7
370
    15
100
AcDbLine
 10
246.0089318103
 20
167.6806489749
 30
0.0
 11
246.0089318103
 21
151.6806500776
 31
0.0
  0
LINE
  5
222
330
1F
100
AcDbEntity
  8
0
  6
SLD-Durchgehend
 62
     7
370
    15
100
AcDbLine
 10
232.0089313782
 20
151.6806500776
 30
0.0
 11
232.0089313782
 21
167.6806489749
 31
0.0
  0
LINE
  5
223
330
1F
100
AcDbEntity
  8
0
  6
SLD-Durchgehend
 62
     7
370
    15
100
AcDbLine
 10
232.0089313782
 20
167.6806489749
 30
0.0
 11
246.0089318103
 21
167.6806489749
 31
0.0
  0
LINE
  5
224
330
1F
100
AcDbEntity
  8
0
  6
SLD-Durchgehend
 62
     7
370
    15
100
AcDbLine
 10
246.0089318103
 20
151.6806500776
 30
0.0
 11
232.0089313782
 21
151.6806500776
 31
0.0
  0
LINE
  5
225
330
1F
100
AcDbEntity
  8
0
  6
SLD-Durchgehend
 62
     7
370
    15
100
AcDbLine
 10
232.0089313782
 20
167.6806489749
 30
0.0
 11
223.0089317656
 21
167.6806489749
 31
0.0
  0
LINE
  5
226
330
1F
100
AcDbEntity
  8
0
  6
SLD-Durchgehend
 62
     7
370
    15
100
AcDbLine
 10
232.0089313782
 20
151.6806500776
 30
0.0
 11
223.0089317656
 21
151.6806500776
 31
0.0
  0
LINE
  5
227
330
1F
100
AcDbEntity
  8
0
  6
SLD-Durchgehend
 62
     7
370
    15
100
AcDbLine
 10
246.0089318103
 20
170.1806484534
 30
0.0
 11
246.0089318103
 21
167.6806489749
 31
0.0
  0
LINE
  5
228
330
1F
100
AcDbEntity
  8
0
  6
SLD-Durchgehend
 62
     7
370
    15
100
AcDbLine
 10
209.0089313335
 20
167.6806489749
 30
0.0
 11
209.0089313335
 21
170.1806484534
 31
0.0
  0
LINE
  5
229
330
1F
100
AcDbEntity
  8
0
  6
SLD-Durchgehend
 62
     7
370
    15
100
AcDbLine
 10
209.0089313335
 20
231.6806482894
 30
0.0
 11
246.0089318103
 21
231.6806482894
 31
0.0
  0
LINE
  5
22A
330
1F
100
AcDbEntity
  8
0
  6
SLD-Durchgehend
 62
     7
370
    15
100
AcDbLine
 10
246.0089318103
 20
170.1806484534
 30
0.0
 11
246.0089318103
 21
231.6806482894
 31
0.0
  0
LINE
  5
22B
330
1F
100
AcDbEntity
  8
0
  6
SLD-Durchgehend
 62
     7
370
    15
100
AcDbLine
 10
209.0089313335
 20
170.1806484534
 30
0.0
 11
209.0089313335
 21
231.6806482894
 31
0.0
  0
LINE
  5
22C
330
1F
100
AcDbEntity
  8
0
  6
SLD-Durchgehend
 62
     8
370
     0
100
AcDbLine
 10
217.7589313707
 20
232.1806493027
 30
0.0
 11
237.2589317731
 21
232.1806493027
 31
0.0
  0
LINE
  5
22D
330
1F
100
AcDbEntity
  8
0
  6
SLD-Durchgehend
 62
     8
370
     0
100
AcDbLine
 10
237.2589317731
 20
263.1806525214
 30
0.0
 11
217.7589313707
 21
263.1806525214
 31
0.0
  0
ARC
  5
22E
330
1F
100
AcDbEntity
  8
0
  6
SLD-Durchgehend
 62
     8
370
     0
100
AcDbCircle
 10
223.1427120869
 20
264.1494030406
 30
0.0
 40
0.4701443919299283
100
AcDbArc
 50
274.4028637984
 51
3.8104738203
  0
LINE
  5
22F
330
1F
100
AcDbEntity
  8
0
  6
SLD-Durchgehend
 62
     8
370
     0
100
AcDbLine
 10
223.6118171479
 20
264.1806470974
 30
0.0
 11
224.044829991
 21
264.1806470974
 31
0.0
  0
LINE
  5
230
330
1F
100
AcDbEntity
  8
0
  6
SLD-Durchgehend
 62
     8
370
     0
100
AcDbLine
 10
224.044829991
 20
263.6806460841
 30
0.0
 11
224.044829991
 21
264.1806470974
 31
0.0
  0
LINE
  5
231
330
1F
100
AcDbEntity
  8
0
  6
SLD-Durchgehend
 62
     8
370
     0
100
AcDbLine
 10
224.044829991
 20
264.1806470974
 30
0.0
 11
230.9730331528
 21
264.1806470974
 31
0.0
  0
LINE
  5
232
330
1F
100
AcDbEntity
  8
0
  6
SLD-Durchgehend
 62
     8
370
     0
100
AcDbLine
 10
230.9730331528
 20
263.6806460841
 30
0.0
 11
230.9730331528
 21
264.1806470974
 31
0.0
  0
LINE
  5
233
330
1F
100
AcDbEntity
  8
0
  6
SLD-Durchgehend
 62
     8
370
     0
100
AcDbLine
 10
231.4060459959
 20
264.1806470974
 30
0.0
 11
230.9730331528
 21
264.1806470974
 31
0.0
  0
ARC
  5
234
330
1F
100
AcDbEntity
  8
0
  6
SLD-Durchgehend
 62
     8
370
     0
100
AcDbCircle
 10
231.8751510568
 20
264.1494030406
 30
0.0
 40
0.4701443919299261
100
AcDbArc
 50
176.1895261797
 51
265.5971362016
  0
LINE
  5
235
330
1F
100
AcDbEntity
  8
0
  6
SLD-Durchgehend
 62
     8
370
     0
100
AcDbLine
 10
224.044829991
 20
266.1806511505
 30
0.0
 11
224.044829991
 21
264.1806470974
 31
0.0
  0
LINE
  5
236
330
1F
100
AcDbEntity
  8
0
  6
SLD-Durchgehend
 62
     8
370
     0
100
AcDbLine
 10
223.6118171479
 20
264.1806470974
 30
0.0
 11
223.6118171479
 21
266.1806511505
 31
0.0
  0
LINE
  5
237
330
1F
100
AcDbEntity
  8
0
  6
SLD-Durchgehend
 62
     8
370
     0
100
AcDbLine
 10
224.044829991
 20
266.1806511505
 30
0.0
 11
223.6118171479
 21
266.1806511505
 31
0.0
  0
LINE
  5
238
330
1F
100
AcDbEntity
  8
0
  6
SLD-Durchgehend
 62
     8
370
     0
100
AcDbLine
 10
220.147715567
 20
264.1806470974
 30
0.0
 11
223.6118171479
 21
264.1806470974
 31
0.0
  0
ARC
  5
239
330
1F
100
AcDbEntity
  8
0
  6
SLD-Durchgehend
 62
     8
370
     0
100
AcDbCircle
 10
219.6786105502
 20
264.1494030191
 30
0.0
 40
0.4701443492788142
100
AcDbArc
 50
274.4028303406
 51
3.8104767863
  0
ARC
  5
23A
330
1F
100
AcDbEntity
  8
0
  6
SLD-Durchgehend
 62
     8
370
     0
100
AcDbCircle
 10
224.0809225376
 20
266.2118949057
 30
0.0
 40
0.4701446999756678
100
AcDbArc
 50
94.4028726398
 51
183.810434487
  0
LINE
  5
23B
330
1F
100
AcDbEntity
  8
0
  6
SLD-Durchgehend
 62
     8
370
     0
100
AcDbLine
 10
224.044829991
 20
266.1806511505
 30
0.0
 11
224.044829991
 21
266.6806521637
 31
0.0
  0
LINE
  5
23C
330
1F
100
AcDbEntity
  8
0
  6
SLD-Durchgehend
 62
     8
370
     0
100
AcDbLine
 10
230.9730331528
 20
266.1806511505
 30
0.0
 11
224.044829991
 21
266.1806511505
 31
0.0
  0
LINE
  5
23D
330
1F
100
AcDbEntity
  8
0
  6
SLD-Durchgehend
 62
     8
370
     0
100
AcDbLine
 10
230.9730331528
 20
266.1806511505
 30
0.0
 11
230.9730331528
 21
266.6806521637
 31
0.0
  0
LINE
  5
23E
330
1F
100
AcDbEntity
  8
0
  6
SLD-Durchgehend
 62
     8
370
     0
100
AcDbLine
 10
230.9730331528
 20
264.1806470974
 30
0.0
 11
230.9730331528
 21
266.1806511505
 31
0.0
  0
LINE
  5
23F
330
1F
100
AcDbEntity
  8
0
  6
SLD-Durchgehend
 62
     8
370
     0
100
AcDbLine
 10
231.4060459959
 20
264.1806470974
 30
0.0
 11
234.8701475768
 21
264.1806470974
 31
0.0
  0
ARC
  5
240
330
1F
100
AcDbEntity
  8
0
  6
SLD-Durchgehend
 62
     8
370
     0
100
AcDbCircle
 10
235.3392525936
 20
264.1494030191
 30
0.0
 40
0.4701443492787858
100
AcDbArc
 50
176.1895232137
 51
265.5971696594
  0
LINE
  5
241
330
1F
100
AcDbEntity
  8
0
  6
SLD-Durchgehend
 62
     8
370
     0
100
AcDbLine
 10
230.9730331528
 20
266.1806511505
 30
0.0
 11
231.4060459959
 21
266.1806511505
 31
0.0
  0
LINE
  5
242
330
1F
100
AcDbEntity
  8
0
  6
SLD-Durchgehend
 62
     8
370
     0
100
AcDbLine
 10
231.4060459959
 20
266.1806511505
 30
0.0
 11
231.4060459959
 21
264.1806470974
 31
0.0
  0
ARC
  5
243
330
1F
100
AcDbEntity
  8
0
  6
SLD-Durchgehend
 62
     8
370
     0
100
AcDbCircle
 10
230.9369406062
 20
266.2118949057
 30
0.0
 40
0.4701446999756678
100
AcDbArc
 50
356.189565513
 51
85.5971273602
  0
LINE
  5
244
330
1F
100
AcDbEntity
  8
0
  6
SLD-Durchgehend
 62
     8
370
     0
100
AcDbLine
 10
223.6118171479
 20
266.1806511505
 30
0.0
 11
220.147715567
 21
266.1806511505
 31
0.0
  0
ARC
  5
245
330
1F
100
AcDbEntity
  8
0
  6
SLD-Durchgehend
 62
     8
370
     0
100
AcDbCircle
 10
220.6168211165
 20
266.2118947672
 30
0.0
 40
0.4701448502668367
100
AcDbArc
 50
94.4028907672
 51
183.8104163597
  0
LINE
  5
246
330
1F
100
AcDbEntity
  8
0
  6
SLD-Durchgehend
 62
     8
370
     0
100
AcDbLine
 10
220.147715567
 20
266.1806511505
 30
0.0
 11
220.147715567
 21
264.1806470974
 31
0.0
  0
LINE
  5
247
330
1F
100
AcDbEntity
  8
0
  6
SLD-Durchgehend
 62
     8
370
     0
100
AcDbLine
 10
234.8701475768
 20
266.1806511505
 30
0.0
 11
231.4060459959
 21
266.1806511505
 31
0.0
  0
ARC
  5
248
330
1F
100
AcDbEntity
  8
0
  6
SLD-Durchgehend
 62
     8
370
     0
100
AcDbCircle
 10
234.4010420273
 20
266.2118947672
 30
0.0
 40
0.4701448502667906
100
AcDbArc
 50
356.1895836403
 51
85.5971092328
  0
LINE
  5
249
330
1F
100
AcDbEntity
  8
0
  6
SLD-Durchgehend
 62
     8
370
     0
100
AcDbLine
 10
234.8701475768
 20
264.1806470974
 30
0.0
 11
234.8701475768
 21
266.1806511505
 31
0.0
  0
LINE
  5
24A
330
1F
100
AcDbEntity
  8
0
  6
SLD-Durchgehend
 62
     8
370
     0
100
AcDbLine
 10
220.147715567
 20
264.1806470974
 30
0.0
 11
220.0807283281
 21
264.1806470974
 31
0.0
  0
LINE
  5
24B
330
1F
100
AcDbEntity
  8
0
  6
SLD-Durchgehend
 62
     8
370
     0
100
AcDbLine
 10
234.9371348157
 20
264.1806470974
 30
0.0
 11
234.8701475768
 21
264.1806470974
 31
0.0
  0
LINE
  5
24C
330
1F
100
AcDbEntity
  8
0
  6
SLD-Durchgehend
 62
     8
370
     0
100
AcDbLine
 10
220.0807283281
 20
266.1806511505
 30
0.0
 11
220.147715567
 21
266.1806511505
 31
0.0
  0
LINE
  5
24D
330
1F
100
AcDbEntity
  8
0
  6
SLD-Durchgehend
 62
     8
370
     0
100
AcDbLine
 10
234.8701475768
 20
266.1806511505
 30
0.0
 11
234.9371348157
 21
266.1806511505
 31
0.0
  0
LINE
  5
24E
330
1F
100
AcDbEntity
  8
0
  6
SLD-Durchgehend
 62
     8
370
     0
100
AcDbLine
 10
209.0089313335
 20
170.1806484534
 30
0.0
 11
246.0089318103
 21
170.1806484534
 31
0.0
  0
ARC
  5
24F
330
1F
100
AcDbEntity
  8
0
  6
SLD-Durchgehend
 62
     7
370
    15
100
AcDbCircle
 10
339.3101958108
 20
232.1806491835
 30
0.0
 40
0.5
100
AcDbArc
 50
180.0
 51
270.0
  0
ARC
  5
250
330
1F
100
AcDbEntity
  8
0
  6
SLD-Durchgehend
 62
     7
370
    15
100
AcDbCircle
 10
357.8101958108
 20
232.1806491835
 30
0.0
 40
0.5
100
AcDbArc
 50
270.0
 51
0.0
  0
LINE
  5
251
330
1F
100
AcDbEntity
  8
0
  6
SLD-Durchgehend
 62
     7
370
    15
100
AcDbLine
 10
358.3101958108
 20
257.6806491835
 30
0.0
 11
358.3101958108
 21
263.1806491835
 31
0.0
  0
LINE
  5
252
330
1F
100
AcDbEntity
  8
0
  6
SLD-Durchgehend
 62
     7
370
    15
100
AcDbLine
 10
358.3101958108
 20
249.6806491835
 30
0.0
 11
358.3101958108
 21
255.6806491835
 31
0.0
  0
LINE
  5
253
330
1F
100
AcDbEntity
  8
0
  6
SLD-Durchgehend
 62
     7
370
    15
100
AcDbLine
 10
358.3101958108
 20
241.6806491835
 30
0.0
 11
358.3101958108
 21
247.6806491835
 31
0.0
  0
LINE
  5
254
330
1F
100
AcDbEntity
  8
0
  6
SLD-Durchgehend
 62
     7
370
    15
100
AcDbLine
 10
358.3101958108
 20
232.1806491835
 30
0.0
 11
358.3101958108
 21
239.6806491835
 31
0.0
  0
LINE
  5
255
330
1F
100
AcDbEntity
  8
0
  6
SLD-Durchgehend
 62
     7
370
    15
100
AcDbLine
 10
338.8101958108
 20
263.1806491835
 30
0.0
 11
338.8101958108
 21
232.1806491835
 31
0.0
  0
ARC
  5
256
330
1F
100
AcDbEntity
  8
0
  6
SLD-Durchgehend
 62
     7
370
    15
100
AcDbCircle
 10
339.3101958108
 20
263.1806491835
 30
0.0
 40
0.5000000000000568
100
AcDbArc
 50
90.0
 51
180.0
  0
ARC
  5
257
330
1F
100
AcDbEntity
  8
0
  6
SLD-Durchgehend
 62
     7
370
    15
100
AcDbCircle
 10
357.8101958108
 20
263.1806491835
 30
0.0
 40
0.5000000000000568
100
AcDbArc
 50
0.0
 51
90.0
  0
LINE
  5
258
330
1F
100
AcDbEntity
  8
0
  6
SLD-Durchgehend
 62
     7
370
    15
100
AcDbLine
 10
357.0601958108
 20
255.6806491835
 30
0.0
 11
357.0601958108
 21
257.6806491835
 31
0.0
  0
LINE
  5
259
330
1F
100
AcDbEntity
  8
0
  6
SLD-Durchgehend
 62
     7
370
    15
100
AcDbLine
 10
357.0601958108
 20
239.6806491835
 30
0.0
 11
357.0601958108
 21
241.6806491835
 31
0.0
  0
LINE
  5
25A
330
1F
100
AcDbEntity
  8
0
  6
SLD-Durchgehend
 62
     7
370
    15
100
AcDbLine
 10
357.0601958108
 20
247.6806491835
 30
0.0
 11
357.0601958108
 21
249.6806491835
 31
0.0
  0
LINE
  5
25B
330
1F
100
AcDbEntity
  8
0
  6
SLD-Durchgehend
 62
     7
370
    15
100
AcDbLine
 10
301.5601958108
 20
230.6806491835
 30
0.0
 11
301.5601958108
 21
205.6806491835
 31
0.0
  0
LINE
  5
25C
330
1F
100
AcDbEntity
  8
0
  6
SLD-Durchgehend
 62
     7
370
    15
100
AcDbLine
 10
301.5601958108
 20
230.6806491835
 30
0.0
 11
351.5601958108
 21
230.6806491835
 31
0.0
  0
LINE
  5
25D
330
1F
100
AcDbEntity
  8
0
  6
SLD-Durchgehend
 62
     7
370
    15
100
AcDbLine
 10
351.5601958108
 20
230.6806491835
 30
0.0
 11
351.5601958108
 21
205.6806491835
 31
0.0
  0
LINE
  5
25E
330
1F
100
AcDbEntity
  8
0
  6
SLD-Durchgehend
 62
     7
370
    15
100
AcDbLine
 10
301.5601958108
 20
205.6806491835
 30
0.0
 11
351.5601958108
 21
205.6806491835
 31
0.0
  0
LINE
  5
25F
330
1F
100
AcDbEntity
  8
0
  6
SLD-Durchgehend
 62
     7
370
    15
100
AcDbLine
 10
348.5601958108
 20
241.6806491835
 30
0.0
 11
358.3101958108
 21
241.6806491835
 31
0.0
  0
LINE
  5
260
330
1F
100
AcDbEntity
  8
0
  6
SLD-Durchgehend
 62
     7
370
    15
100
AcDbLine
 10
348.5601958108
 20
239.6806491835
 30
0.0
 11
348.5601958108
 21
241.6806491835
 31
0.0
  0
LINE
  5
261
330
1F
100
AcDbEntity
  8
0
  6
SLD-Durchgehend
 62
     7
370
    15
100
AcDbLine
 10
348.5601958108
 20
239.6806491835
 30
0.0
 11
358.3101958108
 21
239.6806491835
 31
0.0
  0
LINE
  5
262
330
1F
100
AcDbEntity
  8
0
  6
SLD-Durchgehend
 62
     7
370
    15
100
AcDbLine
 10
348.5601958108
 20
247.6806491835
 30
0.0
 11
358.3101958108
 21
247.6806491835
 31
0.0
  0
LINE
  5
263
330
1F
100
AcDbEntity
  8
0
  6
SLD-Durchgehend
 62
     7
370
    15
100
AcDbLine
 10
348.5601958108
 20
249.6806491835
 30
0.0
 11
358.3101958108
 21
249.6806491835
 31
0.0
  0
LINE
  5
264
330
1F
100
AcDbEntity
  8
0
  6
SLD-Durchgehend
 62
     7
370
    15
100
AcDbLine
 10
348.5601958108
 20
249.6806491835
 30
0.0
 11
348.5601958108
 21
247.6806491835
 31
0.0
  0
LINE
  5
265
330
1F
100
AcDbEntity
  8
0
  6
SLD-Durchgehend
 62
     7
370
    15
100
AcDbLine
 10
348.5601958108
 20
255.6806491835
 30
0.0
 11
358.3101958108
 21
255.6806491835
 31
0.0
  0
LINE
  5
266
330
1F
100
AcDbEntity
  8
0
  6
SLD-Durchgehend
 62
     7
370
    15
100
AcDbLine
 10
348.5601958108
 20
257.6806491835
 30
0.0
 11
358.3101958108
 21
257.6806491835
 31
0.0
  0
LINE
  5
267
330
1F
100
AcDbEntity
  8
0
  6
SLD-Durchgehend
 62
     7
370
    15
100
AcDbLine
 10
348.5601958108
 20
257.6806491835
 30
0.0
 11
348.5601958108
 21
255.6806491835
 31
0.0
  0
LINE
  5
268
330
1F
100
AcDbEntity
  8
0
  6
SLD-Durchgehend
 62
     7
370
    15
100
AcDbLine
 10
348.5601958108
 20
263.6806491835
 30
0.0
 11
357.8101958108
 21
263.6806491835
 31
0.0
  0
LINE
  5
269
330
1F
100
AcDbEntity
  8
0
  6
SLD-Durchgehend
 62
     7
370
    15
100
AcDbLine
 10
339.3101958108
 20
263.6806491835
 30
0.0
 11
348.5601958108
 21
263.6806491835
 31
0.0
  0
LINE
  5
26A
330
1F
100
AcDbEntity
  8
0
  6
SLD-Durchgehend
 62
     7
370
    15
100
AcDbLine
 10
342.5601958108
 20
266.6806491835
 30
0.0
 11
348.5601958108
 21
266.6806491835
 31
0.0
  0
LINE
  5
26B
330
1F
100
AcDbEntity
  8
0
  6
SLD-Durchgehend
 62
     7
370
    15
100
AcDbLine
 10
348.5601958108
 20
266.6806491835
 30
0.0
 11
354.5601958108
 21
266.6806491835
 31
0.0
  0
ARC
  5
26C
330
1F
100
AcDbEntity
  8
0
  6
SLD-Durchgehend
 62
     7
370
    15
100
AcDbCircle
 10
341.5601958108
 20
264.1806491835
 30
0.0
 40
0.5
100
AcDbArc
 50
270.0
 51
0.0
  0
ARC
  5
26D
330
1F
100
AcDbEntity
  8
0
  6
SLD-Durchgehend
 62
     7
370
    15
100
AcDbCircle
 10
355.5601958108
 20
264.1806491835
 30
0.0
 40
0.5
100
AcDbArc
 50
180.0
 51
270.0
  0
ARC
  5
26E
330
1F
100
AcDbEntity
  8
0
  6
SLD-Durchgehend
 62
     7
370
    15
100
AcDbCircle
 10
342.5601958108
 20
266.1806491835
 30
0.0
 40
0.5
100
AcDbArc
 50
90.0
 51
180.0
  0
LINE
  5
26F
330
1F
100
AcDbEntity
  8
0
  6
SLD-Durchgehend
 62
     7
370
    15
100
AcDbLine
 10
342.0601958108
 20
264.1806491835
 30
0.0
 11
342.0601958108
 21
266.1806491835
 31
0.0
  0
ARC
  5
270
330
1F
100
AcDbEntity
  8
0
  6
SLD-Durchgehend
 62
     7
370
    15
100
AcDbCircle
 10
354.5601958108
 20
266.1806491835
 30
0.0
 40
0.5
100
AcDbArc
 50
0.0
 51
90.0
  0
LINE
  5
271
330
1F
100
AcDbEntity
  8
0
  6
SLD-Durchgehend
 62
     7
370
    15
100
AcDbLine
 10
355.0601958108
 20
266.1806491835
 30
0.0
 11
355.0601958108
 21
264.1806491835
 31
0.0
  0
LINE
  5
272
330
1F
100
AcDbEntity
  8
0
  6
SLD-Durchgehend
 62
     7
370
    15
100
AcDbLine
 10
295.5601958108
 20
152.1806491835
 30
0.0
 11
357.5601958108
 21
152.1806491835
 31
0.0
  0
LINE
  5
273
330
1F
100
AcDbEntity
  8
0
  6
SLD-Durchgehend
 62
     7
370
    15
100
AcDbLine
 10
295.5601958108
 20
151.6806491835
 30
0.0
 11
295.5601958108
 21
152.1806491835
 31
0.0
  0
LINE
  5
274
330
1F
100
AcDbEntity
  8
0
  6
SLD-Durchgehend
 62
     7
370
    15
100
AcDbLine
 10
295.5601958108
 20
151.6806491835
 30
0.0
 11
262.5601958108
 21
151.6806491835
 31
0.0
  0
LINE
  5
275
330
1F
100
AcDbEntity
  8
0
  6
SLD-Durchgehend
 62
     7
370
    15
100
AcDbLine
 10
262.5601958108
 20
151.6806491835
 30
0.0
 11
262.5601958108
 21
167.6806491835
 31
0.0
  0
LINE
  5
276
330
1F
100
AcDbEntity
  8
0
  6
SLD-Durchgehend
 62
     7
370
    15
100
AcDbLine
 10
284.0601958108
 20
167.6806491835
 30
0.0
 11
262.5601958108
 21
167.6806491835
 31
0.0
  0
ARC
  5
277
330
1F
100
AcDbEntity
  8
0
  6
SLD-Durchgehend
 62
     7
370
    15
100
AcDbCircle
 10
284.0601958108
 20
170.1806491835
 30
0.0
 40
2.500000000000057
100
AcDbArc
 50
270.0
 51
0.0
  0
LINE
  5
278
330
1F
100
AcDbEntity
  8
0
  6
SLD-Durchgehend
 62
     7
370
    15
100
AcDbLine
 10
286.5601958108
 20
231.6806491835
 30
0.0
 11
286.5601958108
 21
170.1806491835
 31
0.0
  0
LINE
  5
279
330
1F
100
AcDbEntity
  8
0
  6
SLD-Durchgehend
 62
     7
370
    15
100
AcDbLine
 10
286.5601958108
 20
231.6806491835
 30
0.0
 11
366.5601958108
 21
231.6806491835
 31
0.0
  0
LINE
  5
27A
330
1F
100
AcDbEntity
  8
0
  6
SLD-Durchgehend
 62
     7
370
    15
100
AcDbLine
 10
366.5601958108
 20
170.1806491835
 30
0.0
 11
366.5601958108
 21
231.6806491835
 31
0.0
  0
ARC
  5
27B
330
1F
100
AcDbEntity
  8
0
  6
SLD-Durchgehend
 62
     7
370
    15
100
AcDbCircle
 10
369.0601958108
 20
170.1806491835
 30
0.0
 40
2.5
100
AcDbArc
 50
180.0
 51
270.0
  0
LINE
  5
27C
330
1F
100
AcDbEntity
  8
0
  6
SLD-Durchgehend
 62
     7
370
    15
100
AcDbLine
 10
390.5601958108
 20
167.6806491835
 30
0.0
 11
369.0601958108
 21
167.6806491835
 31
0.0
  0
LINE
  5
27D
330
1F
100
AcDbEntity
  8
0
  6
SLD-Durchgehend
 62
     7
370
    15
100
AcDbLine
 10
390.5601958108
 20
167.6806491835
 30
0.0
 11
390.5601958108
 21
151.6806491835
 31
0.0
  0
LINE
  5
27E
330
1F
100
AcDbEntity
  8
0
  6
SLD-Durchgehend
 62
     7
370
    15
100
AcDbLine
 10
390.5601958108
 20
151.6806491835
 30
0.0
 11
357.5601958108
 21
151.6806491835
 31
0.0
  0
LINE
  5
27F
330
1F
100
AcDbEntity
  8
0
  6
SLD-Durchgehend
 62
     7
370
    15
100
AcDbLine
 10
357.5601958108
 20
152.1806491835
 30
0.0
 11
357.5601958108
 21
151.6806491835
 31
0.0
  0
LINE
  5
280
330
1F
100
AcDbEntity
  8
0
  6
SLD-Durchgehend
 62
     8
370
     0
100
AcDbLine
 10
348.5601958108
 20
232.1806491835
 30
0.0
 11
358.3101958108
 21
232.1806491835
 31
0.0
  0
LINE
  5
281
330
1F
100
AcDbEntity
  8
0
  6
SLD-Durchgehend
 62
     8
370
     0
100
AcDbLine
 10
338.8101958108
 20
232.1806491835
 30
0.0
 11
348.5601958108
 21
232.1806491835
 31
0.0
  0
LINE
  5
282
330
1F
100
AcDbEntity
  8
0
  6
SLD-Durchgehend
 62
     8
370
     0
100
AcDbLine
 10
348.5601958108
 20
263.1806491835
 30
0.0
 11
338.8101958108
 21
263.1806491835
 31
0.0
  0
LINE
  5
283
330
1F
100
AcDbEntity
  8
0
  6
SLD-Durchgehend
 62
     8
370
     0
100
AcDbLine
 10
358.3101958108
 20
263.1806491835
 30
0.0
 11
348.5601958108
 21
263.1806491835
 31
0.0
  0
LINE
  5
284
330
1F
100
AcDbEntity
  8
0
  6
SLD-Durchgehend
 62
     8
370
     0
100
AcDbLine
 10
348.8101958108
 20
264.1806491835
 30
0.0
 11
348.3101958108
 21
264.1806491835
 31
0.0
  0
LWPOLYLINE
  5
285
330
1F
100
AcDbEntity
  8
0
  6
SLD-Durchgehend
 62
     8
370
     0
100
AcDbPolyline
 90
        9
 70
   128
 43
0.0
 10
348.8101958108
 20
264.1806491835
 10
348.8149994907
 20
264.0831040225
 10
348.8292259277
 20
263.9893074673
 10
348.8523284077
 20
263.902864067
 10
348.8834191155
 20
263.8270957929
 10
348.9213032526
 20
263.7649143774
 10
348.9645249527
 20
263.7187094173
 10
349.0114232303
 20
263.6902565433
 10
349.0601958108
 20
263.6806491835
  0
LWPOLYLINE
  5
286
330
1F
100
AcDbEntity
  8
0
  6
SLD-Durchgehend
 62
     8
370
     0
100
AcDbPolyline
 90
        9
 70
   128
 43
0.0
 10
348.3101958108
 20
264.1806491835
 10
348.3053921309
 20
264.0831040225
 10
348.2911656939
 20
263.9893074673
 10
348.2680632139
 20
263.902864067
 10
348.2369725061
 20
263.8270957929
 10
348.1990883691
 20
263.7649143774
 10
348.1558666689
 20
263.7187094173
 10
348.1089683913
 20
263.6902565433
 10
348.0601958108
 20
263.6806491835
  0
LINE
  5
287
330
1F
100
AcDbEntity
  8
0
  6
SLD-Durchgehend
 62
     8
370
     0
100
AcDbLine
 10
342.3101958108
 20
264.1806491835
 30
0.0
 11
348.3101958108
 21
264.1806491835
 31
0.0
  0
LWPOLYLINE
  5
288
330
1F
100
AcDbEntity
  8
0
  6
SLD-Durchgehend
 62
     8
370
     0
100
AcDbPolyline
 90
        9
 70
   128
 43
0.0
 10
342.3101958108
 20
264.1806491835
 10
342.3053921309
 20
264.0831040225
 10
342.2911656939
 20
263.9893074673
 10
342.2680632139
 20
263.902864067
 10
342.2369725061
 20
263.8270957929
 10
342.1990883691
 20
263.7649143774
 10
342.1558666689
 20
263.7187094173
 10
342.1089683913
 20
263.6902565433
 10
342.0601958108
 20
263.6806491835
  0
LINE
  5
289
330
1F
100
AcDbEntity
  8
0
  6
SLD-Durchgehend
 62
     8
370
     0
100
AcDbLine
 10
348.8101958108
 20
264.1806491835
 30
0.0
 11
354.8101958108
 21
264.1806491835
 31
0.0
  0
LWPOLYLINE
  5
28A
330
1F
100
AcDbEntity
  8
0
  6
SLD-Durchgehend
 62
     8
370
     0
100
AcDbPolyline
 90
        9
 70
   128
 43
0.0
 10
354.8101958108
 20
264.1806491835
 10
354.8149994907
 20
264.0831040225
 10
354.8292259277
 20
263.9893074673
 10
354.8523284077
 20
263.902864067
 10
354.8834191155
 20
263.8270957929
 10
354.9213032526
 20
263.7649143774
 10
354.9645249527
 20
263.7187094173
 10
355.0114232303
 20
263.6902565433
 10
355.0601958108
 20
263.6806491835
  0
LINE
  5
28B
330
1F
100
AcDbEntity
  8
0
  6
SLD-Durchgehend
 62
     8
370
     0
100
AcDbLine
 10
348.8101958108
 20
266.1806491835
 30
0.0
 11
348.8101958108
 21
264.1806491835
 31
0.0
  0
LINE
  5
28C
330
1F
100
AcDbEntity
  8
0
  6
SLD-Durchgehend
 62
     8
370
     0
100
AcDbLine
 10
348.3101958108
 20
264.1806491835
 30
0.0
 11
348.3101958108
 21
266.1806491835
 31
0.0
  0
LINE
  5
28D
330
1F
100
AcDbEntity
  8
0
  6
SLD-Durchgehend
 62
     8
370
     0
100
AcDbLine
 10
348.3101958108
 20
266.1806491835
 30
0.0
 11
348.8101958108
 21
266.1806491835
 31
0.0
  0
LWPOLYLINE
  5
28E
330
1F
100
AcDbEntity
  8
0
  6
SLD-Durchgehend
 62
     8
370
     0
100
AcDbPolyline
 90
        9
 70
   128
 43
0.0
 10
348.5601958108
 20
266.6806491835
 10
348.6089683913
 20
266.6710418237
 10
348.6558666689
 20
266.6425889498
 10
348.6990883691
 20
266.5963839897
 10
348.7369725061
 20
266.5342025741
 10
348.7680632139
 20
266.4584343
 10
348.7911656939
 20
266.3719908997
 10
348.8053921309
 20
266.2781943445
 10
348.8101958108
 20
266.1806491835
  0
LWPOLYLINE
  5
28F
330
1F
100
AcDbEntity
  8
0
  6
SLD-Durchgehend
 62
     8
370
     0
100
AcDbPolyline
 90
        9
 70
   128
 43
0.0
 10
348.5601958108
 20
266.6806491835
 10
348.5114232303
 20
266.6710418237
 10
348.4645249527
 20
266.6425889498
 10
348.4213032526
 20
266.5963839897
 10
348.3834191155
 20
266.5342025741
 10
348.3523284077
 20
266.4584343
 10
348.3292259277
 20
266.3719908997
 10
348.3149994907
 20
266.2781943445
 10
348.3101958108
 20
266.1806491835
  0
LINE
  5
290
330
1F
100
AcDbEntity
  8
0
  6
SLD-Durchgehend
 62
     8
370
     0
100
AcDbLine
 10
348.3101958108
 20
266.1806491835
 30
0.0
 11
342.3101958108
 21
266.1806491835
 31
0.0
  0
LINE
  5
291
330
1F
100
AcDbEntity
  8
0
  6
SLD-Durchgehend
 62
     8
370
     0
100
AcDbLine
 10
342.3101958108
 20
266.1806491835
 30
0.0
 11
342.3101958108
 21
264.1806491835
 31
0.0
  0
LWPOLYLINE
  5
292
330
1F
100
AcDbEntity
  8
0
  6
SLD-Durchgehend
 62
     8
370
     0
100
AcDbPolyline
 90
        9
 70
   128
 43
0.0
 10
342.5601958108
 20
266.6806491835
 10
342.5114232303
 20
266.6710418237
 10
342.4645249527
 20
266.6425889498
 10
342.4213032526
 20
266.5963839897
 10
342.3834191155
 20
266.5342025741
 10
342.3523284077
 20
266.4584343
 10
342.3292259277
 20
266.3719908997
 10
342.3149994907
 20
266.2781943445
 10
342.3101958108
 20
266.1806491835
  0
LWPOLYLINE
  5
293
330
1F
100
AcDbEntity
  8
0
  6
SLD-Durchgehend
 62
     8
370
     0
100
AcDbPolyline
 90
        9
 70
   128
 43
0.0
 10
354.5601958108
 20
266.6806491835
 10
354.6089683913
 20
266.6710418237
 10
354.6558666689
 20
266.6425889498
 10
354.6990883691
 20
266.5963839897
 10
354.7369725061
 20
266.5342025741
 10
354.7680632139
 20
266.4584343
 10
354.7911656939
 20
266.3719908997
 10
354.8053921309
 20
266.2781943445
 10
354.8101958108
 20
266.1806491835
  0
LINE
  5
294
330
1F
100
AcDbEntity
  8
0
  6
SLD-Durchgehend
 62
     8
370
     0
100
AcDbLine
 10
354.8101958108
 20
266.1806491835
 30
0.0
 11
348.8101958108
 21
266.1806491835
 31
0.0
  0
LINE
  5
295
330
1F
100
AcDbEntity
  8
0
  6
SLD-Durchgehend
 62
     8
370
     0
100
AcDbLine
 10
354.8101958108
 20
264.1806491835
 30
0.0
 11
354.8101958108
 21
266.1806491835
 31
0.0
  0
LINE
  5
296
330
1F
100
AcDbEntity
  8
0
  6
SLD-Durchgehend
 62
     8
370
     0
100
AcDbLine
 10
342.3101958108
 20
264.1806491835
 30
0.0
 11
342.0601958108
 21
264.1806491835
 31
0.0
  0
LINE
  5
297
330
1F
100
AcDbEntity
  8
0
  6
SLD-Durchgehend
 62
     8
370
     0
100
AcDbLine
 10
354.8101958108
 20
264.1806491835
 30
0.0
 11
355.0601958108
 21
264.1806491835
 31
0.0
  0
LINE
  5
298
330
1F
100
AcDbEntity
  8
0
  6
SLD-Durchgehend
 62
     8
370
     0
100
AcDbLine
 10
342.0601958108
 20
266.1806491835
 30
0.0
 11
342.3101958108
 21
266.1806491835
 31
0.0
  0
LINE
  5
299
330
1F
100
AcDbEntity
  8
0
  6
SLD-Durchgehend
 62
     8
370
     0
100
AcDbLine
 10
355.0601958108
 20
266.1806491835
 30
0.0
 11
354.8101958108
 21
266.1806491835
 31
0.0
  0
LINE
  5
29A
330
1F
100
AcDbEntity
  8
0
  6
SLD-Durchgehend
 62
     7
370
    15
100
AcDbLine
 10
301.5601954383
 20
88.0211011229
 30
0.0
 11
301.5601954383
 21
88.2211007831
 31
0.0
  0
LINE
  5
29B
330
1F
100
AcDbEntity
  8
0
  6
SLD-Durchgehend
 62
     7
370
    15
100
AcDbLine
 10
351.5601961833
 20
88.2211007831
 30
0.0
 11
351.5601961833
 21
88.0211011229
 31
0.0
  0
LINE
  5
29C
330
1F
100
AcDbEntity
  8
0
  6
SLD-Durchgehend
 62
     7
370
    15
100
AcDbLine
 10
301.5601954383
 20
88.0211011229
 30
0.0
 11
351.5601961833
 21
88.0211011229
 31
0.0
  0
LINE
  5
29D
330
1F
100
AcDbEntity
  8
0
  6
SLD-Durchgehend
 62
     7
370
    15
100
AcDbLine
 10
342.3101960641
 20
110.6182154456
 30
0.0
 11
348.310195185
 21
114.0823170265
 31
0.0
  0
ARC
  5
29E
330
1F
100
AcDbEntity
  8
0
  6
SLD-Durchgehend
 62
     7
370
    15
100
AcDbCircle
 10
348.5601958108
 20
113.6493042518
 30
0.0
 40
0.5000000000000041
100
AcDbArc
 50
60.0
 51
120.0
  0
LINE
  5
29F
330
1F
100
AcDbEntity
  8
0
  6
SLD-Durchgehend
 62
     7
370
    15
100
AcDbLine
 10
348.8101961982
 20
114.0823170265
 30
0.0
 11
354.8101953191
 21
110.6182154456
 31
0.0
  0
LINE
  5
2A0
330
1F
100
AcDbEntity
  8
0
  6
SLD-Durchgehend
 62
     7
370
    15
100
AcDbLine
 10
355.0601958257
 20
110.1852026025
 30
0.0
 11
355.0601958257
 21
103.2569994407
 31
0.0
  0
ARC
  5
2A1
330
1F
100
AcDbEntity
  8
0
  6
SLD-Durchgehend
 62
     7
370
    15
100
AcDbCircle
 10
354.5601958108
 20
110.1852026367
 30
0.0
 40
0.5
100
AcDbArc
 50
0.0
 51
60.0
  0
ARC
  5
2A2
330
1F
100
AcDbEntity
  8
0
  6
SLD-Durchgehend
 62
     7
370
    15
100
AcDbCircle
 10
342.5601958108
 20
110.1852026367
 30
0.0
 40
0.4999999999999918
100
AcDbArc
 50
120.0
 51
180.0
  0
LINE
  5
2A3
330
1F
100
AcDbEntity
  8
0
  6
SLD-Durchgehend
 62
     7
370
    15
100
AcDbLine
 10
342.0601955575
 20
103.2569994407
 30
0.0
 11
342.0601955575
 21
110.1852026025
 31
0.0
  0
ARC
  5
2A4
330
1F
100
AcDbEntity
  8
0
  6
SLD-Durchgehend
 62
     7
370
    15
100
AcDbCircle
 10
354.5601958108
 20
103.2569994064
 30
0.0
 40
0.5
100
AcDbArc
 50
300.0
 51
0.0
  0
LINE
  5
2A5
330
1F
100
AcDbEntity
  8
0
  6
SLD-Durchgehend
 62
     7
370
    15
100
AcDbLine
 10
354.8101953191
 20
102.8239865975
 30
0.0
 11
348.8101961982
 21
99.3598850166
 31
0.0
  0
LINE
  5
2A6
330
1F
100
AcDbEntity
  8
0
  6
SLD-Durchgehend
 62
     7
370
    15
100
AcDbLine
 10
348.310195185
 20
99.3598850166
 30
0.0
 11
342.3101960641
 21
102.8239865975
 31
0.0
  0
ARC
  5
2A7
330
1F
100
AcDbEntity
  8
0
  6
SLD-Durchgehend
 62
     7
370
    15
100
AcDbCircle
 10
342.5601958108
 20
103.2569994064
 30
0.0
 40
0.5
100
AcDbArc
 50
180.0
 51
240.0
  0
ARC
  5
2A8
330
1F
100
AcDbEntity
  8
0
  6
SLD-Durchgehend
 62
     7
370
    15
100
AcDbCircle
 10
348.5601958108
 20
99.7928977913
 30
0.0
 40
0.5000000000000572
100
AcDbArc
 50
240.0
 51
300.0
  0
CIRCLE
  5
2A9
330
1F
100
AcDbEntity
  8
0
  6
SLD-Durchgehend
 62
     7
370
    15
100
AcDbCircle
 10
348.5601958108
 20
106.7211010216
 30
0.0
 40
9.75
  0
LINE
  5
2AA
330
1F
100
AcDbEntity
  8
0
  6
SLD-Durchgehend
 62
     7
370
    15
100
AcDbLine
 10
366.5601949167
 20
88.2211007831
 30
0.0
 11
366.5601949167
 21
125.22110126
 31
0.0
  0
LINE
  5
2AB
330
1F
100
AcDbEntity
  8
0
  6
SLD-Durchgehend
 62
     7
370
    15
100
AcDbLine
 10
286.5601967049
 20
88.2211007831
 30
0.0
 11
366.5601949167
 21
88.2211007831
 31
0.0
  0
LINE
  5
2AC
330
1F
100
AcDbEntity
  8
0
  6
SLD-Durchgehend
 62
     7
370
    15
100
AcDbLine
 10
286.5601967049
 20
88.2211007831
 30
0.0
 11
286.5601967049
 21
125.22110126
 31
0.0
  0
LINE
  5
2AD
330
1F
100
AcDbEntity
  8
0
  6
SLD-Durchgehend
 62
     7
370
    15
100
AcDbLine
 10
286.5601967049
 20
125.22110126
 30
0.0
 11
366.5601949167
 21
125.22110126
 31
0.0
  0
CIRCLE
  5
2AE
330
1F
100
AcDbEntity
  8
0
  6
SLD-Durchgehend
 62
     7
370
    15
100
AcDbCircle
 10
306.2601958108
 20
106.7211010216
 30
0.0
 40
6.722500000000025
  0
CIRCLE
  5
2AF
330
1F
100
AcDbEntity
  8
0
  6
SLD-Durchgehend
 62
     7
370
    15
100
AcDbCircle
 10
306.2601958108
 20
106.7211010216
 30
0.0
 40
5.722499999999997
  0
CIRCLE
  5
2B0
330
1F
100
AcDbEntity
  8
0
  6
SLD-Durchgehend
 62
     7
370
    15
100
AcDbCircle
 10
306.2601958108
 20
106.7211010216
 30
0.0
 40
3.149999999999991
  0
CIRCLE
  5
2B1
330
1F
100
AcDbEntity
  8
0
  6
SLD-Durchgehend
 62
     7
370
    15
100
AcDbCircle
 10
306.2601958108
 20
106.7211010216
 30
0.0
 40
1.249999999999986
  0
LINE
  5
2B2
330
1F
100
AcDbEntity
  8
0
  6
SLD-Durchgehend
 62
     7
370
    15
100
AcDbLine
 10
369.0601962579
 20
88.2211007831
 30
0.0
 11
366.5601949167
 21
88.2211007831
 31
0.0
  0
LINE
  5
2B3
330
1F
100
AcDbEntity
  8
0
  6
SLD-Durchgehend
 62
     7
370
    15
100
AcDbLine
 10
366.5601949167
 20
125.22110126
 30
0.0
 11
369.0601962579
 21
125.22110126
 31
0.0
  0
LINE
  5
2B4
330
1F
100
AcDbEntity
  8
0
  6
SLD-Durchgehend
 62
     7
370
    15
100
AcDbLine
 10
286.5601967049
 20
88.2211007831
 30
0.0
 11
284.0601953638
 21
88.2211007831
 31
0.0
  0
LINE
  5
2B5
330
1F
100
AcDbEntity
  8
0
  6
SLD-Durchgehend
 62
     7
370
    15
100
AcDbLine
 10
284.0601953638
 20
125.22110126
 30
0.0
 11
286.5601967049
 21
125.22110126
 31
0.0
  0
LINE
  5
2B6
330
1F
100
AcDbEntity
  8
0
  6
SLD-Durchgehend
 62
     7
370
    15
100
AcDbLine
 10
390.5601988507
 20
111.2211008279
 30
0.0
 11
390.5601988507
 21
125.22110126
 31
0.0
  0
LINE
  5
2B7
330
1F
100
AcDbEntity
  8
0
  6
SLD-Durchgehend
 62
     7
370
    15
100
AcDbLine
 10
390.5601988507
 20
111.2211008279
 30
0.0
 11
378.5601968837
 21
111.2211008279
 31
0.0
  0
ARC
  5
2B8
330
1F
100
AcDbEntity
  8
0
  6
SLD-Durchgehend
 62
     7
370
    15
100
AcDbCircle
 10
378.5601958108
 20
106.7211010216
 30
0.0
 40
4.5
100
AcDbArc
 50
90.0
 51
270.0
  0
LINE
  5
2B9
330
1F
100
AcDbEntity
  8
0
  6
SLD-Durchgehend
 62
     7
370
    15
100
AcDbLine
 10
378.5601968837
 20
102.2211012153
 30
0.0
 11
390.5601988507
 21
102.2211012153
 31
0.0
  0
LINE
  5
2BA
330
1F
100
AcDbEntity
  8
0
  6
SLD-Durchgehend
 62
     7
370
    15
100
AcDbLine
 10
390.5601988507
 20
88.2211007831
 30
0.0
 11
390.5601988507
 21
102.2211012153
 31
0.0
  0
LINE
  5
2BB
330
1F
100
AcDbEntity
  8
0
  6
SLD-Durchgehend
 62
     7
370
    15
100
AcDbLine
 10
390.5601988507
 20
88.2211007831
 30
0.0
 11
369.0601962579
 21
88.2211007831
 31
0.0
  0
LINE
  5
2BC
330
1F
100
AcDbEntity
  8
0
  6
SLD-Durchgehend
 62
     7
370
    15
100
AcDbLine
 10
390.5601988507
 20
125.22110126
 30
0.0
 11
369.0601962579
 21
125.22110126
 31
0.0
  0
LINE
  5
2BD
330
1F
100
AcDbEntity
  8
0
  6
SLD-Durchgehend
 62
     7
370
    15
100
AcDbLine
 10
262.560192771
 20
88.2211007831
 30
0.0
 11
262.560192771
 21
102.2211012153
 31
0.0
  0
LINE
  5
2BE
330
1F
100
AcDbEntity
  8
0
  6
SLD-Durchgehend
 62
     7
370
    15
100
AcDbLine
 10
262.560192771
 20
102.2211012153
 30
0.0
 11
274.5601947379
 21
102.2211012153
 31
0.0
  0
ARC
  5
2BF
330
1F
100
AcDbEntity
  8
0
  6
SLD-Durchgehend
 62
     7
370
    15
100
AcDbCircle
 10
274.5601958108
 20
106.7211010216
 30
0.0
 40
4.5
100
AcDbArc
 50
270.0
 51
90.0
  0
LINE
  5
2C0
330
1F
100
AcDbEntity
  8
0
  6
SLD-Durchgehend
 62
     7
370
    15
100
AcDbLine
 10
274.5601947379
 20
111.2211008279
 30
0.0
 11
262.560192771
 21
111.2211008279
 31
0.0
  0
LINE
  5
2C1
330
1F
100
AcDbEntity
  8
0
  6
SLD-Durchgehend
 62
     7
370
    15
100
AcDbLine
 10
262.560192771
 20
111.2211008279
 30
0.0
 11
262.560192771
 21
125.22110126
 31
0.0
  0
LINE
  5
2C2
330
1F
100
AcDbEntity
  8
0
  6
SLD-Durchgehend
 62
     7
370
    15
100
AcDbLine
 10
284.0601953638
 20
88.2211007831
 30
0.0
 11
262.560192771
 21
88.2211007831
 31
0.0
  0
LINE
  5
2C3
330
1F
100
AcDbEntity
  8
0
  6
SLD-Durchgehend
 62
     7
370
    15
100
AcDbLine
 10
284.0601953638
 20
125.22110126
 30
0.0
 11
262.560192771
 21
125.22110126
 31
0.0
  0
LWPOLYLINE
  5
2C4
330
1F
100
AcDbEntity
  8
0
  6
SLD-Durchgehend
 62
     8
370
     0
100
AcDbPolyline
 90
        9
 70
   128
 43
0.0
 10
348.310195185
 20
114.0823170265
 10
348.3149989468
 20
114.0739965906
 10
348.3292258305
 20
114.0493556579
 10
348.3523282182
 20
114.0093413835
 10
348.3834194911
 20
113.9554904496
 10
348.4213038308
 20
113.8898731863
 10
348.4645246488
 20
113.8150111494
 10
348.5114223284
 20
113.7337807288
 10
348.5601956916
 20
113.6493041834
  0
LINE
  5
2C5
330
1F
100
AcDbEntity
  8
0
  6
SLD-Durchgehend
 62
     8
370
     0
100
AcDbLine
 10
348.5601956916
 20
113.6493041834
 30
0.0
 11
342.5601965708
 21
110.1852026025
 31
0.0
  0
LWPOLYLINE
  5
2C6
330
1F
100
AcDbEntity
  8
0
  6
SLD-Durchgehend
 62
     8
370
     0
100
AcDbPolyline
 90
        9
 70
   128
 43
0.0
 10
342.3101960641
 20
110.6182154456
 10
342.314999826
 20
110.6098950097
 10
342.3292267096
 20
110.5852543099
 10
342.3523290974
 20
110.5452395698
 10
342.3834185076
 20
110.4913888687
 10
342.4213028473
 20
110.4257716054
 10
342.464525528
 20
110.3509093357
 10
342.5114232075
 20
110.2696791479
 10
342.5601965708
 20
110.1852026025
  0
LWPOLYLINE
  5
2C7
330
1F
100
AcDbEntity
  8
0
  6
SLD-Durchgehend
 62
     8
370
     0
100
AcDbPolyline
 90
        9
 70
   128
 43
0.0
 10
348.8101961982
 20
114.0823170265
 10
348.8053924364
 20
114.0739965906
 10
348.7911655528
 20
114.0493556579
 10
348.768063165
 20
114.0093413835
 10
348.7369718921
 20
113.9554904496
 10
348.6990875524
 20
113.8898731863
 10
348.6558667344
 20
113.8150111494
 10
348.6089690548
 20
113.7337807288
 10
348.5601956916
 20
113.6493041834
  0
LINE
  5
2C8
330
1F
100
AcDbEntity
  8
0
  6
SLD-Durchgehend
 62
     8
370
     0
100
AcDbLine
 10
354.5601966751
 20
110.1852026025
 30
0.0
 11
348.5601956916
 21
113.6493041834
 31
0.0
  0
LINE
  5
2C9
330
1F
100
AcDbEntity
  8
0
  6
SLD-Durchgehend
 62
     8
370
     0
100
AcDbLine
 10
354.5601966751
 20
103.2569994407
 30
0.0
 11
354.5601966751
 21
110.1852026025
 31
0.0
  0
LINE
  5
2CA
330
1F
100
AcDbEntity
  8
0
  6
SLD-Durchgehend
 62
     8
370
     0
100
AcDbLine
 10
348.5601956916
 20
99.7928978598
 30
0.0
 11
354.5601966751
 21
103.2569994407
 31
0.0
  0
LINE
  5
2CB
330
1F
100
AcDbEntity
  8
0
  6
SLD-Durchgehend
 62
     8
370
     0
100
AcDbLine
 10
342.5601965708
 20
103.2569994407
 30
0.0
 11
348.5601956916
 21
99.7928978598
 31
0.0
  0
LINE
  5
2CC
330
1F
100
AcDbEntity
  8
0
  6
SLD-Durchgehend
 62
     8
370
     0
100
AcDbLine
 10
342.5601965708
 20
110.1852026025
 30
0.0
 11
342.5601965708
 21
103.2569994407
 31
0.0
  0
LWPOLYLINE
  5
2CD
330
1F
100
AcDbEntity
  8
0
  6
SLD-Durchgehend
 62
     8
370
     0
100
AcDbPolyline
 90
        9
 70
   128
 43
0.0
 10
354.8101953191
 20
110.6182154456
 10
354.8053915572
 20
110.6098950097
 10
354.7911665362
 20
110.5852543099
 10
354.7680622858
 20
110.5452395698
 10
354.7369728756
 20
110.4913888687
 10
354.6990885359
 20
110.4257716054
 10
354.6558658552
 20
110.3509093357
 10
354.6089681757
 20
110.2696791479
 10
354.5601966751
 20
110.1852026025
  0
LINE
  5
2CE
330
1F
100
AcDbEntity
  8
0
  6
SLD-Durchgehend
 62
     8
370
     0
100
AcDbLine
 10
355.0601958257
 20
103.2569994407
 30
0.0
 11
354.5601966751
 21
103.2569994407
 31
0.0
  0
LINE
  5
2CF
330
1F
100
AcDbEntity
  8
0
  6
SLD-Durchgehend
 62
     8
370
     0
100
AcDbLine
 10
355.0601958257
 20
110.1852026025
 30
0.0
 11
354.5601966751
 21
110.1852026025
 31
0.0
  0
LINE
  5
2D0
330
1F
100
AcDbEntity
  8
0
  6
SLD-Durchgehend
 62
     8
370
     0
100
AcDbLine
 10
342.5601965708
 20
110.1852026025
 30
0.0
 11
342.0601955575
 21
110.1852026025
 31
0.0
  0
LINE
  5
2D1
330
1F
100
AcDbEntity
  8
0
  6
SLD-Durchgehend
 62
     8
370
     0
100
AcDbLine
 10
342.5601965708
 20
103.2569994407
 30
0.0
 11
342.0601955575
 21
103.2569994407
 31
0.0
  0
LWPOLYLINE
  5
2D2
330
1F
100
AcDbEntity
  8
0
  6
SLD-Durchgehend
 62
     8
370
     0
100
AcDbPolyline
 90
        9
 70
   128
 43
0.0
 10
354.5601966751
 20
103.2569994407
 10
354.6089681757
 20
103.1725228952
 10
354.6558658552
 20
103.0912927074
 10
354.6990885359
 20
103.0164304377
 10
354.7369728756
 20
102.9508131744
 10
354.7680622858
 20
102.8969624733
 10
354.7911665362
 20
102.8569477333
 10
354.8053915572
 20
102.8323070334
 10
354.8101953191
 20
102.8239865975
  0
LWPOLYLINE
  5
2D3
330
1F
100
AcDbEntity
  8
0
  6
SLD-Durchgehend
 62
     8
370
     0
100
AcDbPolyline
 90
        9
 70
   128
 43
0.0
 10
348.5601956916
 20
99.7928978598
 10
348.6089690548
 20
99.7084213143
 10
348.6558667344
 20
99.6271908937
 10
348.6990875524
 20
99.5523288568
 10
348.7369718921
 20
99.4867115935
 10
348.768063165
 20
99.4328606596
 10
348.7911655528
 20
99.3928463852
 10
348.8053924364
 20
99.3682054525
 10
348.8101961982
 20
99.3598850166
  0
LWPOLYLINE
  5
2D4
330
1F
100
AcDbEntity
  8
0
  6
SLD-Durchgehend
 62
     8
370
     0
100
AcDbPolyline
 90
        9
 70
   128
 43
0.0
 10
348.5601956916
 20
99.7928978598
 10
348.5114223284
 20
99.7084213143
 10
348.4645246488
 20
99.6271908937
 10
348.4213038308
 20
99.5523288568
 10
348.3834194911
 20
99.4867115935
 10
348.3523282182
 20
99.4328606596
 10
348.3292258305
 20
99.3928463852
 10
348.3149989468
 20
99.3682054525
 10
348.310195185
 20
99.3598850166
  0
LWPOLYLINE
  5
2D5
330
1F
100
AcDbEntity
  8
0
  6
SLD-Durchgehend
 62
     8
370
     0
100
AcDbPolyline
 90
        9
 70
   128
 43
0.0
 10
342.5601965708
 20
103.2569994407
 10
342.5114232075
 20
103.1725228952
 10
342.464525528
 20
103.0912927074
 10
342.4213028473
 20
103.0164304377
 10
342.3834185076
 20
102.9508131744
 10
342.3523290974
 20
102.8969624733
 10
342.3292267096
 20
102.8569477333
 10
342.314999826
 20
102.8323070334
 10
342.3101960641
 20
102.8239865975
  0
ARC
  5
2D6
330
1F
100
AcDbEntity
  8
0
  6
SLD-Durchgehend
 62
     8
370
     0
100
AcDbCircle
 10
348.5601958108
 20
113.6493042518
 30
0.0
 40
1.000000000000024
100
AcDbArc
 50
60.0
 51
120.0
  0
LWPOLYLINE
  5
2D7
330
1F
100
AcDbEntity
  8
0
  6
SLD-Durchgehend
 62
     8
370
     0
100
AcDbPolyline
 90
        9
 70
   128
 43
0.0
 10
349.0601967049
 20
114.5153298696
 10
349.0114233417
 20
114.4308528585
 10
348.9645256621
 20
114.3496229036
 10
348.9213029814
 20
114.2747608667
 10
348.8834186417
 20
114.2091436034
 10
348.8523292315
 20
114.1552926695
 10
348.8292268437
 20
114.1152779294
 10
348.8149999601
 20
114.0906369967
 10
348.8101961982
 20
114.0823170265
  0
LWPOLYLINE
  5
2D8
330
1F
100
AcDbEntity
  8
0
  6
SLD-Durchgehend
 62
     8
370
     0
100
AcDbPolyline
 90
        9
 70
   128
 43
0.0
 10
348.060196541
 20
114.5153298696
 10
348.1089680416
 20
114.4308528585
 10
348.1558675838
 20
114.3496229036
 10
348.1990884018
 20
114.2747608667
 10
348.2369727415
 20
114.2091436034
 10
348.2680640143
 20
114.1552926695
 10
348.2911664021
 20
114.1152779294
 10
348.3053914231
 20
114.0906369967
 10
348.310195185
 20
114.0823170265
  0
LINE
  5
2D9
330
1F
100
AcDbEntity
  8
0
  6
SLD-Durchgehend
 62
     8
370
     0
100
AcDbLine
 10
349.0601967049
 20
114.5153298696
 30
0.0
 11
355.0601958257
 21
111.0512280559
 31
0.0
  0
LWPOLYLINE
  5
2DA
330
1F
100
AcDbEntity
  8
0
  6
SLD-Durchgehend
 62
     8
370
     0
100
AcDbPolyline
 90
        9
 70
   128
 43
0.0
 10
355.0601958257
 20
111.0512280559
 10
355.0114224625
 20
110.9667515104
 10
354.9645247829
 20
110.8855210898
 10
354.9213039649
 20
110.810659053
 10
354.8834196252
 20
110.7450417897
 10
354.8523283524
 20
110.6911913214
 10
354.8292259646
 20
110.6511765813
 10
354.8149990809
 20
110.6265356487
 10
354.8101953191
 20
110.6182154456
  0
LINE
  5
2DB
330
1F
100
AcDbEntity
  8
0
  6
SLD-Durchgehend
 62
     8
370
     0
100
AcDbLine
 10
342.0601955575
 20
111.0512280559
 30
0.0
 11
348.060196541
 21
114.5153298696
 31
0.0
  0
LWPOLYLINE
  5
2DC
330
1F
100
AcDbEntity
  8
0
  6
SLD-Durchgehend
 62
     8
370
     0
100
AcDbPolyline
 90
        9
 70
   128
 43
0.0
 10
342.0601955575
 20
111.0512280559
 10
342.1089679894
 20
110.9667515104
 10
342.1558666003
 20
110.8855210898
 10
342.199089281
 20
110.810659053
 10
342.236971758
 20
110.7450417897
 10
342.2680630309
 20
110.6911913214
 10
342.2911654186
 20
110.6511765813
 10
342.3053923023
 20
110.6265356487
 10
342.3101960641
 20
110.6182154456
  0
ARC
  5
2DD
330
1F
100
AcDbEntity
  8
0
  6
SLD-Durchgehend
 62
     8
370
     0
100
AcDbCircle
 10
354.5601958108
 20
110.1852026367
 30
0.0
 40
1.0
100
AcDbArc
 50
0.0
 51
60.0
  0
LINE
  5
2DE
330
1F
100
AcDbEntity
  8
0
  6
SLD-Durchgehend
 62
     8
370
     0
100
AcDbLine
 10
355.5601949764
 20
110.1852026025
 30
0.0
 11
355.0601958257
 21
110.1852026025
 31
0.0
  0
LINE
  5
2DF
330
1F
100
AcDbEntity
  8
0
  6
SLD-Durchgehend
 62
     8
370
     0
100
AcDbLine
 10
355.5601949764
 20
110.1852026025
 30
0.0
 11
355.5601949764
 21
103.2569994407
 31
0.0
  0
LINE
  5
2E0
330
1F
100
AcDbEntity
  8
0
  6
SLD-Durchgehend
 62
     8
370
     0
100
AcDbLine
 10
355.5601949764
 20
103.2569994407
 30
0.0
 11
355.0601958257
 21
103.2569994407
 31
0.0
  0
LINE
  5
2E1
330
1F
100
AcDbEntity
  8
0
  6
SLD-Durchgehend
 62
     8
370
     0
100
AcDbLine
 10
342.0601955575
 20
103.2569994407
 30
0.0
 11
341.5601954755
 21
103.2569994407
 31
0.0
  0
LINE
  5
2E2
330
1F
100
AcDbEntity
  8
0
  6
SLD-Durchgehend
 62
     8
370
     0
100
AcDbLine
 10
341.5601954755
 20
103.2569994407
 30
0.0
 11
341.5601954755
 21
110.1852026025
 31
0.0
  0
LINE
  5
2E3
330
1F
100
AcDbEntity
  8
0
  6
SLD-Durchgehend
 62
     8
370
     0
100
AcDbLine
 10
342.0601955575
 20
110.1852026025
 30
0.0
 11
341.5601954755
 21
110.1852026025
 31
0.0
  0
ARC
  5
2E4
330
1F
100
AcDbEntity
  8
0
  6
SLD-Durchgehend
 62
     8
370
     0
100
AcDbCircle
 10
342.5601958108
 20
110.1852026367
 30
0.0
 40
1.000000000000008
100
AcDbArc
 50
120.0
 51
180.0
  0
LWPOLYLINE
  5
2E5
330
1F
100
AcDbEntity
  8
0
  6
SLD-Durchgehend
 62
     8
370
     0
100
AcDbPolyline
 90
        9
 70
   128
 43
0.0
 10
354.8101953191
 20
102.8239865975
 10
354.8149990809
 20
102.8156663945
 10
354.8292259646
 20
102.7910254618
 10
354.8523283524
 20
102.7510107217
 10
354.8834196252
 20
102.6971602535
 10
354.9213039649
 20
102.6315429902
 10
354.9645247829
 20
102.5566809533
 10
355.0114224625
 20
102.4754505327
 10
355.0601958257
 20
102.3909739872
  0
LINE
  5
2E6
330
1F
100
AcDbEntity
  8
0
  6
SLD-Durchgehend
 62
     8
370
     0
100
AcDbLine
 10
355.0601958257
 20
102.3909739872
 30
0.0
 11
349.0601967049
 21
98.9268721735
 31
0.0
  0
LWPOLYLINE
  5
2E7
330
1F
100
AcDbEntity
  8
0
  6
SLD-Durchgehend
 62
     8
370
     0
100
AcDbPolyline
 90
        9
 70
   128
 43
0.0
 10
348.8101961982
 20
99.3598850166
 10
348.8149999601
 20
99.3515650464
 10
348.8292268437
 20
99.3269241137
 10
348.8523292315
 20
99.2869093736
 10
348.8834186417
 20
99.2330584397
 10
348.9213029814
 20
99.1674411764
 10
348.9645256621
 20
99.0925791396
 10
349.0114233417
 20
99.0113491846
 10
349.0601967049
 20
98.9268721735
  0
ARC
  5
2E8
330
1F
100
AcDbEntity
  8
0
  6
SLD-Durchgehend
 62
     8
370
     0
100
AcDbCircle
 10
354.5601958108
 20
103.2569994064
 30
0.0
 40
1.00000000000002
100
AcDbArc
 50
300.0
 51
360.0
  0
LWPOLYLINE
  5
2E9
330
1F
100
AcDbEntity
  8
0
  6
SLD-Durchgehend
 62
     8
370
     0
100
AcDbPolyline
 90
        9
 70
   128
 43
0.0
 10
348.310195185
 20
99.3598850166
 10
348.3053914231
 20
99.3515650464
 10
348.2911664021
 20
99.3269241137
 10
348.2680640143
 20
99.2869093736
 10
348.2369727415
 20
99.2330584397
 10
348.1990884018
 20
99.1674411764
 10
348.1558675838
 20
99.0925791396
 10
348.1089680416
 20
99.0113491846
 10
348.060196541
 20
98.9268721735
  0
LINE
  5
2EA
330
1F
100
AcDbEntity
  8
0
  6
SLD-Durchgehend
 62
     8
370
     0
100
AcDbLine
 10
348.060196541
 20
98.9268721735
 30
0.0
 11
342.0601955575
 21
102.3909739872
 31
0.0
  0
LWPOLYLINE
  5
2EB
330
1F
100
AcDbEntity
  8
0
  6
SLD-Durchgehend
 62
     8
370
     0
100
AcDbPolyline
 90
        9
 70
   128
 43
0.0
 10
342.3101960641
 20
102.8239865975
 10
342.3053923023
 20
102.8156663945
 10
342.2911654186
 20
102.7910254618
 10
342.2680630309
 20
102.7510107217
 10
342.236971758
 20
102.6971602535
 10
342.199089281
 20
102.6315429902
 10
342.1558666003
 20
102.5566809533
 10
342.1089679894
 20
102.4754505327
 10
342.0601955575
 20
102.3909739872
  0
ARC
  5
2EC
330
1F
100
AcDbEntity
  8
0
  6
SLD-Durchgehend
 62
     8
370
     0
100
AcDbCircle
 10
342.5601958108
 20
103.2569994064
 30
0.0
 40
1.000000000000008
100
AcDbArc
 50
180.0
 51
240.0
  0
ARC
  5
2ED
330
1F
100
AcDbEntity
  8
0
  6
SLD-Durchgehend
 62
     8
370
     0
100
AcDbCircle
 10
348.5601958108
 20
99.7928977913
 30
0.0
 40
1.00000000000002
100
AcDbArc
 50
240.0
 51
300.0
  0
CIRCLE
  5
2EE
330
1F
100
AcDbEntity
  8
0
  6
SLD-Durchgehend
 62
     8
370
     0
100
AcDbCircle
 10
348.5601958108
 20
106.7211010216
 30
0.0
 40
9.25
  0
LINE
  5
2EF
330
1F
100
AcDbEntity
  8
0
  6
SLD-Durchgehend
 62
     8
370
     0
100
AcDbLine
 10
369.0601962579
 20
125.22110126
 30
0.0
 11
369.0601962579
 21
88.2211007831
 31
0.0
  0
LINE
  5
2F0
330
1F
100
AcDbEntity
  8
0
  6
SLD-Durchgehend
 62
     8
370
     0
100
AcDbLine
 10
284.0601953638
 20
88.2211007831
 30
0.0
 11
284.0601953638
 21
125.22110126
 31
0.0
  0
DIMENSION
  5
2F1
330
1F
100
AcDbEntity
  8
0
  6
SLD-Durchgehend
 62
     7
370
     0
100
AcDbDimension
  2
_D_7
 10
274.5601958108
 20
78.2211010216
 30
0.0
 11
326.5601958108
 21
78.2211010216
 31
0.0
 70
   160
  1
<>
 71
     2
 42
-1.0
  3
SLDDIMSTYLE1
100
AcDbAlignedDimension
 13
378.5601958108
 23
101.2211010216
 33
0.0
 14
274.5601958108
 24
101.2211010216
 34
0.0
 50
0.0
100
AcDbRotatedDimension
  0
DIMENSION
  5
2FB
330
1F
100
AcDbEntity
  8
0
  6
SLD-Durchgehend
 62
     7
370
     0
100
AcDbDimension
  2
_D_8
 10
252.7511118998
 20
102.2211010216
 30
0.0
 11
252.7511118998
 21
106.7211010216
 31
0.0
 70
   160
  1
<>
 71
     2
 42
-1.0
  3
SLDDIMSTYLE2
100
AcDbAlignedDimension
 13
262.5601958108
 23
111.2211010216
 33
0.0
 14
262.5601958108
 24
102.2211010216
 34
0.0
 50
90.0
100
AcDbRotatedDimension
  0
DIMENSION
  5
308
330
1F
100
AcDbEntity
  8
0
  6
SLD-Durchgehend
 62
     7
370
     0
100
AcDbDimension
  2
_D_9
 10
242.2149033297
 20
88.2211010216
 30
0.0
 11
242.2149033297
 21
106.7211010216
 31
0.0
 70
   160
  1
<>
 71
     2
 42
-1.0
  3
SLDDIMSTYLE1
100
AcDbAlignedDimension
 13
262.5601958108
 23
125.2211010216
 33
0.0
 14
262.5601958108
 24
88.2211010216
 34
0.0
 50
90.0
100
AcDbRotatedDimension
  0
INSERT
  5
31D
330
1F
100
AcDbEntity
  8
0
  6
SLD-Durchgehend
 62
     7
370
     0
100
AcDbBlockReference
  2
SW_CENTERMARKSYMBOL_1
 10
274.5601958108
 20
106.7211010216
 30
0.0
  0
INSERT
  5
329
330
1F
100
AcDbEntity
  8
0
  6
SLD-Durchgehend
 62
     7
370
     0
100
AcDbBlockReference
  2
SW_CENTERMARKSYMBOL_2
 10
378.5601958108
 20
106.7211010216
 30
0.0
  0
INSERT
  5
335
330
1F
100
AcDbEntity
  8
0
  6
SLD-Durchgehend
 62
     7
370
     0
100
AcDbBlockReference
  2
SW_CENTERMARKSYMBOL_3
 10
348.5601958108
 20
106.7211010216
 30
0.0
  0
INSERT
  5
341
330
1F
100
AcDbEntity
  8
0
  6
SLD-Durchgehend
 62
     7
370
     0
100
AcDbBlockReference
  2
SW_CENTERMARKSYMBOL_4
 10
306.2601958108
 20
106.7211010216
 30
0.0
  0
SPLINE
  5
342
330
1F
100
AcDbEntity
  8
0
  6
SLD-Durchgehend
 62
     7
370
    15
100
AcDbSpline
210
0.0
220
0.0
230
1.0
 70
     8
 71
     3
 72
    16
 73
    12
 74
     0
 42
0.000000001
 43
0.00000001
 40
0.0
 40
0.0
 40
0.0
 40
0.0
 40
0.0387576217300143
 40
0.1692058838288161
 40
0.3001280419902079
 40
0.4334130588814088
 40
0.5696160639685758
 40
0.7080444939682259
 40
0.8475846052452516
 40
0.9873402949864226
 40
1.0
 40
1.0
 40
1.0
 40
1.0
 10
133.3818984860561
 20
119.6009429232475
 30
0.0
 10
133.3834186716879
 20
119.6551388843338
 30
0.0
 10
133.3900554141383
 20
119.8917446172512
 30
0.0
 10
133.2782568634
 20
120.3070324629948
 30
0.0
 10
133.049142922755
 20
120.8318600898664
 30
0.0
 10
132.6974133841297
 20
121.3338508402129
 30
0.0
 10
132.2359552728903
 20
121.8084605150274
 30
0.0
 10
131.6683479542976
 20
122.2508459546311
 30
0.0
 10
130.9948594668865
 20
122.6460113546792
 30
0.0
 10
130.4841101694866
 20
122.9027878282824
 30
0.0
 10
130.1822141264076
 20
123.0103399858686
 30
0.0
 10
130.1571384780041
 20
123.0192733261707
 30
0.0
  0
SPLINE
  5
343
330
1F
100
AcDbEntity
  8
0
  6
SLD-Durchgehend
 62
     7
370
    15
100
AcDbSpline
210
0.0
220
0.0
230
1.0
 70
     8
 71
     3
 72
    15
 73
    11
 74
     0
 42
0.000000001
 43
0.00000001
 40
0.0
 40
0.0
 40
0.0
 40
0.0
 40
0.0629195786491723
 40
0.2042171644809377
 40
0.3459703118967831
 40
0.4880694206779927
 40
0.6298669668240818
 40
0.7702360891736519
 40
0.9078201693046787
 40
1.0
 40
1.0
 40
1.0
 40
1.0
 10
120.4492756774475
 20
123.0374490560007
 30
0.0
 10
120.327763178652
 20
122.9919381835838
 30
0.0
 10
119.9333718224831
 20
122.8442242046036
 30
0.0
 10
119.3453053877854
 20
122.537557784462
 30
0.0
 10
118.6955809616033
 20
122.1236886422715
 30
0.0
 10
118.1479306294448
 20
121.6610566438078
 30
0.0
 10
117.7063962800045
 20
121.1592898111412
 30
0.0
 10
117.3892279551366
 20
120.6253293187153
 30
0.0
 10
117.2016557237139
 20
120.1289022971486
 30
0.0
 10
117.1769840284036
 20
119.8110259269502
 30
0.0
 10
117.1670858999791
 20
119.683495933743
 30
0.0
  0
LINE
  5
344
330
1F
100
AcDbEntity
  8
0
  6
SLD-Durchgehend
 62
     7
370
    15
100
AcDbLine
 10
133.3967764868
 20
97.3577889154
 30
0.0
 11
133.3967764868
 21
119.5012775169
 31
0.0
  0
LINE
  5
345
330
1F
100
AcDbEntity
  8
0
  6
SLD-Durchgehend
 62
     7
370
    15
100
AcDbLine
 10
117.1467764868
 20
102.7150845448
 30
0.0
 11
117.1467764868
 21
97.3577889154
 31
0.0
  0
LINE
  5
346
330
1F
100
AcDbEntity
  8
0
  6
SLD-Durchgehend
 62
     7
370
    15
100
AcDbLine
 10
117.1467764868
 20
108.4295332162
 30
0.0
 11
117.1467764868
 21
104.1436967127
 31
0.0
  0
LINE
  5
347
330
1F
100
AcDbEntity
  8
0
  6
SLD-Durchgehend
 62
     7
370
    15
100
AcDbLine
 10
117.1467764868
 20
114.1439818875
 30
0.0
 11
117.1467764868
 21
109.858145384
 31
0.0
  0
LINE
  5
348
330
1F
100
AcDbEntity
  8
0
  6
SLD-Durchgehend
 62
     7
370
    15
100
AcDbLine
 10
117.1467764868
 20
119.5012775169
 30
0.0
 11
117.1467764868
 21
115.5725940553
 31
0.0
  0
ARC
  5
349
330
1F
100
AcDbEntity
  8
0
  6
SLD-Durchgehend
 62
     7
370
    15
100
AcDbCircle
 10
119.5024523363
 20
121.5310840036
 30
0.0
 40
0.4166666666666714
100
AcDbArc
 50
134.305033619
 51
180.0
  0
LINE
  5
34A
330
1F
100
AcDbEntity
  8
0
  6
SLD-Durchgehend
 62
     7
370
    15
100
AcDbLine
 10
121.9058868545
 20
124.4591462193
 30
0.0
 11
119.2114197702
 21
121.8292637423
 31
0.0
  0
LINE
  5
34B
330
1F
100
AcDbEntity
  8
0
  6
SLD-Durchgehend
 62
     7
370
    15
100
AcDbLine
 10
119.0857856696
 20
121.5310840036
 30
0.0
 11
119.0857856696
 21
120.1024718358
 31
0.0
  0
ARC
  5
34C
330
1F
100
AcDbEntity
  8
0
  6
SLD-Durchgehend
 62
     7
370
    15
100
AcDbCircle
 10
131.0411006374
 20
121.7573075337
 30
0.0
 40
0.4166666666666592
100
AcDbArc
 50
0.0
 51
50.6996723379
  0
LINE
  5
34D
330
1F
100
AcDbEntity
  8
0
  6
SLD-Durchgehend
 62
     7
370
    15
100
AcDbLine
 10
131.3050111782
 20
122.0797394452
 30
0.0
 11
128.230154112
 21
124.5965101571
 31
0.0
  0
LINE
  5
34E
330
1F
100
AcDbEntity
  8
0
  6
SLD-Durchgehend
 62
     7
370
    15
100
AcDbLine
 10
131.457767304
 20
120.3286953659
 30
0.0
 11
131.457767304
 21
121.7573075337
 31
0.0
  0
SPLINE
  5
34F
330
1F
100
AcDbEntity
  8
0
  6
SLD-Durchgehend
 62
     7
370
    15
100
AcDbSpline
210
0.0
220
0.0
230
1.0
 70
     8
 71
     3
 72
    10
 73
     6
 74
     0
 42
0.000000001
 43
0.00000001
 40
0.0
 40
0.0
 40
0.0
 40
0.0
 40
0.3077668095541281
 40
0.8707695464080452
 40
1.0
 40
1.0
 40
1.0
 40
1.0
 10
119.07943665388
 20
120.1023693894195
 30
0.0
 10
119.0809040444808
 20
120.0865944309024
 30
0.0
 10
119.085055756128
 20
120.0419620889926
 30
0.0
 10
119.0569846688267
 20
120.0052064302764
 30
0.0
 10
119.0568760091868
 20
120.0051084107607
 30
0.0
 10
119.0568557239206
 20
120.0050901118599
 30
0.0
  0
SPLINE
  5
350
330
1F
100
AcDbEntity
  8
0
  6
SLD-Durchgehend
 62
     7
370
    15
100
AcDbSpline
210
0.0
220
0.0
230
1.0
 70
     8
 71
     3
 72
    10
 73
     6
 74
     0
 42
0.000000001
 43
0.00000001
 40
0.0
 40
0.0
 40
0.0
 40
0.0
 40
0.1673108435422831
 40
0.643947950645144
 40
1.0
 40
1.0
 40
1.0
 40
1.0
 10
131.4838473937826
 20
120.2341775572348
 30
0.0
 10
131.4846730925633
 20
120.2333914864762
 30
0.0
 10
131.4878510517823
 20
120.2303660480567
 30
0.0
 10
131.4598154052542
 20
120.2679444191784
 30
0.0
 10
131.4628281088449
 20
120.3105709894284
 30
0.0
 10
131.4641163197929
 20
120.3287978122192
 30
0.0
  0
LINE
  5
351
330
1F
100
AcDbEntity
  8
0
  6
SLD-Durchgehend
 62
     7
370
    15
100
AcDbLine
 10
127.9580760899
 20
124.6906648553
 30
0.0
 11
122.1887519394
 21
124.5775530902
 31
0.0
  0
ARC
  5
352
330
1F
100
AcDbEntity
  8
0
  6
SLD-Durchgehend
 62
     7
370
    15
100
AcDbCircle
 10
122.1969194206
 20
124.1609664806
 30
0.0
 40
0.4166666666666788
100
AcDbArc
 50
91.123181225
 51
134.305033619
  0
ARC
  5
353
330
1F
100
AcDbEntity
  8
0
  6
SLD-Durchgehend
 62
     7
370
    15
100
AcDbCircle
 10
127.9662435711
 20
124.2740782456
 30
0.0
 40
0.4166666666666692
100
AcDbArc
 50
50.6996723379
 51
74.7954868413
  0
ARC
  5
354
330
1F
100
AcDbEntity
  8
0
  6
SLD-Durchgehend
 62
     7
370
    15
100
AcDbCircle
 10
127.9662435711
 20
124.2740782456
 30
0.0
 40
0.4166666666666786
100
AcDbArc
 50
74.7954868413
 51
91.123181225
  0
SPLINE
  5
355
330
1F
100
AcDbEntity
  8
0
  6
SLD-Durchgehend
 62
     7
370
    15
100
AcDbSpline
210
0.0
220
0.0
230
1.0
 70
     8
 71
     3
 72
    33
 73
    29
 74
     0
 42
0.000000001
 43
0.00000001
 40
0.0
 40
0.0
 40
0.0
 40
0.0
 40
0.0359102836781475
 40
0.073252123885302
 40
0.1110389739910242
 40
0.1496367269603959
 40
0.1890014056212998
 40
0.2288407914694075
 40
0.2688603056826711
 40
0.3088542859411424
 40
0.3487684177304757
 40
0.3885993796340881
 40
0.4283622346962755
 40
0.4680779967577749
 40
0.5077689270632448
 40
0.5474572971538255
 40
0.5871607695982695
 40
0.6268998140308437
 40
0.6666987260590137
 40
0.7065829771100794
 40
0.746577346885517
 40
0.7866994323964573
 40
0.8269427587044004
 40
0.8672171664423067
 40
0.9072658895644599
 40
0.9467143197869642
 40
0.9852464061872365
 40
0.9999999999999999
 40
0.9999999999999999
 40
0.9999999999999999
 40
0.9999999999999999
 10
117.1491922179258
 20
97.34386671791492
 30
0.0
 10
117.1601002919238
 20
97.16844166139741
 30
0.0
 10
117.1823512881847
 20
96.81059826233717
 30
0.0
 10
117.3667533499179
 20
96.28326462445487
 30
0.0
 10
117.6587617379405
 20
95.76968695425306
 30
0.0
 10
118.0661437221855
 20
95.28076095229429
 30
0.0
 10
118.5828493836329
 20
94.82198676388677
 30
0.0
 10
119.2032907596847
 20
94.40087161156016
 30
0.0
 10
119.9166092905125
 20
94.02490514694487
 30
0.0
 10
120.7102232897261
 20
93.70005112298799
 30
0.0
 10
121.5708939213942
 20
93.4306916987204
 30
0.0
 10
122.4854662391106
 20
93.22002975477547
 30
0.0
 10
123.4404171742042
 20
93.07050025888269
 30
0.0
 10
124.4218112102611
 20
92.98383112098732
 30
0.0
 10
125.4153907126178
 20
92.96102204219211
 30
0.0
 10
126.4067039155101
 20
93.00231543460843
 30
0.0
 10
127.3813304163646
 20
93.1071775255103
 30
0.0
 10
128.3251302421411
 20
93.27432004193246
 30
0.0
 10
129.2244966387086
 20
93.50177645357
 30
0.0
 10
130.0665049616952
 20
93.78701032883617
 30
0.0
 10
130.8390205110642
 20
94.12704492318208
 30
0.0
 10
131.5305853190482
 20
94.51858902628774
 30
0.0
 10
132.1304157556498
 20
94.95795260985497
 30
0.0
 10
132.6266455972073
 20
95.4404489807622
 30
0.0
 10
133.0112464895597
 20
95.9592927307105
 30
0.0
 10
133.2642108895849
 20
96.50455503961547
 30
0.0
 10
133.3881401171416
 20
96.95189356247526
 30
0.0
 10
133.3824959722497
 20
97.21218687807784
 30
0.0
 10
133.3809332368052
 20
97.28425618141083
 30
0.0
  0
LINE
  5
356
330
1F
100
AcDbEntity
  8
0
  6
SLD-Durchgehend
 62
     7
370
    15
100
AcDbLine
 10
133.3950084003
 20
119.5885734769
 30
0.0
 11
133.3967764868
 21
119.5012775169
 31
0.0
  0
LINE
  5
357
330
1F
100
AcDbEntity
  8
0
  6
SLD-Durchgehend
 62
     7
370
    15
100
AcDbLine
 10
117.1467764868
 20
119.5012775169
 30
0.0
 11
117.1527346046
 21
119.6615064451
 31
0.0
  0
LINE
  5
358
330
1F
100
AcDbEntity
  8
0
  6
SLD-Durchgehend
 62
     7
370
    15
100
AcDbLine
 10
121.4798764518
 20
100.4426860324
 30
0.0
 11
121.4798764518
 21
99.0140738645
 31
0.0
  0
LWPOLYLINE
  5
359
330
1F
100
AcDbEntity
  8
0
  6
SLD-Durchgehend
 62
     7
370
    15
100
AcDbPolyline
 90
       10
 70
   128
 43
0.0
 10
117.1467764868
 20
104.1436967127
 10
117.1526569117
 20
103.9845155119
 10
117.2624584256
 20
103.4400617313
 10
117.5093015921
 20
102.9076473404
 10
117.8889628563
 20
102.396382097
 10
118.3949461086
 20
101.915013891
 10
119.0185938352
 20
101.471779066
 10
119.7492352508
 20
101.0742614928
 10
120.574368878
 20
100.7292628072
 10
121.4798764518
 20
100.4426860324
  0
LWPOLYLINE
  5
35A
330
1F
100
AcDbEntity
  8
0
  6
SLD-Durchgehend
 62
     7
370
    15
100
AcDbPolyline
 90
       11
 70
   128
 43
0.0
 10
117.2660201461
 20
103.4293906287
 10
117.1817757847
 20
103.1030807591
 10
117.1526569117
 20
102.555903344
 10
117.2624584256
 20
102.0114495635
 10
117.5093015921
 20
101.4790351726
 10
117.8889628563
 20
100.9677699291
 10
118.3949461086
 20
100.4864017232
 10
119.0185938352
 20
100.0431668982
 10
119.7492352508
 20
99.645649325
 10
120.574368878
 20
99.3006506394
 10
121.4798764518
 20
99.0140738645
  0
LINE
  5
35B
330
1F
100
AcDbEntity
  8
0
  6
SLD-Durchgehend
 62
     7
370
    15
100
AcDbLine
 10
133.3958200973
 20
97.293583651
 30
0.0
 11
133.3967764868
 21
97.3577889154
 31
0.0
  0
LWPOLYLINE
  5
35C
330
1F
100
AcDbEntity
  8
0
  6
SLD-Durchgehend
 62
     7
370
    15
100
AcDbPolyline
 90
       11
 70
   128
 43
0.0
 10
117.2660201461
 20
109.1438393001
 10
117.1817757847
 20
108.8175294304
 10
117.1526569117
 20
108.2703520154
 10
117.2624584256
 20
107.7258982349
 10
117.5093015921
 20
107.1934838439
 10
117.8889628563
 20
106.6822186005
 10
118.3949461086
 20
106.2008503945
 10
119.0185938352
 20
105.7576155696
 10
119.7492352508
 20
105.3600979963
 10
120.574368878
 20
105.0150993107
 10
121.4798764518
 20
104.7285225359
  0
LINE
  5
35D
330
1F
100
AcDbEntity
  8
0
  6
SLD-Durchgehend
 62
     7
370
    15
100
AcDbLine
 10
121.4798764518
 20
104.7285225359
 30
0.0
 11
121.4798764518
 21
106.1571347037
 31
0.0
  0
LWPOLYLINE
  5
35E
330
1F
100
AcDbEntity
  8
0
  6
SLD-Durchgehend
 62
     7
370
    15
100
AcDbPolyline
 90
       10
 70
   128
 43
0.0
 10
117.1467764868
 20
109.858145384
 10
117.1526569117
 20
109.6989641832
 10
117.2624584256
 20
109.1545104027
 10
117.5093015921
 20
108.6220960118
 10
117.8889628563
 20
108.1108307683
 10
118.3949461086
 20
107.6294625624
 10
119.0185938352
 20
107.1862277374
 10
119.7492352508
 20
106.7887101642
 10
120.574368878
 20
106.4437114785
 10
121.4798764518
 20
106.1571347037
  0
LWPOLYLINE
  5
35F
330
1F
100
AcDbEntity
  8
0
  6
SLD-Durchgehend
 62
     7
370
    15
100
AcDbPolyline
 90
       11
 70
   128
 43
0.0
 10
117.2660201461
 20
114.8582879714
 10
117.1817757847
 20
114.5319781018
 10
117.1526569117
 20
113.9848006867
 10
117.2624584256
 20
113.4403469062
 10
117.5093015921
 20
112.9079325153
 10
117.8889628563
 20
112.3966672718
 10
118.3949461086
 20
111.9152990659
 10
119.0185938352
 20
111.4720642409
 10
119.7492352508
 20
111.0745466677
 10
120.574368878
 20
110.7295479821
 10
121.4798764518
 20
110.4429712072
  0
LINE
  5
360
330
1F
100
AcDbEntity
  8
0
  6
SLD-Durchgehend
 62
     7
370
    15
100
AcDbLine
 10
121.4798764518
 20
110.4429712072
 30
0.0
 11
121.4798764518
 21
111.8715833751
 31
0.0
  0
LWPOLYLINE
  5
361
330
1F
100
AcDbEntity
  8
0
  6
SLD-Durchgehend
 62
     7
370
    15
100
AcDbPolyline
 90
       10
 70
   128
 43
0.0
 10
117.1467764868
 20
115.5725940553
 10
117.1526569117
 20
115.4134128546
 10
117.2624584256
 20
114.868959074
 10
117.5093015921
 20
114.3365446831
 10
117.8889628563
 20
113.8252794396
 10
118.3949461086
 20
113.3439112337
 10
119.0185938352
 20
112.9006764087
 10
119.7492352508
 20
112.5031588355
 10
120.574368878
 20
112.1581601499
 10
121.4798764518
 20
111.8715833751
  0
ARC
  5
362
330
1F
100
AcDbEntity
  8
0
  6
SLD-Durchgehend
 62
     7
370
    15
100
AcDbCircle
 10
122.3993164796
 20
115.5827920537
 30
0.0
 40
4.612793887478126
100
AcDbArc
 50
208.4186053288
 51
258.5025751655
  0
LWPOLYLINE
  5
363
330
1F
100
AcDbEntity
  8
0
  6
SLD-Durchgehend
 62
     7
370
    15
100
AcDbPolyline
 90
        3
 70
   128
 43
0.0
 10
131.4825060327
 20
120.2348463079
 10
131.4970497329
 20
120.2239166386
 10
131.5010564568
 20
120.2212215421
  0
ARC
  5
364
330
1F
100
AcDbEntity
  8
0
  6
SLD-Durchgehend
 62
     7
370
    15
100
AcDbCircle
 10
122.3993164796
 20
109.8683433824
 30
0.0
 40
4.612793887547973
100
AcDbArc
 50
208.4186053304
 51
258.5025751653
  0
ARC
  5
365
330
1F
100
AcDbEntity
  8
0
  6
SLD-Durchgehend
 62
     7
370
    15
100
AcDbCircle
 10
122.3993164796
 20
104.153894711
 30
0.0
 40
4.612793887494425
100
AcDbArc
 50
208.4186053292
 51
258.5025751655
  0
LWPOLYLINE
  5
366
330
1F
100
AcDbEntity
  8
0
  6
SLD-Durchgehend
 62
     7
370
    15
100
AcDbPolyline
 90
       50
 70
   128
 43
0.0
 10
118.2846999134
 20
78.3791959682
 10
118.1218388779
 20
78.267138631
 10
116.9722222111
 20
77.3828504429
 10
115.9136225077
 20
76.3973891975
 10
114.951434149
 20
75.3157765794
 10
114.0905602265
 20
74.1435242386
 10
113.3353875562
 20
72.8866057042
 10
112.689764325
 20
71.5514259451
 10
112.1569804809
 20
70.1447887311
 10
111.7397509683
 20
68.6738619633
 10
111.4402018931
 20
67.1461411471
 10
111.2598596886
 20
65.5694111977
 10
111.1996433376
 20
63.9517067694
 10
111.2598596886
 20
62.3012713133
 10
111.4402018931
 20
60.6265150701
 10
111.7397509683
 20
58.9359722138
 10
112.1569804809
 20
57.2382573631
 10
112.689764325
 20
55.5420216839
 10
113.3353875562
 20
53.8559088044
 10
114.0905602265
 20
52.1885107692
 10
114.951434149
 20
50.5483242567
 10
115.9136225077
 20
48.9437072812
 10
116.9722222111
 20
47.3828366031
 10
118.1218388779
 20
45.8736660616
 10
119.356614325
 20
44.4238860438
 10
120.6702564198
 20
43.0408842964
 10
122.0560711432
 20
41.7317082793
 10
123.5069967012
 20
40.5030292533
 10
125.0156395096
 20
39.3611082851
 10
126.5743118704
 20
38.3117643423
 10
128.1750711468
 20
37.3603446411
 10
129.8097602362
 20
36.5116973981
 10
131.4700491378
 20
35.7701471251
 10
133.1474773999
 20
35.1394725925
 10
134.8334972326
 20
34.622887573
 10
136.5195170654
 20
34.2230244655
 10
138.1969453275
 20
33.9419208807
 10
139.8572342291
 20
33.7810092581
 10
141.4919233185
 20
33.7411095664
 10
143.0926825948
 20
33.8224251253
 10
144.6513549557
 20
34.0245415694
 10
146.1599977641
 20
34.3464289595
 10
147.6109233221
 20
34.7864470313
 10
148.9967380455
 20
35.3423535536
 10
150.3103801403
 20
36.0113157542
 10
151.5451555874
 20
36.789924755
 10
152.6947722542
 20
37.6742129431
 10
153.7533719576
 20
38.6596741885
 10
154.7155603163
 20
39.7412868066
 10
155.2766102637
 20
40.4788389382
  0
LWPOLYLINE
  5
367
330
1F
100
AcDbEntity
  8
0
  6
SLD-Durchgehend
 62
     7
370
    15
100
AcDbPolyline
 90
        3
 70
   128
 43
0.0
 10
128.1208723126
 20
80.9228241048
 10
127.1600699132
 20
80.7630400927
 10
127.1131752295
 20
80.7538304458
  0
LINE
  5
368
330
1F
100
AcDbEntity
  8
0
  6
SLD-Durchgehend
 62
     7
370
    15
100
AcDbLine
 10
158.0259936311
 20
50.0600997629
 30
0.0
 11
158.0580813313
 21
50.250417637
 31
0.0
  0
ARC
  5
369
330
1F
100
AcDbEntity
  8
0
  6
SLD-Durchgehend
 62
     7
370
    15
100
AcDbCircle
 10
142.7988144201
 20
65.3002749239
 30
0.0
 40
22.0196244525331
100
AcDbArc
 50
193.3202747797
 51
255.0581294166
  0
LINE
  5
36A
330
1F
100
AcDbEntity
  8
0
  6
SLD-Durchgehend
 62
     7
370
    15
100
AcDbLine
 10
155.6646594121
 20
75.4768183243
 30
0.0
 11
157.1386896149
 21
75.0762084999
 31
0.0
  0
LINE
  5
36B
330
1F
100
AcDbEntity
  8
0
  6
SLD-Durchgehend
 62
     7
370
    15
100
AcDbLine
 10
155.6646594121
 20
69.762369653
 30
0.0
 11
155.6646594121
 21
75.4768183243
 31
0.0
  0
LINE
  5
36C
330
1F
100
AcDbEntity
  8
0
  6
SLD-Durchgehend
 62
     7
370
    15
100
AcDbLine
 10
154.1906292093
 20
70.1629794775
 30
0.0
 11
155.6646594121
 21
69.762369653
 31
0.0
  0
LINE
  5
36D
330
1F
100
AcDbEntity
  8
0
  6
SLD-Durchgehend
 62
     7
370
    15
100
AcDbLine
 10
156.4016745135
 20
65.2762282372
 30
0.0
 11
154.1906292093
 21
70.1629794775
 31
0.0
  0
LINE
  5
36E
330
1F
100
AcDbEntity
  8
0
  6
SLD-Durchgehend
 62
     7
370
    15
100
AcDbLine
 10
158.6127198177
 20
68.961150004
 30
0.0
 11
156.4016745135
 21
65.2762282372
 31
0.0
  0
LINE
  5
36F
330
1F
100
AcDbEntity
  8
0
  6
SLD-Durchgehend
 62
     7
370
    15
100
AcDbLine
 10
157.1386896149
 20
69.3617598285
 30
0.0
 11
158.6127198177
 21
68.961150004
 31
0.0
  0
LINE
  5
370
330
1F
100
AcDbEntity
  8
0
  6
SLD-Durchgehend
 62
     7
370
    15
100
AcDbLine
 10
157.1386896149
 20
75.0762084999
 30
0.0
 11
157.1386896149
 21
69.3617598285
 31
0.0
  0
LINE
  5
371
330
1F
100
AcDbEntity
  8
0
  6
SLD-Durchgehend
 62
     7
370
    15
100
AcDbLine
 10
112.917783531
 20
77.0942180592
 30
0.0
 11
112.917783531
 21
82.8086667305
 31
0.0
  0
LINE
  5
372
330
1F
100
AcDbEntity
  8
0
  6
SLD-Durchgehend
 62
     7
370
    15
100
AcDbLine
 10
112.917783531
 20
82.8086667305
 30
0.0
 11
114.3918137338
 21
82.4080569061
 31
0.0
  0
LINE
  5
373
330
1F
100
AcDbEntity
  8
0
  6
SLD-Durchgehend
 62
     7
370
    15
100
AcDbLine
 10
114.3918137338
 20
82.4080569061
 30
0.0
 11
112.1807684296
 21
87.2948081463
 31
0.0
  0
LINE
  5
374
330
1F
100
AcDbEntity
  8
0
  6
SLD-Durchgehend
 62
     7
370
    15
100
AcDbLine
 10
112.1807684296
 20
87.2948081463
 30
0.0
 11
109.9697231255
 21
83.6098863795
 31
0.0
  0
LINE
  5
375
330
1F
100
AcDbEntity
  8
0
  6
SLD-Durchgehend
 62
     7
370
    15
100
AcDbLine
 10
109.9697231255
 20
83.6098863795
 30
0.0
 11
111.4437533283
 21
83.209276555
 31
0.0
  0
LINE
  5
376
330
1F
100
AcDbEntity
  8
0
  6
SLD-Durchgehend
 62
     7
370
    15
100
AcDbLine
 10
111.4437533283
 20
83.209276555
 30
0.0
 11
111.4437533283
 21
77.4948278837
 31
0.0
  0
LINE
  5
377
330
1F
100
AcDbEntity
  8
0
  6
SLD-Durchgehend
 62
     7
370
    15
100
AcDbLine
 10
111.4437533283
 20
77.4948278837
 30
0.0
 11
112.917783531
 21
77.0942180592
 31
0.0
  0
LWPOLYLINE
  5
378
330
1F
100
AcDbEntity
  8
0
  6
SLD-Durchgehend
 62
     7
370
    15
100
AcDbPolyline
 90
       17
 70
   128
 43
0.0
 10
112.917783531
 20
41.3789138633
 10
112.861681597
 20
41.6675142708
 10
112.7019168057
 20
41.9426724895
 10
112.4628118984
 20
42.1624981751
 10
112.1807684296
 20
42.2935248594
 10
111.8987249609
 20
42.3158049177
 10
111.6596200536
 20
42.225946413
 10
111.4998552623
 20
42.0376294881
 10
111.4437533283
 20
41.7795236877
 10
111.4998552623
 20
41.4909232802
 10
111.6596200536
 20
41.2157650615
 10
111.8987249609
 20
40.995939376
 10
112.1807684296
 20
40.8649126916
 10
112.4628118984
 20
40.8426326333
 10
112.7019168057
 20
40.932491138
 10
112.861681597
 20
41.1208080629
 10
112.917783531
 20
41.3789138633
  0
LWPOLYLINE
  5
379
330
1F
100
AcDbEntity
  8
0
  6
SLD-Durchgehend
 62
     7
370
    15
100
AcDbPolyline
 90
       17
 70
   128
 43
0.0
 10
157.1386896149
 20
29.3606191291
 10
157.0825876809
 20
29.6492195366
 10
156.9228228896
 20
29.9243777553
 10
156.6837179822
 20
30.1442034409
 10
156.4016745135
 20
30.2752301252
 10
156.1196310448
 20
30.2975101835
 10
155.8805261375
 20
30.2076516788
 10
155.7207613462
 20
30.0193347539
 10
155.6646594121
 20
29.7612289535
 10
155.7207613462
 20
29.472628546
 10
155.8805261375
 20
29.1974703273
 10
156.1196310448
 20
28.9776446418
 10
156.4016745135
 20
28.8466179574
 10
156.6837179822
 20
28.8243378991
 10
156.9228228896
 20
28.9141964038
 10
157.0825876809
 20
29.1025133287
 10
157.1386896149
 20
29.3606191291
  0
LWPOLYLINE
  5
37A
330
1F
100
AcDbEntity
  8
0
  6
SLD-Durchgehend
 62
     7
370
    15
100
AcDbPolyline
 90
       89
 70
   128
 43
0.0
 10
110.5224844515
 20
63.4590873456
 10
110.5830444693
 20
65.0860243361
 10
110.7644159227
 20
66.6717529983
 10
111.0656745843
 20
68.2081928224
 10
111.4852853091
 20
69.6875144631
 10
112.021109857
 20
71.1021796366
 10
112.670417789
 20
72.4449795333
 10
113.4299003805
 20
73.7090715528
 10
114.2956874825
 20
74.8880141719
 10
115.2633672423
 20
75.9757997693
 10
116.3280085857
 20
76.9668852389
 10
117.4841863444
 20
77.8562202363
 10
118.7260089017
 20
78.6392729142
 10
120.0471482143
 20
79.3120530157
 10
121.4408720592
 20
79.8711322075
 10
122.9000783391
 20
80.3136615504
 10
124.4173312733
 20
80.6373860161
 10
125.9848992888
 20
80.8406559791
 10
127.594794418
 20
80.9224356221
 10
129.2388130046
 20
80.8823082149
 10
130.9085775066
 20
80.7204782375
 10
132.5955791869
 20
80.4377703385
 10
134.2912214716
 20
80.0356251323
 10
135.9868637563
 20
79.5160918589
 10
137.6738654366
 20
78.8818179408
 10
139.3436299386
 20
78.1360354923
 10
140.9876485251
 20
77.28254485
 10
142.5975436544
 20
76.3256952064
 10
144.1651116698
 20
75.2703624481
 10
145.6823646041
 20
74.1219243089
 10
147.141570884
 20
72.8862329663
 10
148.5352947289
 20
71.5695852201
 10
149.8564340415
 20
70.1786904055
 10
151.0982565987
 20
68.7206362036
 10
152.2544343574
 20
67.2028525243
 10
153.3190757008
 20
65.6330736455
 10
154.2867554607
 20
64.0192988004
 10
155.1525425627
 20
62.3697514158
 10
155.9120251542
 20
60.692837207
 10
156.5613330861
 20
58.9971013445
 10
157.097157634
 20
57.2911849094
 10
157.5167683588
 20
55.583780861
 10
157.8180270205
 20
53.8835897389
 10
157.9993984739
 20
52.1992753273
 10
158.0599584917
 20
50.5394205063
 10
157.9993984739
 20
48.9124835158
 10
157.8180270205
 20
47.3267548536
 10
157.5167683588
 20
45.7903150295
 10
157.097157634
 20
44.3109933888
 10
156.5613330861
 20
42.8963282153
 10
155.9120251542
 20
41.5535283186
 10
155.1525425627
 20
40.2894362991
 10
154.2867554607
 20
39.11049368
 10
153.3190757008
 20
38.0227080826
 10
152.2544343574
 20
37.031622613
 10
151.0982565987
 20
36.1422876157
 10
149.8564340415
 20
35.3592349377
 10
148.5352947289
 20
34.6864548363
 10
147.141570884
 20
34.1273756444
 10
145.6823646041
 20
33.6848463015
 10
144.1651116698
 20
33.3611218358
 10
142.5975436544
 20
33.1578518728
 10
140.9876485251
 20
33.0760722298
 10
139.3436299386
 20
33.116199637
 10
137.6738654366
 20
33.2780296144
 10
135.9868637563
 20
33.5607375135
 10
134.2912214716
 20
33.9628827196
 10
132.5955791869
 20
34.482415993
 10
130.9085775066
 20
35.1166899112
 10
129.2388130046
 20
35.8624723596
 10
127.594794418
 20
36.715963002
 10
125.9848992888
 20
37.6728126455
 10
124.4173312733
 20
38.7281454038
 10
122.9000783391
 20
39.876583543
 10
121.4408720592
 20
41.1122748856
 10
120.0471482143
 20
42.4289226318
 10
118.7260089017
 20
43.8198174464
 10
117.4841863444
 20
45.2778716484
 10
116.3280085857
 20
46.7956553276
 10
115.2633672423
 20
48.3654342064
 10
114.2956874825
 20
49.9792090515
 10
113.4299003805
 20
51.6287564361
 10
112.670417789
 20
53.3056706449
 10
112.021109857
 20
55.0014065075
 10
111.4852853091
 20
56.7073229425
 10
111.0656745843
 20
58.4147269909
 10
110.7644159227
 20
60.1149181131
 10
110.5830444693
 20
61.7992325247
 10
110.5224844515
 20
63.4590873456
  0
LINE
  5
37B
330
1F
100
AcDbEntity
  8
0
  6
SLD-Durchgehend
 62
     7
370
    15
100
AcDbLine
 10
87.1222549821
 20
52.6754222951
 30
0.0
 11
87.1222549821
 21
41.2465249524
 31
0.0
  0
LINE
  5
37C
330
1F
100
AcDbEntity
  8
0
  6
SLD-Durchgehend
 62
     7
370
    15
100
AcDbLine
 10
87.1222549821
 20
52.6754222951
 30
0.0
 11
102.9680796622
 21
48.368866682
 31
0.0
  0
ARC
  5
37D
330
1F
100
AcDbEntity
  8
0
  6
SLD-Durchgehend
 62
     7
370
    15
100
AcDbCircle
 10
103.4564647743
 20
49.6320707622
 30
0.0
 40
1.354328086550941
100
AcDbArc
 50
248.862298024
 51
0.9222550965
  0
LINE
  5
37E
330
1F
100
AcDbEntity
  8
0
  6
SLD-Durchgehend
 62
     7
370
    15
100
AcDbLine
 10
104.8106174157
 20
49.6538696112
 30
0.0
 11
104.8106174157
 21
93.5836937722
 31
0.0
  0
LINE
  5
37F
330
1F
100
AcDbEntity
  8
0
  6
SLD-Durchgehend
 62
     7
370
    15
100
AcDbLine
 10
163.7718255275
 20
77.5593007932
 30
0.0
 11
104.8106174157
 21
93.5836937722
 31
0.0
  0
LINE
  5
380
330
1F
100
AcDbEntity
  8
0
  6
SLD-Durchgehend
 62
     7
370
    15
100
AcDbLine
 10
163.7718255275
 20
77.5593007932
 30
0.0
 11
163.7718255275
 21
33.6294766323
 31
0.0
  0
ARC
  5
381
330
1F
100
AcDbEntity
  8
0
  6
SLD-Durchgehend
 62
     7
370
    15
100
AcDbCircle
 10
166.2976009334
 20
33.7791620723
 30
0.0
 40
2.530206934617691
100
AcDbArc
 50
183.391562315
 51
254.3338098233
  0
LINE
  5
382
330
1F
100
AcDbEntity
  8
0
  6
SLD-Durchgehend
 62
     7
370
    15
100
AcDbLine
 10
165.614363281
 20
31.3429491419
 30
0.0
 11
181.460187961
 21
27.0363935288
 31
0.0
  0
LINE
  5
383
330
1F
100
AcDbEntity
  8
0
  6
SLD-Durchgehend
 62
     7
370
    15
100
AcDbLine
 10
181.460187961
 20
15.6074961861
 30
0.0
 11
181.460187961
 21
27.0363935288
 31
0.0
  0
LINE
  5
384
330
1F
100
AcDbEntity
  8
0
  6
SLD-Durchgehend
 62
     7
370
    15
100
AcDbLine
 10
157.1386896149
 20
22.2175582899
 30
0.0
 11
181.460187961
 21
15.6074961861
 31
0.0
  0
LINE
  5
385
330
1F
100
AcDbEntity
  8
0
  6
SLD-Durchgehend
 62
     7
370
    15
100
AcDbLine
 10
157.1386896149
 20
22.2175582899
 30
0.0
 11
157.1386896149
 21
22.5747113318
 31
0.0
  0
LINE
  5
386
330
1F
100
AcDbEntity
  8
0
  6
SLD-Durchgehend
 62
     7
370
    15
100
AcDbLine
 10
157.1386896149
 20
22.5747113318
 30
0.0
 11
111.4437533283
 21
34.9936158905
 31
0.0
  0
LINE
  5
387
330
1F
100
AcDbEntity
  8
0
  6
SLD-Durchgehend
 62
     7
370
    15
100
AcDbLine
 10
111.4437533283
 20
34.9936158905
 30
0.0
 11
111.4437533283
 21
34.6364628486
 31
0.0
  0
LINE
  5
388
330
1F
100
AcDbEntity
  8
0
  6
SLD-Durchgehend
 62
     7
370
    15
100
AcDbLine
 10
87.1222549821
 20
41.2465249524
 30
0.0
 11
111.4437533283
 21
34.6364628486
 31
0.0
  0
LINE
  5
389
330
1F
100
AcDbEntity
  8
0
  6
SLD-Durchgehend
 62
     7
370
    15
100
AcDbLine
 10
117.1467764868
 20
105.6241632081
 30
0.0
 11
104.8106174157
 21
93.5836937722
 31
0.0
  0
LINE
  5
38A
330
1F
100
AcDbEntity
  8
0
  6
SLD-Durchgehend
 62
     7
370
    15
100
AcDbLine
 10
178.1616000195
 20
91.6041618364
 30
0.0
 11
133.3967764868
 21
103.7702816784
 31
0.0
  0
LINE
  5
38B
330
1F
100
AcDbEntity
  8
0
  6
SLD-Durchgehend
 62
     7
370
    15
100
AcDbLine
 10
178.1616000195
 20
91.6041618364
 30
0.0
 11
163.7718255275
 21
77.5593007932
 31
0.0
  0
LWPOLYLINE
  5
38C
330
1F
100
AcDbEntity
  8
0
  6
SLD-Durchgehend
 62
     7
370
    15
100
AcDbPolyline
 90
       41
 70
   128
 43
0.0
 10
159.061981736
 20
91.0795375011
 10
159.804861016
 20
90.8374738225
 10
160.4650713014
 20
90.5385367845
 10
161.026356024
 20
90.1900872091
 10
161.4748944911
 20
89.8007050812
 10
161.799642197
 20
89.3799782812
 10
161.9926027754
 20
88.9382664992
 10
162.0490248964
 20
88.4864461452
 10
161.9675192603
 20
88.0356425357
 10
161.7500928062
 20
87.5969559519
 10
161.4020992951
 20
87.1811883134
 10
160.9321074821
 20
86.7985771991
 10
160.3516901255
 20
86.4585437647
 10
159.6751390269
 20
86.1694607617
 10
158.9191131197
 20
85.9384463731
 10
158.1022282708
 20
85.7711889398
 10
157.2445988962
 20
85.671806895
 10
156.3673426776
 20
85.6427473544
 10
155.4920605745
 20
85.6847258603
 10
154.640304937
 20
85.7967087626
 10
153.8330488159
 20
85.9759386707
 10
153.0901695359
 20
86.2180023492
 10
152.4299592505
 20
86.5169393872
 10
151.8686745279
 20
86.8653889626
 10
151.4201360608
 20
87.2547710905
 10
151.095388355
 20
87.6754978905
 10
150.9024277766
 20
88.1172096725
 10
150.8460056555
 20
88.5690300266
 10
150.9275112916
 20
89.019833636
 10
151.1449377457
 20
89.4585202198
 10
151.4929312568
 20
89.8742878584
 10
151.9629230698
 20
90.2568989726
 10
152.5433404264
 20
90.5969324071
 10
153.219891525
 20
90.8860154101
 10
153.9759174323
 20
91.1170297987
 10
154.7928022812
 20
91.2842872319
 10
155.6504316557
 20
91.3836692768
 10
156.5276878743
 20
91.4127288174
 10
157.4029699775
 20
91.3707503114
 10
158.2547256149
 20
91.2587674091
 10
159.061981736
 20
91.0795375011
  0
LINE
  5
38D
330
1F
100
AcDbEntity
  8
0
  6
SLD-Durchgehend
 62
     7
370
    15
100
AcDbLine
 10
178.1616000195
 20
91.6041618364
 30
0.0
 11
178.1616000195
 21
47.6743376754
 31
0.0
  0
LINE
  5
38E
330
1F
100
AcDbEntity
  8
0
  6
SLD-Durchgehend
 62
     7
370
    15
100
AcDbLine
 10
156.4336380843
 20
65.3294986327
 30
0.0
 11
154.2545563509
 21
70.1456054502
 31
0.0
  0
LINE
  5
38F
330
1F
100
AcDbEntity
  8
0
  6
SLD-Durchgehend
 62
     7
370
    15
100
AcDbLine
 10
155.7035506945
 20
69.8003287369
 30
0.0
 11
155.7035506945
 21
75.4662485071
 31
0.0
  0
ARC
  5
390
330
1F
100
AcDbEntity
  8
0
  6
SLD-Durchgehend
 62
     7
370
    15
100
AcDbCircle
 10
128.6884545704
 20
64.5263846508
 30
0.0
 40
17.58964949089223
100
AcDbArc
 50
137.0436575364
 51
181.6220910386
  0
LWPOLYLINE
  5
391
330
1F
100
AcDbEntity
  8
0
  6
SLD-Durchgehend
 62
     7
370
    15
100
AcDbPolyline
 90
       36
 70
   128
 43
0.0
 10
153.3507497895
 20
38.055202982
 10
152.8378035936
 20
37.6010088715
 10
151.6816258349
 20
36.7116738742
 10
150.4398032777
 20
35.9286211962
 10
149.1186639651
 20
35.2558410948
 10
147.7249401202
 20
34.6967619029
 10
146.2657338402
 20
34.25423256
 10
144.748480906
 20
33.9305080943
 10
143.1809128906
 20
33.7272381313
 10
141.5710177613
 20
33.6454584883
 10
139.9269991747
 20
33.6855858955
 10
138.2572346727
 20
33.8474158729
 10
136.5702329924
 20
34.130123772
 10
134.8745907077
 20
34.5322689781
 10
133.1789484231
 20
35.0518022515
 10
131.4919467428
 20
35.6860761697
 10
129.8221822408
 20
36.4318586181
 10
128.1781636542
 20
37.2853492605
 10
126.5682685249
 20
38.242198904
 10
125.0007005095
 20
39.2975316623
 10
123.4834475753
 20
40.4459698015
 10
122.0242412953
 20
41.6816611441
 10
120.6305174504
 20
42.9983088903
 10
119.3093781378
 20
44.3892037049
 10
118.0675555806
 20
45.8472579069
 10
116.9113778219
 20
47.3650415861
 10
115.8467364785
 20
48.9348204649
 10
114.8790567187
 20
50.54859531
 10
114.0132696167
 20
52.1981426946
 10
113.2537870251
 20
53.8750569034
 10
112.6044790932
 20
55.570792766
 10
112.0686545453
 20
57.276709201
 10
111.6490438205
 20
58.9841132494
 10
111.3477851588
 20
60.6843043716
 10
111.1664137055
 20
62.3686187832
 10
111.1058536877
 20
64.0284736041
  0
LINE
  5
392
330
1F
100
AcDbEntity
  8
0
  6
SLD-Durchgehend
 62
     7
370
    15
100
AcDbLine
 10
155.7035506945
 20
69.8003287369
 30
0.0
 11
155.6646594121
 21
69.762369653
 31
0.0
  0
LWPOLYLINE
  5
393
330
1F
100
AcDbEntity
  8
0
  6
SLD-Durchgehend
 62
     7
370
    15
100
AcDbPolyline
 90
       17
 70
   128
 43
0.0
 10
158.6730689119
 20
89.9856405781
 10
157.928283742
 20
90.1481116569
 10
157.1408995594
 20
90.2434182528
 10
156.3335679734
 20
90.2688185684
 10
155.5295144438
 20
90.2235818831
 10
154.7518701267
 20
90.1090095738
 10
154.0230064334
 20
89.9283976773
 10
153.3638914451
 20
89.6869420691
 10
152.7934867002
 20
89.3915889873
 10
152.3282017044
 20
89.0508352024
 10
151.9814218601
 20
88.6744835804
 10
151.763123392
 20
88.2733610721
 10
151.6795863496
 20
87.8590072419
 10
151.7332139414
 20
87.443342295
 10
151.9224633993
 20
87.0383241552
 10
152.2418903609
 20
86.6556044569
 10
152.3397641779
 20
86.5658743893
  0
LWPOLYLINE
  5
394
330
1F
100
AcDbEntity
  8
0
  6
SLD-Durchgehend
 62
     7
370
    15
100
AcDbPolyline
 90
       11
 70
   128
 43
0.0
 10
160.555266374
 20
86.5658743893
 10
160.7557391957
 20
86.7604110926
 10
161.0392998825
 20
87.1505536508
 10
161.1907632864
 20
87.5597660122
 10
161.2057720811
 20
87.9762758823
 10
161.0838944908
 20
88.3881010305
 10
160.828636712
 20
88.783393997
 10
160.4473420461
 20
89.150782923
 10
159.9509796465
 20
89.4796986978
 10
159.3538289558
 20
89.7606790136
 10
158.6730689119
 20
89.9856405781
  0
LINE
  5
395
330
1F
100
AcDbEntity
  8
0
  6
SLD-Durchgehend
 62
     7
370
    15
100
AcDbLine
 10
195.8499624531
 20
41.0812545719
 30
0.0
 11
190.4051829155
 21
35.7669828259
 31
0.0
  0
LINE
  5
396
330
1F
100
AcDbEntity
  8
0
  6
SLD-Durchgehend
 62
     7
370
    15
100
AcDbLine
 10
190.4051829155
 20
35.7669828259
 30
0.0
 11
181.5610016988
 21
38.1706417727
 31
0.0
  0
LWPOLYLINE
  5
397
330
1F
100
AcDbEntity
  8
0
  6
SLD-Durchgehend
 62
     7
370
    15
100
AcDbPolyline
 90
       17
 70
   128
 43
0.0
 10
181.5610016988
 20
38.1706417727
 10
180.8803435593
 20
38.313668955
 10
180.1585870727
 20
38.3855560992
 10
179.4234689358
 20
38.3835406225
 10
178.7032393266
 20
38.3076999786
 10
178.0255762649
 20
38.1609486809
 10
177.4165219622
 20
37.9489262995
 10
176.8994820337
 20
37.6797807356
 10
176.494326034
 20
37.3638551022
 10
176.2166238809
 20
37.0132902444
 10
176.0770475124
 20
36.641558173
 10
176.0809607701
 20
36.262944343
 10
176.2282132696
 20
35.8919986715
 10
176.5131461801
 20
35.5429763928
 10
176.9248096895
 20
35.2292902372
 10
177.4473838001
 20
34.9629949878
 10
178.0607862818
 20
34.7543242217
  0
LINE
  5
398
330
1F
100
AcDbEntity
  8
0
  6
SLD-Durchgehend
 62
     7
370
    15
100
AcDbLine
 10
178.0607862818
 20
34.7543242217
 30
0.0
 11
186.9049674986
 21
32.3506652748
 31
0.0
  0
LINE
  5
399
330
1F
100
AcDbEntity
  8
0
  6
SLD-Durchgehend
 62
     7
370
    15
100
AcDbLine
 10
186.9049674986
 20
32.3506652748
 30
0.0
 11
181.460187961
 21
27.0363935288
 31
0.0
  0
LINE
  5
39A
330
1F
100
AcDbEntity
  8
0
  6
SLD-Durchgehend
 62
     7
370
    15
100
AcDbLine
 10
180.004137773
 20
45.387810185
 30
0.0
 11
195.8499624531
 21
41.0812545719
 31
0.0
  0
LINE
  5
39B
330
1F
100
AcDbEntity
  8
0
  6
SLD-Durchgehend
 62
     7
370
    15
100
AcDbLine
 10
186.9049674986
 20
20.9217679321
 30
0.0
 11
186.9049674986
 21
32.3506652748
 31
0.0
  0
LINE
  5
39C
330
1F
100
AcDbEntity
  8
0
  6
SLD-Durchgehend
 62
     7
370
    15
100
AcDbLine
 10
181.460187961
 20
15.6074961861
 30
0.0
 11
186.9049674986
 21
20.9217679321
 31
0.0
  0
LINE
  5
39D
330
1F
100
AcDbEntity
  8
0
  6
SLD-Durchgehend
 62
     7
370
    15
100
AcDbLine
 10
110.0086144079
 20
83.6478454634
 30
0.0
 11
111.4826446107
 21
83.2472356389
 31
0.0
  0
LINE
  5
39E
330
1F
100
AcDbEntity
  8
0
  6
SLD-Durchgehend
 62
     7
370
    15
100
AcDbLine
 10
112.1876961413
 20
87.2794968348
 30
0.0
 11
110.0086144079
 21
83.6478454634
 31
0.0
  0
LINE
  5
39F
330
1F
100
AcDbEntity
  8
0
  6
SLD-Durchgehend
 62
     7
370
    15
100
AcDbLine
 10
112.9566748135
 20
82.8466258144
 30
0.0
 11
114.3667778747
 21
82.4633900172
 31
0.0
  0
LINE
  5
3A0
330
1F
100
AcDbEntity
  8
0
  6
SLD-Durchgehend
 62
     7
370
    15
100
AcDbLine
 10
111.4826446107
 20
77.5327869676
 30
0.0
 11
112.917783531
 21
77.1427469603
 31
0.0
  0
LINE
  5
3A1
330
1F
100
AcDbEntity
  8
0
  6
SLD-Durchgehend
 62
     7
370
    15
100
AcDbLine
 10
111.4826446107
 20
83.2472356389
 30
0.0
 11
111.4826446107
 21
77.5327869676
 31
0.0
  0
ARC
  5
3A2
330
1F
100
AcDbEntity
  8
0
  6
SLD-Durchgehend
 62
     7
370
    15
100
AcDbCircle
 10
180.6873754254
 20
47.8240231154
 30
0.0
 40
2.530206934617759
100
AcDbArc
 50
183.391562315
 51
254.3338098233
  0
LINE
  5
3A3
330
1F
100
AcDbEntity
  8
0
  6
SLD-Durchgehend
 62
     7
370
    15
100
AcDbLine
 10
110.0086144079
 20
83.6478454634
 30
0.0
 11
109.9697231255
 21
83.6098863795
 31
0.0
  0
LINE
  5
3A4
330
1F
100
AcDbEntity
  8
0
  6
SLD-Durchgehend
 62
     7
370
    15
100
AcDbLine
 10
112.9566748135
 20
82.8466258144
 30
0.0
 11
112.917783531
 21
82.8086667305
 31
0.0
  0
LINE
  5
3A5
330
1F
100
AcDbEntity
  8
0
  6
SLD-Durchgehend
 62
     7
370
    15
100
AcDbLine
 10
111.4826446107
 20
83.2472356389
 30
0.0
 11
111.4437533283
 21
83.209276555
 31
0.0
  0
LINE
  5
3A6
330
1F
100
AcDbEntity
  8
0
  6
SLD-Durchgehend
 62
     7
370
    15
100
AcDbLine
 10
111.4826446107
 20
77.5327869676
 30
0.0
 11
111.4437533283
 21
77.4948278837
 31
0.0
  0
ARC
  5
3A7
330
1F
100
AcDbEntity
  8
0
  6
SLD-Durchgehend
 62
     7
370
    15
100
AcDbCircle
 10
156.7656718348
 20
29.9161965858
 30
0.0
 40
0.8951460535873833
100
AcDbArc
 50
158.9150567412
 51
289.6950104968
  0
LINE
  5
3A8
330
1F
100
AcDbEntity
  8
0
  6
SLD-Durchgehend
 62
     7
370
    15
100
AcDbLine
 10
190.4051829155
 20
24.3380854832
 30
0.0
 11
190.4051829155
 21
35.7669828259
 31
0.0
  0
LINE
  5
3A9
330
1F
100
AcDbEntity
  8
0
  6
SLD-Durchgehend
 62
     7
370
    15
100
AcDbLine
 10
190.4051829155
 20
24.3380854832
 30
0.0
 11
186.9049674986
 21
25.289369033
 31
0.0
  0
LINE
  5
3AA
330
1F
100
AcDbEntity
  8
0
  6
SLD-Durchgehend
 62
     7
370
    15
100
AcDbLine
 10
190.4051829155
 20
24.3380854832
 30
0.0
 11
195.8499624531
 21
29.6523572292
 31
0.0
  0
LINE
  5
3AB
330
1F
100
AcDbEntity
  8
0
  6
SLD-Durchgehend
 62
     7
370
    15
100
AcDbLine
 10
195.8499624531
 20
29.6523572292
 30
0.0
 11
195.8499624531
 21
41.0812545719
 31
0.0
  0
ARC
  5
3AC
330
1F
100
AcDbEntity
  8
0
  6
SLD-Durchgehend
 62
     7
370
    15
100
AcDbCircle
 10
112.544765751
 20
41.93449132
 30
0.0
 40
0.8951460535873221
100
AcDbArc
 50
158.9150567412
 51
289.6950104968
  0
LINE
  5
3AD
330
1F
100
AcDbEntity
  8
0
  6
SLD-Durchgehend
 62
     7
370
    15
100
AcDbLine
 10
92.5670345196
 20
57.9896940411
 30
0.0
 11
87.1222549821
 21
52.6754222951
 31
0.0
  0
LINE
  5
3AE
330
1F
100
AcDbEntity
  8
0
  6
SLD-Durchgehend
 62
     7
370
    15
100
AcDbLine
 10
92.5670345196
 20
57.9896940411
 30
0.0
 11
101.4112157364
 21
55.5860350943
 31
0.0
  0
ARC
  5
3AF
330
1F
100
AcDbEntity
  8
0
  6
SLD-Durchgehend
 62
     7
370
    15
100
AcDbCircle
 10
103.1629564741
 20
62.2722979298
 30
0.0
 40
6.911924935774306
100
AcDbArc
 50
255.318982644
 51
283.7909145678
  0
LINE
  5
3B0
330
1F
100
AcDbEntity
  8
0
  6
SLD-Durchgehend
 62
     7
370
    15
100
AcDbLine
 10
104.8106174157
 20
59.029751659
 30
0.0
 11
96.0672499366
 21
61.4060115921
 31
0.0
  0
LINE
  5
3B1
330
1F
100
AcDbEntity
  8
0
  6
SLD-Durchgehend
 62
     7
370
    15
100
AcDbLine
 10
101.5120294741
 20
66.7202833382
 30
0.0
 11
96.0672499366
 21
61.4060115921
 31
0.0
  0
LINE
  5
3B2
330
1F
100
AcDbEntity
  8
0
  6
SLD-Durchgehend
 62
     7
370
    15
100
AcDbLine
 10
101.5120294741
 20
66.7202833382
 30
0.0
 11
104.8106174157
 21
65.8237978159
 31
0.0
  0
LINE
  5
3B3
330
1F
100
AcDbEntity
  8
0
  6
SLD-Durchgehend
 62
     7
370
    15
100
AcDbLine
 10
111.7299774029
 20
34.9158263201
 30
0.0
 11
111.4437533283
 21
34.6364628486
 31
0.0
  0
LINE
  5
3B4
330
1F
100
AcDbEntity
  8
0
  6
SLD-Durchgehend
 62
     7
370
    15
100
AcDbLine
 10
96.0672499366
 20
57.0384104913
 30
0.0
 11
96.0672499366
 21
61.4060115921
 31
0.0
  0
LWPOLYLINE
  5
3B5
330
1F
100
AcDbEntity
  8
0
  6
SLD-Durchgehend
 62
     8
370
     0
100
AcDbPolyline
 90
       39
 70
   128
 43
0.0
 10
120.3010931449
 20
122.8928183615
 10
120.2028698126
 20
122.8494047244
 10
119.4740615249
 20
122.4747481419
 10
118.8487135981
 20
122.0534033102
 10
118.3379853806
 20
121.5928891377
 10
117.9509908297
 20
121.1014235108
 10
117.6946358724
 20
120.5877766452
 10
117.5734951687
 20
120.0611145815
 10
117.5897304776
 20
119.5308356165
 10
117.7430520795
 20
119.0064025911
 10
118.0307239468
 20
118.4971740249
 10
118.4476125682
 20
118.0122371139
 10
118.9862785565
 20
117.5602455686
 10
119.6371094042
 20
117.1492651889
 10
120.3884910194
 20
116.7866299294
 10
121.2270149796
 20
116.4788110249
 10
122.1377178046
 20
116.231301511
 10
123.1043479811
 20
116.048518201
 10
124.1096559706
 20
115.9337228672
 10
125.1357020283
 20
115.8889640351
 10
126.1641763379
 20
115.9150404273
 10
127.176725751
 20
116.0114867097
 10
128.1552812993
 20
116.1765817962
 10
129.082380636
 20
116.4073795612
 10
129.9414796513
 20
116.699761413
 10
130.7172477031
 20
117.0485097905
 10
131.395841192
 20
117.4474012706
 10
131.9651506012
 20
117.8893176256
 10
132.4150165907
 20
118.3663728475
 10
132.7374112913
 20
118.8700538746
 10
132.926581562
 20
119.391372507
 10
132.9791516548
 20
119.9210258015
 10
132.8941834551
 20
120.4495620823
 10
132.6731932224
 20
120.9675496071
 10
132.3201245328
 20
121.4657448763
 10
131.8412779054
 20
121.9352575833
 10
131.2451983695
 20
122.3677092629
 10
130.5425229785
 20
122.7553828046
 10
130.3945271978
 20
122.8249706433
  0
LWPOLYLINE
  5
3B6
330
1F
100
AcDbEntity
  8
0
  6
SLD-Durchgehend
 62
     8
370
     0
100
AcDbPolyline
 90
       26
 70
   128
 43
0.0
 10
133.3967764868
 20
119.5012775169
 10
133.3617771889
 20
119.1132813027
 10
133.1942361609
 20
118.5727426104
 10
132.8911396513
 20
118.0480914079
 10
132.4576737255
 20
117.5483046226
 10
131.9012551056
 20
117.081933745
 10
131.2314042685
 20
116.6569585101
 10
130.4595825477
 20
116.280650362
 10
129.5989960269
 20
115.9594480374
 10
128.6643695801
 20
115.6988473972
 10
127.6716949248
 20
115.5033073906
 10
126.6379569997
 20
115.3761737613
 10
125.5808433472
 20
115.3196218009
 10
124.518441475
 20
115.3346191293
 10
123.4689293738
 20
115.4209091378
 10
122.4502644865
 20
115.5770153806
 10
121.4798764518
 20
115.8002668366
 10
120.574368878
 20
116.0868436114
 10
119.7492352508
 20
116.4318422971
 10
119.0185938352
 20
116.8293598703
 10
118.3949461086
 20
117.2725946953
 10
117.8889628563
 20
117.7539629012
 10
117.5093015921
 20
118.2652281447
 10
117.2624584256
 20
118.7976425356
 10
117.1526569117
 20
119.3420963161
 10
117.1467764868
 20
119.5012775169
  0
LWPOLYLINE
  5
3B7
330
1F
100
AcDbEntity
  8
0
  6
SLD-Durchgehend
 62
     8
370
     0
100
AcDbPolyline
 90
       26
 70
   128
 43
0.0
 10
117.1467764868
 20
97.3577889154
 10
117.1526569117
 20
97.1986077147
 10
117.2624584256
 20
96.6541539341
 10
117.5093015921
 20
96.1217395432
 10
117.8889628563
 20
95.6104742997
 10
118.3949461086
 20
95.1291060938
 10
119.0185938352
 20
94.6858712688
 10
119.7492352508
 20
94.2883536956
 10
120.574368878
 20
93.94335501
 10
121.4798764518
 20
93.6567782351
 10
122.4502644865
 20
93.4335267792
 10
123.4689293738
 20
93.2774205364
 10
124.518441475
 20
93.1911305278
 10
125.5808433472
 20
93.1761331995
 10
126.6379569997
 20
93.2326851598
 10
127.6716949248
 20
93.3598187891
 10
128.6643695801
 20
93.5553587957
 10
129.5989960269
 20
93.8159594359
 10
130.4595825477
 20
94.1371617605
 10
131.2314042685
 20
94.5134699086
 10
131.9012551056
 20
94.9384451435
 10
132.4576737255
 20
95.4048160211
 10
132.8911396513
 20
95.9046028064
 10
133.1942361609
 20
96.429254009
 10
133.3617771889
 20
96.9697927012
 10
133.3958200973
 20
97.293583651
  0
LINE
  5
3B8
330
1F
100
AcDbEntity
  8
0
  6
SLD-Durchgehend
 62
     8
370
     0
100
AcDbLine
 10
131.457767304
 20
120.4363846236
 30
0.0
 11
131.7464165736
 21
120.2001251774
 31
0.0
  0
LINE
  5
3B9
330
1F
100
AcDbEntity
  8
0
  6
SLD-Durchgehend
 62
     8
370
     0
100
AcDbLine
 10
118.7654372349
 20
119.945623706
 30
0.0
 11
119.0857856696
 21
120.2582935991
 31
0.0
  0
ARC
  5
3BA
330
1F
100
AcDbEntity
  8
0
  6
SLD-Durchgehend
 62
     8
370
     0
100
AcDbCircle
 10
118.9394154113
 20
119.7428671335
 30
0.0
 40
0.2671678003790761
100
AcDbArc
 50
130.6317154106
 51
237.8223937649
  0
LINE
  5
3BB
330
1F
100
AcDbEntity
  8
0
  6
SLD-Durchgehend
 62
     8
370
     0
100
AcDbLine
 10
121.8719934663
 20
116.9999652284
 30
0.0
 11
118.7971364001
 21
119.5167359403
 31
0.0
  0
ARC
  5
3BC
330
1F
100
AcDbEntity
  8
0
  6
SLD-Durchgehend
 62
     8
370
     0
100
AcDbCircle
 10
122.5323818835
 20
117.9737784778
 30
0.0
 40
1.176615955246907
100
AcDbArc
 50
235.8569643362
 51
273.7340093465
  0
LINE
  5
3BD
330
1F
100
AcDbEntity
  8
0
  6
SLD-Durchgehend
 62
     8
370
     0
100
AcDbLine
 10
128.3783327182
 20
116.9127720812
 30
0.0
 11
122.6090085677
 21
116.7996603162
 31
0.0
  0
ARC
  5
3BE
330
1F
100
AcDbEntity
  8
0
  6
SLD-Durchgehend
 62
     8
370
     0
100
AcDbCircle
 10
128.4188849484
 20
117.9900979063
 30
0.0
 40
1.078088779632747
100
AcDbArc
 50
267.8443149248
 51
308.0692275463
  0
LINE
  5
3BF
330
1F
100
AcDbEntity
  8
0
  6
SLD-Durchgehend
 62
     8
370
     0
100
AcDbLine
 10
131.7781157388
 20
119.7712374117
 30
0.0
 11
129.0836486545
 21
117.1413549347
 31
0.0
  0
ARC
  5
3C0
330
1F
100
AcDbEntity
  8
0
  6
SLD-Durchgehend
 62
     8
370
     0
100
AcDbCircle
 10
131.6041375624
 20
119.9739939842
 30
0.0
 40
0.2671678003790732
100
AcDbArc
 50
310.6317154106
 51
57.8223937649
  0
LINE
  5
3C1
330
1F
100
AcDbEntity
  8
0
  6
SLD-Durchgehend
 62
     8
370
     0
100
AcDbLine
 10
128.3624831357
 20
118.9129811739
 30
0.0
 11
122.5931589851
 21
118.7998694088
 31
0.0
  0
ARC
  5
3C2
330
1F
100
AcDbEntity
  8
0
  6
SLD-Durchgehend
 62
     8
370
     0
100
AcDbCircle
 10
113.0069205606
 20
118.8200746423
 30
0.0
 40
9.586259718164838
100
AcDbArc
 50
359.8792359593
 51
3.2974135805
  0
LINE
  5
3C3
330
1F
100
AcDbEntity
  8
0
  6
SLD-Durchgehend
 62
     8
370
     0
100
AcDbLine
 10
122.5773094026
 20
119.3714663336
 30
0.0
 11
128.3466335531
 21
119.4845780987
 31
0.0
  0
ARC
  5
3C4
330
1F
100
AcDbEntity
  8
0
  6
SLD-Durchgehend
 62
     8
370
     0
100
AcDbCircle
 10
118.7762447111
 20
118.9331864073
 30
0.0
 40
9.586259718179573
100
AcDbArc
 50
359.8792359593
 51
3.2974135805
  0
LINE
  5
3C5
330
1F
100
AcDbEntity
  8
0
  6
SLD-Durchgehend
 62
     8
370
     0
100
AcDbLine
 10
128.3624831357
 20
117.484369006
 30
0.0
 11
128.3624831357
 21
118.9129811739
 31
0.0
  0
LINE
  5
3C6
330
1F
100
AcDbEntity
  8
0
  6
SLD-Durchgehend
 62
     8
370
     0
100
AcDbLine
 10
122.5931589851
 20
117.371257241
 30
0.0
 11
128.3624831357
 21
117.484369006
 31
0.0
  0
LINE
  5
3C7
330
1F
100
AcDbEntity
  8
0
  6
SLD-Durchgehend
 62
     8
370
     0
100
AcDbLine
 10
122.5931589851
 20
118.7998694088
 30
0.0
 11
122.5931589851
 21
117.371257241
 31
0.0
  0
LINE
  5
3C8
330
1F
100
AcDbEntity
  8
0
  6
SLD-Durchgehend
 62
     8
370
     0
100
AcDbLine
 10
119.5024523363
 20
121.8882370456
 30
0.0
 11
122.5773094026
 21
119.3714663336
 31
0.0
  0
LINE
  5
3C9
330
1F
100
AcDbEntity
  8
0
  6
SLD-Durchgehend
 62
     8
370
     0
100
AcDbLine
 10
122.1969194206
 20
124.5181195225
 30
0.0
 11
119.5024523363
 21
121.8882370456
 31
0.0
  0
LINE
  5
3CA
330
1F
100
AcDbEntity
  8
0
  6
SLD-Durchgehend
 62
     8
370
     0
100
AcDbLine
 10
127.9662435711
 20
124.6312312876
 30
0.0
 11
122.1969194206
 21
124.5181195225
 31
0.0
  0
LINE
  5
3CB
330
1F
100
AcDbEntity
  8
0
  6
SLD-Durchgehend
 62
     8
370
     0
100
AcDbLine
 10
131.0411006374
 20
122.1144605757
 30
0.0
 11
127.9662435711
 21
124.6312312876
 31
0.0
  0
LINE
  5
3CC
330
1F
100
AcDbEntity
  8
0
  6
SLD-Durchgehend
 62
     8
370
     0
100
AcDbLine
 10
128.3466335531
 20
119.4845780987
 30
0.0
 11
131.0411006374
 21
122.1144605757
 31
0.0
  0
ARC
  5
3CD
330
1F
100
AcDbEntity
  8
0
  6
SLD-Durchgehend
 62
     8
370
     0
100
AcDbCircle
 10
132.1793974097
 20
117.3510520075
 30
0.0
 40
9.586259718206714
100
AcDbArc
 50
179.8792359593
 51
183.2974135805
  0
ARC
  5
3CE
330
1F
100
AcDbEntity
  8
0
  6
SLD-Durchgehend
 62
     8
370
     0
100
AcDbCircle
 10
137.9487215602
 20
117.4641637726
 30
0.0
 40
9.586259718145781
100
AcDbArc
 50
179.8792359593
 51
183.2974135805
  0
ARC
  5
3CF
330
1F
100
AcDbEntity
  8
0
  6
SLD-Durchgehend
 62
     8
370
     0
100
AcDbCircle
 10
122.7515000514
 20
118.8735423985
 30
0.0
 40
0.527513627655412
100
AcDbArc
 50
109.2815651499
 51
177.1227292513
  0
ARC
  5
3D0
330
1F
100
AcDbEntity
  8
0
  6
SLD-Durchgehend
 62
     8
370
     0
100
AcDbCircle
 10
122.554845643
 20
119.3869284896
 30
0.0
 40
0.5883079776231745
100
AcDbArc
 50
235.8569643362
 51
273.7340093465
  0
LINE
  5
3D1
330
1F
100
AcDbEntity
  8
0
  6
SLD-Durchgehend
 62
     8
370
     0
100
AcDbLine
 10
122.2246514344
 20
118.9000218649
 30
0.0
 11
119.1497943682
 21
121.4167925768
 31
0.0
  0
ARC
  5
3D2
330
1F
100
AcDbEntity
  8
0
  6
SLD-Durchgehend
 62
     8
370
     0
100
AcDbCircle
 10
119.6766429852
 20
121.3903131104
 30
0.0
 40
0.5275136276554002
100
AcDbArc
 50
109.2815651499
 51
177.1227292513
  0
ARC
  5
3D3
330
1F
100
AcDbEntity
  8
0
  6
SLD-Durchgehend
 62
     8
370
     0
100
AcDbCircle
 10
128.2099860226
 20
118.9973355126
 30
0.0
 40
0.5060413869234981
100
AcDbArc
 50
3.391562315
 51
74.3338098233
  0
ARC
  5
3D4
330
1F
100
AcDbEntity
  8
0
  6
SLD-Durchgehend
 62
     8
370
     0
100
AcDbCircle
 10
128.3827592507
 20
119.4516440864
 30
0.0
 40
0.5390443898161257
100
AcDbArc
 50
267.8443149248
 51
308.0692275464
  0
LINE
  5
3D5
330
1F
100
AcDbEntity
  8
0
  6
SLD-Durchgehend
 62
     8
370
     0
100
AcDbLine
 10
122.2246514344
 20
117.4714096971
 30
0.0
 11
122.2246514344
 21
118.9000218649
 31
0.0
  0
ARC
  5
3D6
330
1F
100
AcDbEntity
  8
0
  6
SLD-Durchgehend
 62
     8
370
     0
100
AcDbCircle
 10
122.554845643
 20
117.9583163218
 30
0.0
 40
0.5883079776235165
100
AcDbArc
 50
235.8569643362
 51
273.7340093465
  0
LINE
  5
3D7
330
1F
100
AcDbEntity
  8
0
  6
SLD-Durchgehend
 62
     8
370
     0
100
AcDbLine
 10
128.7151411038
 20
119.0272726006
 30
0.0
 11
128.7151411038
 21
117.5986604328
 31
0.0
  0
ARC
  5
3D8
330
1F
100
AcDbEntity
  8
0
  6
SLD-Durchgehend
 62
     8
370
     0
100
AcDbCircle
 10
128.3827592507
 20
118.0230319186
 30
0.0
 40
0.5390443898164633
100
AcDbArc
 50
267.8443149248
 51
308.0692275463
  0
ARC
  5
3D9
330
1F
100
AcDbEntity
  8
0
  6
SLD-Durchgehend
 62
     8
370
     0
100
AcDbCircle
 10
130.9044531069
 20
121.6272179896
 30
0.0
 40
0.5060413869236113
100
AcDbArc
 50
3.391562315
 51
74.3338098233
  0
LINE
  5
3DA
330
1F
100
AcDbEntity
  8
0
  6
SLD-Durchgehend
 62
     8
370
     0
100
AcDbLine
 10
131.4096081881
 20
121.6571550776
 30
0.0
 11
128.7151411038
 21
119.0272726006
 31
0.0
  0
LINE
  5
3DB
330
1F
100
AcDbEntity
  8
0
  6
SLD-Durchgehend
 62
     8
370
     0
100
AcDbLine
 10
119.1497943682
 20
119.988180409
 30
0.0
 11
122.2246514344
 21
117.4714096971
 31
0.0
  0
LINE
  5
3DC
330
1F
100
AcDbEntity
  8
0
  6
SLD-Durchgehend
 62
     8
370
     0
100
AcDbLine
 10
119.1497943682
 20
121.4167925768
 30
0.0
 11
119.1497943682
 21
119.988180409
 31
0.0
  0
LINE
  5
3DD
330
1F
100
AcDbEntity
  8
0
  6
SLD-Durchgehend
 62
     8
370
     0
100
AcDbLine
 10
131.4096081881
 20
120.2285429098
 30
0.0
 11
131.4096081881
 21
121.6571550776
 31
0.0
  0
LINE
  5
3DE
330
1F
100
AcDbEntity
  8
0
  6
SLD-Durchgehend
 62
     8
370
     0
100
AcDbLine
 10
128.7151411038
 20
117.5986604328
 30
0.0
 11
131.4096081881
 21
120.2285429098
 31
0.0
  0
ARC
  5
3DF
330
1F
100
AcDbEntity
  8
0
  6
SLD-Durchgehend
 62
     8
370
     0
100
AcDbCircle
 10
121.6978028175
 20
117.4978891636
 30
0.0
 40
0.5275136276555135
100
AcDbArc
 50
289.2815651499
 51
357.1227292512
  0
ARC
  5
3E0
330
1F
100
AcDbEntity
  8
0
  6
SLD-Durchgehend
 62
     8
370
     0
100
AcDbCircle
 10
129.220296185
 20
117.6285975208
 30
0.0
 40
0.5060413869235779
100
AcDbArc
 50
183.391562315
 51
254.3338098233
  0
ARC
  5
3E1
330
1F
100
AcDbEntity
  8
0
  6
SLD-Durchgehend
 62
     8
370
     0
100
AcDbCircle
 10
118.6229457512
 20
120.0146598755
 30
0.0
 40
0.5275136276554419
100
AcDbArc
 50
289.2815651499
 51
357.1227292512
  0
ARC
  5
3E2
330
1F
100
AcDbEntity
  8
0
  6
SLD-Durchgehend
 62
     8
370
     0
100
AcDbCircle
 10
131.9147632692
 20
120.2584799978
 30
0.0
 40
0.5060413869234945
100
AcDbArc
 50
183.391562315
 51
254.3338098233
  0
ARC
  5
3E3
330
1F
100
AcDbEntity
  8
0
  6
SLD-Durchgehend
 62
     8
370
     0
100
AcDbCircle
 10
119.4082746489
 20
121.6053950212
 30
0.0
 40
0.2981091202021173
100
AcDbArc
 50
71.583829316
 51
131.326192755
  0
ARC
  5
3E4
330
1F
100
AcDbEntity
  8
0
  6
SLD-Durchgehend
 62
     8
370
     0
100
AcDbCircle
 10
119.2364691143
 20
121.5404042943
 30
0.0
 40
0.1509714155393954
100
AcDbArc
 50
183.5394323833
 51
234.9624178367
  0
ARC
  5
3E5
330
1F
100
AcDbEntity
  8
0
  6
SLD-Durchgehend
 62
     8
370
     0
100
AcDbCircle
 10
122.1027417332
 20
124.2352774982
 30
0.0
 40
0.2981091202022534
100
AcDbArc
 50
71.583829316
 51
131.326192755
  0
ARC
  5
3E6
330
1F
100
AcDbEntity
  8
0
  6
SLD-Durchgehend
 62
     8
370
     0
100
AcDbCircle
 10
119.233309389
 20
120.1100225283
 30
0.0
 40
0.1477168261572576
100
AcDbArc
 50
182.9300076591
 51
235.571842561
  0
ARC
  5
3E7
330
1F
100
AcDbEntity
  8
0
  6
SLD-Durchgehend
 62
     8
370
     0
100
AcDbCircle
 10
131.1423278135
 20
121.8635399888
 30
0.0
 40
0.2705699209049287
100
AcDbArc
 50
53.0396771642
 51
111.9702895085
  0
ARC
  5
3E8
330
1F
100
AcDbEntity
  8
0
  6
SLD-Durchgehend
 62
     8
370
     0
100
AcDbCircle
 10
131.3172708094
 20
121.7632113282
 30
0.0
 40
0.140620481438219
100
AcDbArc
 50
311.0443075172
 51
357.5937931885
  0
ARC
  5
3E9
330
1F
100
AcDbEntity
  8
0
  6
SLD-Durchgehend
 62
     8
370
     0
100
AcDbCircle
 10
128.0674707472
 20
124.3803107007
 30
0.0
 40
0.2705699209046268
100
AcDbArc
 50
53.0396771641
 51
111.9702895085
  0
ARC
  5
3EA
330
1F
100
AcDbEntity
  8
0
  6
SLD-Durchgehend
 62
     8
370
     0
100
AcDbCircle
 10
131.3172708094
 20
120.3345991604
 30
0.0
 40
0.1406204814383366
100
AcDbArc
 50
311.0443075172
 51
357.5937931885
  0
ARC
  5
3EB
330
1F
100
AcDbEntity
  8
0
  6
SLD-Durchgehend
 62
     8
370
     0
100
AcDbCircle
 10
118.8605582826
 20
120.2238102583
 30
0.0
 40
0.2939996115346295
100
AcDbArc
 50
251.12277008
 51
311.7872519911
  0
ARC
  5
3EC
330
1F
100
AcDbEntity
  8
0
  6
SLD-Durchgehend
 62
     8
370
     0
100
AcDbCircle
 10
131.6456080143
 20
120.4650486358
 30
0.0
 40
0.2834551188941661
100
AcDbArc
 50
239.3386501207
 51
290.832799202
  0
ARC
  5
3ED
330
1F
100
AcDbEntity
  8
0
  6
SLD-Durchgehend
 62
     8
370
     0
100
AcDbCircle
 10
122.0212638991
 20
124.5242585648
 30
0.0
 40
0.1757627664454805
100
AcDbArc
 50
357.9983657607
 51
17.6510176953
  0
ARC
  5
3EE
330
1F
100
AcDbEntity
  8
0
  6
SLD-Durchgehend
 62
     8
370
     0
100
AcDbCircle
 10
127.7905880496
 20
124.6373703299
 30
0.0
 40
0.1757627664503642
100
AcDbArc
 50
357.9983657609
 51
17.651017695
  0
LWPOLYLINE
  5
3EF
330
1F
100
AcDbEntity
  8
0
  6
SLD-Durchgehend
 62
     8
370
     0
100
AcDbPolyline
 90
       56
 70
   128
 43
0.0
 10
127.1131752295
 20
80.7538304458
 10
125.7240886948
 20
80.4177553021
 10
124.3488382963
 20
79.9540174051
 10
123.0420096757
 20
79.3744198122
 10
121.8109111488
 20
78.6822038682
 10
120.662427518
 20
77.8812407254
 10
119.6029815696
 20
76.9760096947
 10
118.638498155
 20
75.9715731951
 10
117.7743710568
 20
74.873548443
 10
117.0154328243
 20
73.6880760382
 10
116.3659277477
 20
72.4217856233
 10
115.8294881231
 20
71.0817588079
 10
115.4091139384
 20
69.6754895655
 10
115.1071560966
 20
68.2108423242
 10
114.9253032683
 20
66.6960079855
 10
114.8645724484
 20
65.1394581174
 10
114.9253032683
 20
63.5498975783
 10
115.1071560966
 20
61.9362158354
 10
115.4091139384
 20
60.3074372517
 10
115.8294881231
 20
58.6726706176
 10
116.3659277477
 20
57.0410582112
 10
117.0154328243
 20
55.4217246711
 10
117.7743710568
 20
53.8237259673
 10
118.638498155
 20
52.2559987566
 10
119.6029815696
 20
50.7273104056
 10
120.662427518
 20
49.2462099596
 10
121.8109111488
 20
47.8209803332
 10
123.0420096757
 20
46.4595919885
 10
124.3488382963
 20
45.1696583613
 10
125.7240886948
 20
43.9583932838
 10
127.1600699132
 20
42.8325706417
 10
128.648751362
 20
41.7984864917
 10
130.1818077307
 20
40.8619238519
 10
131.7506655462
 20
40.0281203606
 10
133.3465511193
 20
39.3017389851
 10
134.9605396103
 20
38.6868419445
 10
136.5836049411
 20
38.1868679928
 10
138.2066702719
 20
37.8046131869
 10
139.820658763
 20
37.5422152508
 10
141.416544336
 20
37.4011416203
 10
142.9854021515
 20
37.3821812362
 10
144.5184585203
 20
37.4854401328
 10
146.0071399691
 20
37.7103408443
 10
147.4431211875
 20
38.0556256349
 10
148.818371586
 20
38.5193635319
 10
150.1252002066
 20
39.0989611248
 10
151.3562987334
 20
39.7911770688
 10
152.5047823642
 20
40.5921402116
 10
153.5642283127
 20
41.4973712423
 10
154.5287117272
 20
42.5018077419
 10
155.3928388254
 20
43.599832494
 10
156.151777058
 20
44.7853048988
 10
156.8012821345
 20
46.0515953137
 10
157.3377217591
 20
47.3916221292
 10
157.7580959438
 20
48.7978913715
 10
158.0259936311
 20
50.0600997629
  0
LWPOLYLINE
  5
3F0
330
1F
100
AcDbEntity
  8
0
  6
SLD-Durchgehend
 62
     8
370
     0
100
AcDbPolyline
 90
       61
 70
   128
 43
0.0
 10
131.4516351306
 20
80.6423805542
 10
130.491823148
 20
80.6366287083
 10
128.9880499961
 20
80.528698515
 10
127.5288973239
 20
80.2998967587
 10
126.1227230256
 20
79.9515339953
 10
124.7775815403
 20
79.485605615
 10
123.5011777167
 20
78.9047804135
 10
122.3008226801
 20
78.2123853048
 10
121.1833919557
 20
77.4123862656
 10
120.1552860853
 20
76.5093656177
 10
119.2223939663
 20
75.5084957818
 10
118.3900591202
 20
74.4155096496
 10
117.6630490857
 20
73.2366677467
 10
117.0455281105
 20
71.9787223727
 10
116.5410332987
 20
70.6488789249
 10
116.152454351
 20
69.2547546261
 10
115.8820170123
 20
67.8043348939
 10
115.7312703233
 20
66.3059276014
 10
115.7010777473
 20
64.7681154897
 10
115.7916122247
 20
63.1997070074
 10
116.0023551821
 20
61.6096858562
 10
116.3320995031
 20
60.0071595333
 10
116.778956442
 20
58.4013071643
 10
117.3403664428
 20
56.8013269263
 10
118.0131137997
 20
55.216383361
 10
118.7933450768
 20
53.6555548818
 10
119.6765911801
 20
52.1277817727
 10
120.6577929559
 20
50.6418149799
 10
121.7313301692
 20
49.2061659864
 10
122.8910536961
 20
47.8290580599
 10
124.1303207452
 20
46.5183791497
 10
125.4420329072
 20
45.2816367059
 10
126.8186768136
 20
44.1259146773
 10
128.2523671726
 20
43.0578329349
 10
129.7348919359
 20
42.0835093544
 10
131.2577593357
 20
41.2085247729
 10
132.8122465256
 20
40.4378910228
 10
134.3894495437
 20
39.7760222245
 10
135.980334314
 20
39.2267095026
 10
137.5757883924
 20
38.7930992705
 10
139.1666731626
 20
38.4776752084
 10
140.7438761807
 20
38.2822440368
 10
142.2983633706
 20
38.2079251677
 10
143.8212307705
 20
38.2551442929
 10
145.3037555337
 20
38.4236309454
 10
146.7374458928
 20
38.7124200491
 10
148.1140897992
 20
39.1198574461
 10
149.4258019611
 20
39.6436093718
 10
150.6650690103
 20
40.2806758226
 10
151.8247925372
 20
41.0274077397
 10
152.8983297505
 20
41.8795279102
 10
153.8795315263
 20
42.832155467
 10
154.7627776296
 20
43.8798338456
 10
155.5430089067
 20
45.0165620393
 10
156.2157562636
 20
46.2358289718
 10
156.7771662643
 20
47.5306507926
 10
157.2240232032
 20
48.8936108795
 10
157.5537675242
 20
50.3169023207
 10
157.7645104817
 20
51.7923726315
 10
157.8550449591
 20
53.3115704518
 10
157.8585130238
 20
53.5870030211
  0
LWPOLYLINE
  5
3F1
330
1F
100
AcDbEntity
  8
0
  6
SLD-Durchgehend
 62
     8
370
     0
100
AcDbPolyline
 90
       74
 70
   128
 43
0.0
 10
136.7780613532
 20
75.1068143581
 10
135.3872512264
 20
75.4267609161
 10
134.0067381711
 20
75.6282470359
 10
132.6467430231
 20
75.7097809846
 10
131.3173347106
 20
75.6707591134
 10
130.0283557076
 20
75.5114703267
 10
128.7893491637
 20
75.2330939428
 10
127.6094882498
 20
74.8376909631
 10
126.4975082434
 20
74.3281888129
 10
125.4616418554
 20
73.7083596679
 10
124.509558278
 20
72.9827925263
 10
123.6483064051
 20
72.1568592332
 10
122.8842626441
 20
71.2366747099
 10
122.2230837077
 20
70.2290516805
 10
121.6696647335
 20
69.1414502335
 10
121.2281030419
 20
67.9819225895
 10
120.9016678011
 20
66.7590534854
 10
120.6927758236
 20
65.4818966162
 10
120.6029736724
 20
64.1599076046
 10
120.6329262112
 20
62.8028739947
 10
120.7824116819
 20
61.4208427886
 10
121.0503233464
 20
60.0240460617
 10
121.4346776805
 20
58.6228252084
 10
121.932629059
 20
57.2275543776
 10
122.5404908244
 20
55.8485636663
 10
123.2537625806
 20
54.4960626393
 10
124.0671635132
 20
53.1800647411
 10
124.9746714863
 20
51.9103131596
 10
125.9695676283
 20
50.6962086914
 10
127.0444860762
 20
49.546740141
 10
128.1914685101
 20
48.4704177715
 10
129.4020230732
 20
47.4752102972
 10
130.667187243
 20
46.568485886
 10
131.9775941868
 20
45.7569576081
 10
133.3235421099
 20
45.0466337351
 10
134.6950660849
 20
44.4427732564
 10
136.082011828
 20
43.9498469437
 10
137.4741108783
 20
43.5715042509
 10
138.8610566215
 20
43.3105462949
 10
140.2325805965
 20
43.1689051173
 10
141.5785285196
 20
43.1476293796
 10
142.8889354633
 20
43.2468766001
 10
144.1540996332
 20
43.465911987
 10
145.3646541963
 20
43.8031138789
 10
146.5116366301
 20
44.255985751
 10
147.5865550781
 20
44.8211746985
 10
148.5814512201
 20
45.4944962601
 10
149.4889591932
 20
46.2709653985
 10
150.3023601258
 20
47.1448334079
 10
151.015631882
 20
48.1096304753
 10
151.6234936473
 20
49.1582135807
 10
152.1214450259
 20
50.2828193818
 10
152.50579936
 20
51.4751216906
 10
152.7737110245
 20
52.7262931179
 10
152.9231964952
 20
54.0270704284
 10
152.953149034
 20
55.3678231218
 10
152.8633468828
 20
56.7386247343
 10
152.6544549052
 20
58.1293263304
 10
152.3280196645
 20
59.5296316421
 10
151.8864579729
 20
60.9291732986
 10
151.3330389987
 20
62.3175895833
 10
150.6718600623
 20
63.6846011478
 10
149.9078163013
 20
65.0200871167
 10
149.0465644283
 20
66.3141600191
 10
148.094480851
 20
67.557238992
 10
147.058614463
 20
68.7401207136
 10
145.9466344566
 20
69.8540475416
 10
144.7667735427
 20
70.8907723513
 10
143.5277669988
 20
71.8426195951
 10
142.2387879958
 20
72.7025421289
 10
140.9093796833
 20
73.4641733872
 10
139.5493845353
 20
74.1218745186
 10
138.16887148
 20
74.6707761341
 10
136.7780613532
 20
75.1068143581
  0
LWPOLYLINE
  5
3F2
330
1F
100
AcDbEntity
  8
0
  6
SLD-Durchgehend
 62
     8
370
     0
100
AcDbPolyline
 90
       47
 70
   128
 43
0.0
 10
134.6390408206
 20
63.7674910287
 10
133.7358289304
 20
63.9530868983
 10
132.8494421687
 20
64.0154699306
 10
131.9963922439
 20
63.9534780477
 10
131.192569862
 20
63.7682660411
 10
130.4529487131
 20
63.46328406
 10
129.7913065397
 20
63.0442133418
 10
129.2199684838
 20
62.518860381
 10
128.7495774922
 20
61.8970115093
 10
128.3888960591
 20
61.1902505945
 10
128.1446429971
 20
60.4117432552
 10
128.0213682788
 20
59.5759916102
 10
128.0213682788
 20
58.6985641313
 10
128.1446429971
 20
57.7958056324
 10
128.3888960591
 20
56.8845327961
 10
128.7495774922
 20
55.9817209112
 10
129.2199684838
 20
55.1041876549
 10
129.7913065397
 20
54.2682798115
 10
130.4529487131
 20
53.4895687624
 10
131.192569862
 20
52.7825604211
 10
131.9963922439
 20
52.1604250154
 10
132.8494421687
 20
51.6347517506
 10
133.7358289304
 20
51.2153329252
 10
134.6390408206
 20
50.9099815182
 10
135.5422527108
 20
50.7243856487
 10
136.4286394724
 20
50.6620026164
 10
137.2816893973
 20
50.7239944993
 10
138.0855117792
 20
50.9092065059
 10
138.8251329281
 20
51.2141884869
 10
139.4867751014
 20
51.6332592051
 10
140.0581131574
 20
52.1586121659
 10
140.528504149
 20
52.7804610377
 10
140.8891855821
 20
53.4872219525
 10
141.133438644
 20
54.2657292918
 10
141.2567133624
 20
55.1014809368
 10
141.2567133624
 20
55.9789084156
 10
141.133438644
 20
56.8816669146
 10
140.8891855821
 20
57.7929397509
 10
140.528504149
 20
58.6957516358
 10
140.0581131574
 20
59.5732848921
 10
139.4867751014
 20
60.4091927355
 10
138.8251329281
 20
61.1879037846
 10
138.0855117792
 20
61.8949121259
 10
137.2816893973
 20
62.5170475316
 10
136.4286394724
 20
63.0427207963
 10
135.5422527108
 20
63.4621396218
 10
134.6390408206
 20
63.7674910287
  0
LWPOLYLINE
  5
3F3
330
1F
100
AcDbEntity
  8
0
  6
SLD-Durchgehend
 62
     8
370
     0
100
AcDbPolyline
 90
       22
 70
   128
 43
0.0
 10
136.6592268792
 20
74.4768519509
 10
135.2762093505
 20
74.7933778463
 10
133.9040158091
 20
74.9887292284
 10
132.55338553
 20
75.061377208
 10
131.2348890264
 20
75.010753216
 10
129.958845321
 20
74.8372534538
 10
128.7352411861
 20
74.5422357923
 10
127.573652983
 20
74.1280091448
 10
126.4831717142
 20
73.5978153962
 10
125.4723318744
 20
72.9558040316
 10
124.5490446557
 20
72.2069996605
 10
123.7205360325
 20
71.3572626922
 10
122.993290208
 20
70.4132434706
 10
122.3729988671
 20
69.3823302261
 10
121.8645166302
 20
68.2725912527
 10
121.4718230605
 20
67.0927117624
 10
121.1979915175
 20
65.8519259119
 10
121.0451651044
 20
64.5599445329
 10
121.0145398949
 20
63.2268791314
 10
121.106355573
 20
61.8631627516
 10
121.3198935564
 20
60.4794683232
 10
121.3715749828
 20
60.2270835096
  0
LWPOLYLINE
  5
3F4
330
1F
100
AcDbEntity
  8
0
  6
SLD-Durchgehend
 62
     8
370
     0
100
AcDbPolyline
 90
       37
 70
   128
 43
0.0
 10
137.1212979617
 20
44.0251799089
 10
137.351413137
 20
43.9708706759
 10
138.7303683569
 20
43.7146812857
 10
140.0931140865
 20
43.580550321
 10
141.4289849929
 20
43.5695275384
 10
142.7275260749
 20
43.6816992062
 10
143.9785744881
 20
43.9161874288
 10
145.1723390822
 20
44.2711570182
 10
146.2994770309
 20
44.7438298559
 10
147.3511669514
 20
45.3305066361
 10
148.3191779442
 20
46.0265958176
 10
149.1959340107
 20
46.8266495588
 10
149.974573346
 20
47.7244063542
 10
150.6490020417
 20
48.7128400399
 10
151.2139417786
 20
49.7842147821
 10
151.6649711374
 20
50.9301456207
 10
151.9985602019
 20
52.1416640932
 10
152.2120981853
 20
53.409288425
 10
152.3039138634
 20
54.723097737
 10
152.2732886539
 20
56.0728096899
 10
152.1204622408
 20
57.4478609577
 10
151.8466306978
 20
58.8374899
 10
151.4539371281
 20
60.230820786
 10
150.9454548912
 20
61.6169489124
 10
150.3251635503
 20
62.9850259474
 10
149.5979177258
 20
64.3243448331
 10
148.7694091026
 20
65.6244235834
 10
147.8461218839
 20
66.8750873194
 10
146.8352820441
 20
68.0665479015
 10
145.7448007753
 20
69.1894805354
 10
144.5832125722
 20
70.2350967506
 10
143.3596084373
 20
71.1952131825
 10
142.0835647319
 20
72.0623156182
 10
140.7650682283
 20
72.8296178057
 10
139.4144379492
 20
73.4911145648
 10
138.0422444078
 20
74.0416287866
 10
136.6592268792
 20
74.4768519509
  0
LINE
  5
3F5
330
1F
100
AcDbEntity
  8
0
  6
SLD-Durchgehend
 62
     8
370
     0
100
AcDbLine
 10
163.7718255275
 20
33.6294766323
 30
0.0
 11
178.1616000195
 21
47.6743376754
 31
0.0
  0
LINE
  5
3F6
330
1F
100
AcDbEntity
  8
0
  6
SLD-Durchgehend
 62
     8
370
     0
100
AcDbLine
 10
180.004137773
 20
45.387810185
 30
0.0
 11
165.614363281
 21
31.3429491419
 31
0.0
  0
LINE
  5
3F7
330
1F
100
AcDbEntity
  8
0
  6
SLD-Durchgehend
 62
     8
370
     0
100
AcDbLine
 10
181.5610016988
 20
33.8030406719
 30
0.0
 11
181.5610016988
 21
38.1706417727
 31
0.0
  0
LINE
  5
3F8
330
1F
100
AcDbEntity
  8
0
  6
SLD-Durchgehend
 62
     8
370
     0
100
AcDbLine
 10
102.9680796622
 20
48.368866682
 30
0.0
 11
104.8106174157
 21
50.167240015
 31
0.0
  0
ENDSEC
  0
SECTION
  2
OBJECTS
  0
DICTIONARY
  5
C
330
0
100
AcDbDictionary
281
     1
  3
ACAD_GROUP
350
D
  3
ACAD_LAYOUT
350
1A
  3
ACAD_MLINESTYLE
350
17
  3
ACAD_PLOTSETTINGS
350
19
  3
ACAD_PLOTSTYLENAME
350
E
  3
ACAD_SCALELIST
350
47
  0
DICTIONARY
  5
D
102
{ACAD_REACTORS
330
C
102
}
330
C
100
AcDbDictionary
281
     1
  0
DICTIONARY
  5
1A
102
{ACAD_REACTORS
330
C
102
}
330
C
100
AcDbDictionary
281
     1
  3
Layout1
350
1E
  3
Layout2
350
26
  3
Model
350
22
  0
DICTIONARY
  5
17
102
{ACAD_REACTORS
330
C
102
}
330
C
100
AcDbDictionary
281
     1
  3
Standard
350
18
  0
DICTIONARY
  5
19
102
{ACAD_REACTORS
330
C
102
}
330
C
100
AcDbDictionary
281
     1
  0
ACDBDICTIONARYWDFLT
  5
E
102
{ACAD_REACTORS
330
C
102
}
330
C
100
AcDbDictionary
281
     1
  3
Normal
350
F
100
AcDbDictionaryWithDefault
340
F
  0
DICTIONARY
  5
47
102
{ACAD_REACTORS
330
C
102
}
330
C
100
AcDbDictionary
281
     1
  3
A0
350
48
  3
A1
350
49
  3
A2
350
4A
  3
A3
350
4B
  3
A4
350
4C
  3
A5
350
4D
  3
A6
350
4E
  3
A7
350
4F
  3
A8
350
50
  3
A9
350
51
  3
B0
350
52
  3
B1
350
53
  3
B2
350
54
  3
B3
350
55
  3
B4
350
56
  3
B5
350
57
  3
B6
350
58
  3
B7
350
59
  3
B8
350
5A
  3
B9
350
5B
  3
C0
350
5C
  3
C1
350
5D
  3
C2
350
5E
  3
C3
350
5F
  3
C4
350
60
  3
C5
350
61
  3
C6
350
62
  3
C7
350
63
  3
C8
350
64
  3
C9
350
65
  3
D0
350
66
  3
D1
350
67
  3
D2
350
68
  0
LAYOUT
  5
1E
102
{ACAD_REACTORS
330
1A
102
}
330
1A
100
AcDbPlotSettings
  1

  2
none_device
  4

  6

 40
0.0
 41
0.0
 42
0.0
 43
0.0
 44
0.0
 45
0.0
 46
0.0
 47
0.0
 48
0.0
 49
0.0
140
0.0
141
0.0
142
1.0
143
1.0
 70
   688
 72
     1
 73
     0
 74
     5
  7

 75
    16
147
1.0
148
0.0
149
0.0
100
AcDbLayout
  1
Layout1
 70
     1
 71
     1
 10
0.0
 20
0.0
 11
420.0
 21
297.0
 12
0.0
 22
0.0
 32
0.0
 14
1.0000000000E+20
 24
1.0000000000E+20
 34
1.0000000000E+20
 15
-1.0000000000E+20
 25
-1.0000000000E+20
 35
-1.0000000000E+20
146
0.0
 13
0.0
 23
0.0
 33
0.0
 16
1.0
 26
0.0
 36
0.0
 17
0.0
 27
1.0
 37
0.0
 76
     0
330
1B
  0
LAYOUT
  5
26
102
{ACAD_REACTORS
330
1A
102
}
330
1A
100
AcDbPlotSettings
  1

  2
none_device
  4

  6

 40
0.0
 41
0.0
 42
0.0
 43
0.0
 44
0.0
 45
0.0
 46
0.0
 47
0.0
 48
0.0
 49
0.0
140
0.0
141
0.0
142
1.0
143
1.0
 70
   688
 72
     1
 73
     0
 74
     5
  7

 75
    16
147
1.0
148
0.0
149
0.0
100
AcDbLayout
  1
Layout2
 70
     1
 71
     2
 10
0.0
 20
0.0
 11
0.0
 21
0.0
 12
0.0
 22
0.0
 32
0.0
 14
0.0
 24
0.0
 34
0.0
 15
0.0
 25
0.0
 35
0.0
146
0.0
 13
0.0
 23
0.0
 33
0.0
 16
1.0
 26
0.0
 36
0.0
 17
0.0
 27
1.0
 37
0.0
 76
     0
330
23
  0
LAYOUT
  5
22
102
{ACAD_REACTORS
330
1A
102
}
330
1A
100
AcDbPlotSettings
  1

  2
none_device
  4
Letter_(8.50_x_11.00_Inches)
  6

 40
6.35
 41
6.35
 42
6.35000508
 43
6.35000508
 44
215.9
 45
279.4
 46
0.0
 47
0.0
 48
0.0
 49
0.0
140
0.0
141
0.0
142
1.0
143
1.0
 70
  1712
 72
     1
 73
     0
 74
     0
  7

 75
     0
147
1.0
148
0.0
149
0.0
100
AcDbLayout
  1
Model
 70
     1
 71
     0
 10
0.0
 20
0.0
 11
420.0
 21
297.0
 12
0.0
 22
0.0
 32
0.0
 14
0.0
 24
0.0
 34
0.0
 15
420.0
 25
297.0
 35
0.0
146
0.0
 13
0.0
 23
0.0
 33
0.0
 16
1.0
 26
0.0
 36
0.0
 17
0.0
 27
1.0
 37
0.0
 76
     0
330
1F
331
29
  0
MLINESTYLE
  5
18
102
{ACAD_REACTORS
330
17
102
}
330
17
100
AcDbMlineStyle
  2
Standard
 70
     0
  3

 62
   256
 51
90.0
 52
90.0
 71
     2
 49
0.5
 62
   256
  6
BYLAYER
 49
-0.5
 62
   256
  6
BYLAYER
  0
ACDBPLACEHOLDER
  5
F
102
{ACAD_REACTORS
330
E
102
}
330
E
  0
SCALE
  5
48
102
{ACAD_REACTORS
330
47
102
}
330
47
100
AcDbScale
 70
     0
300
1:1
140
1.0
141
1.0
290
     1
  0
SCALE
  5
49
102
{ACAD_REACTORS
330
47
102
}
330
47
100
AcDbScale
 70
     0
300
1:2
140
1.0
141
2.0
290
     0
  0
SCALE
  5
4A
102
{ACAD_REACTORS
330
47
102
}
330
47
100
AcDbScale
 70
     0
300
1:4
140
1.0
141
4.0
290
     0
  0
SCALE
  5
4B
102
{ACAD_REACTORS
330
47
102
}
330
47
100
AcDbScale
 70
     0
300
1:5
140
1.0
141
5.0
290
     0
  0
SCALE
  5
4C
102
{ACAD_REACTORS
330
47
102
}
330
47
100
AcDbScale
 70
     0
300
1:8
140
1.0
141
8.0
290
     0
  0
SCALE
  5
4D
102
{ACAD_REACTORS
330
47
102
}
330
47
100
AcDbScale
 70
     0
300
1:10
140
1.0
141
10.0
290
     0
  0
SCALE
  5
4E
102
{ACAD_REACTORS
330
47
102
}
330
47
100
AcDbScale
 70
     0
300
1:16
140
1.0
141
16.0
290
     0
  0
SCALE
  5
4F
102
{ACAD_REACTORS
330
47
102
}
330
47
100
AcDbScale
 70
     0
300
1:20
140
1.0
141
20.0
290
     0
  0
SCALE
  5
50
102
{ACAD_REACTORS
330
47
102
}
330
47
100
AcDbScale
 70
     0
300
1:30
140
1.0
141
30.0
290
     0
  0
SCALE
  5
51
102
{ACAD_REACTORS
330
47
102
}
330
47
100
AcDbScale
 70
     0
300
1:40
140
1.0
141
40.0
290
     0
  0
SCALE
  5
52
102
{ACAD_REACTORS
330
47
102
}
330
47
100
AcDbScale
 70
     0
300
1:50
140
1.0
141
50.0
290
     0
  0
SCALE
  5
53
102
{ACAD_REACTORS
330
47
102
}
330
47
100
AcDbScale
 70
     0
300
1:100
140
1.0
141
100.0
290
     0
  0
SCALE
  5
54
102
{ACAD_REACTORS
330
47
102
}
330
47
100
AcDbScale
 70
     0
300
2:1
140
2.0
141
1.0
290
     0
  0
SCALE
  5
55
102
{ACAD_REACTORS
330
47
102
}
330
47
100
AcDbScale
 70
     0
300
4:1
140
4.0
141
1.0
290
     0
  0
SCALE
  5
56
102
{ACAD_REACTORS
330
47
102
}
330
47
100
AcDbScale
 70
     0
300
8:1
140
8.0
141
1.0
290
     0
  0
SCALE
  5
57
102
{ACAD_REACTORS
330
47
102
}
330
47
100
AcDbScale
 70
     0
300
10:1
140
10.0
141
1.0
290
     0
  0
SCALE
  5
58
102
{ACAD_REACTORS
330
47
102
}
330
47
100
AcDbScale
 70
     0
300
100:1
140
100.0
141
1.0
290
     0
  0
SCALE
  5
59
102
{ACAD_REACTORS
330
47
102
}
330
47
100
AcDbScale
 70
     0
300
1/128" = 1'-0"
140
0.0078125
141
12.0
290
     0
  0
SCALE
  5
5A
102
{ACAD_REACTORS
330
47
102
}
330
47
100
AcDbScale
 70
     0
300
1/64" = 1'-0"
140
0.015625
141
12.0
290
     0
  0
SCALE
  5
5B
102
{ACAD_REACTORS
330
47
102
}
330
47
100
AcDbScale
 70
     0
300
1/32" = 1'-0"
140
0.03125
141
12.0
290
     0
  0
SCALE
  5
5C
102
{ACAD_REACTORS
330
47
102
}
330
47
100
AcDbScale
 70
     0
300
1/16" = 1'-0"
140
0.0625
141
12.0
290
     0
  0
SCALE
  5
5D
102
{ACAD_REACTORS
330
47
102
}
330
47
100
AcDbScale
 70
     0
300
3/32" = 1'-0"
140
0.09375
141
12.0
290
     0
  0
SCALE
  5
5E
102
{ACAD_REACTORS
330
47
102
}
330
47
100
AcDbScale
 70
     0
300
1/8" = 1'-0"
140
0.125
141
12.0
290
     0
  0
SCALE
  5
5F
102
{ACAD_REACTORS
330
47
102
}
330
47
100
AcDbScale
 70
     0
300
3/16" = 1'-0"
140
0.1875
141
12.0
290
     0
  0
SCALE
  5
60
102
{ACAD_REACTORS
330
47
102
}
330
47
100
AcDbScale
 70
     0
300
1/4" = 1'-0"
140
0.25
141
12.0
290
     0
  0
SCALE
  5
61
102
{ACAD_REACTORS
330
47
102
}
330
47
100
AcDbScale
 70
     0
300
3/8" = 1'-0"
140
0.375
141
12.0
290
     0
  0
SCALE
  5
62
102
{ACAD_REACTORS
330
47
102
}
330
47
100
AcDbScale
 70
     0
300
1/2" = 1'-0"
140
0.5
141
12.0
290
     0
  0
SCALE
  5
63
102
{ACAD_REACTORS
330
47
102
}
330
47
100
AcDbScale
 70
     0
300
3/4" = 1'-0"
140
0.75
141
12.0
290
     0
  0
SCALE
  5
64
102
{ACAD_REACTORS
330
47
102
}
330
47
100
AcDbScale
 70
     0
300
1" = 1'-0"
140
1.0
141
12.0
290
     0
  0
SCALE
  5
65
102
{ACAD_REACTORS
330
47
102
}
330
47
100
AcDbScale
 70
     0
300
1-1/2" = 1'-0"
140
1.5
141
12.0
290
     0
  0
SCALE
  5
66
102
{ACAD_REACTORS
330
47
102
}
330
47
100
AcDbScale
 70
     0
300
3" = 1'-0"
140
3.0
141
12.0
290
     0
  0
SCALE
  5
67
102
{ACAD_REACTORS
330
47
102
}
330
47
100
AcDbScale
 70
     0
300
6" = 1'-0"
140
6.0
141
12.0
290
     0
  0
SCALE
  5
68
102
{ACAD_REACTORS
330
47
102
}
330
47
100
AcDbScale
 70
     0
300
1'-0" = 1'-0"
140
12.0
141
12.0
290
     0
  0
ENDSEC
  0
EOF
