  0
SECTION
  2
HEADER
  9
$ACADVER
  1
AC1015
  9
$ACADMAINTVER
 70
     6
  9
$DWGCODEPAGE
  3
ANSI_1252
  9
$INSBASE
 10
0.0
 20
0.0
 30
0.0
  9
$EXTMIN
 10
0.0
 20
0.0
 30
0.0
  9
$EXTMAX
 10
420.0
 20
297.0
 30
0.0
  9
$LIMMIN
 10
0.0
 20
0.0
  9
$LIMMAX
 10
420.0
 20
297.0
  9
$ORTHOMODE
 70
     0
  9
$REGENMODE
 70
     1
  9
$FILLMODE
 70
     1
  9
$QTEXTMODE
 70
     0
  9
$MIRRTEXT
 70
     1
  9
$LTSCALE
 40
1.0
  9
$ATTMODE
 70
     1
  9
$TEXTSIZE
 40
3.0
  9
$TRACEWID
 40
1.0
  9
$TEXTSTYLE
  7
STANDARD
  9
$CLAYER
  8
0
  9
$CELTYPE
  6
ByLayer
  9
$CECOLOR
 62
   256
  9
$CELTSCALE
 40
1.0
  9
$DISPSILH
 70
     0
  9
$DIMSCALE
 40
1.0
  9
$DIMASZ
 40
2.5
  9
$DIMEXO
 40
1.0
  9
$DIMDLI
 40
3.75
  9
$DIMRND
 40
0.0
  9
$DIMDLE
 40
0.0
  9
$DIMEXE
 40
1.0
  9
$DIMTP
 40
0.0
  9
$DIMTM
 40
0.0
  9
$DIMTXT
 40
3.0
  9
$DIMCEN
 40
2.5
  9
$DIMTSZ
 40
0.0
  9
$DIMTOL
 70
     0
  9
$DIMLIM
 70
     0
  9
$DIMTIH
 70
     1
  9
$DIMTOH
 70
     1
  9
$DIMSE1
 70
     0
  9
$DIMSE2
 70
     0
  9
$DIMTAD
 70
     1
  9
$DIMZIN
 70
     0
  9
$DIMBLK
  1

  9
$DIMASO
 70
     1
  9
$DIMSHO
 70
     1
  9
$DIMPOST
  1

  9
$DIMAPOST
  1

  9
$DIMALT
 70
     0
  9
$DIMALTD
 70
     3
  9
$DIMALTF
 40
0.0393700787
  9
$DIMLFAC
 40
1.0
  9
$DIMTOFL
 70
     1
  9
$DIMTVP
 40
0.0
  9
$DIMTIX
 70
     0
  9
$DIMSOXD
 70
     0
  9
$DIMSAH
 70
     0
  9
$DIMBLK1
  1

  9
$DIMBLK2
  1

  9
$DIMSTYLE
  2
ISO-25
  9
$DIMCLRD
 70
     0
  9
$DIMCLRE
 70
     0
  9
$DIMCLRT
 70
     0
  9
$DIMTFAC
 40
1.0
  9
$DIMGAP
 40
1.524
  9
$DIMJUST
 70
     0
  9
$DIMSD1
 70
     0
  9
$DIMSD2
 70
     0
  9
$DIMTOLJ
 70
     0
  9
$DIMTZIN
 70
     0
  9
$DIMALTZ
 70
     0
  9
$DIMALTTZ
 70
     0
  9
$DIMUPT
 70
     0
  9
$DIMDEC
 70
     3
  9
$DIMTDEC
 70
     3
  9
$DIMALTU
 70
     2
  9
$DIMALTTD
 70
     3
  9
$DIMTXSTY
  7
STANDARD
  9
$DIMAUNIT
 70
     0
  9
$DIMADEC
 70
     3
  9
$DIMALTRND
 40
0.0
  9
$DIMAZIN
 70
     0
  9
$DIMDSEP
 70
    44
  9
$DIMATFIT
 70
     3
  9
$DIMFRAC
 70
     0
  9
$DIMLDRBLK
  1

  9
$DIMLUNIT
 70
     2
  9
$DIMLWD
 70
    -2
  9
$DIMLWE
 70
    -2
  9
$DIMTMOVE
 70
     0
  9
$LUNITS
 70
     2
  9
$LUPREC
 70
     3
  9
$SKETCHINC
 40
1.0
  9
$FILLETRAD
 40
10.0
  9
$AUNITS
 70
     0
  9
$AUPREC
 70
     3
  9
$MENU
  1
.
  9
$ELEVATION
 40
0.0
  9
$PELEVATION
 40
0.0
  9
$THICKNESS
 40
0.0
  9
$LIMCHECK
 70
     0
  9
$CHAMFERA
 40
0.0
  9
$CHAMFERB
 40
0.0
  9
$CHAMFERC
 40
0.0
  9
$CHAMFERD
 40
0.0
  9
$SKPOLY
 70
     0
  9
$TDCREATE
 40
2459769.489658727
  9
$TDUCREATE
 40
2459769.406325393
  9
$TDUPDATE
 40
2459769.489662859
  9
$TDUUPDATE
 40
2459769.406329526
  9
$TDINDWG
 40
0.0000000116
  9
$TDUSRTIMER
 40
0.0000000116
  9
$USRTIMER
 70
     1
  9
$ANGBASE
 50
0.0
  9
$ANGDIR
 70
     0
  9
$PDMODE
 70
     0
  9
$PDSIZE
 40
-1.0
  9
$PLINEWID
 40
0.0
  9
$SPLFRAME
 70
     0
  9
$SPLINETYPE
 70
     6
  9
$SPLINESEGS
 70
     8
  9
$HANDSEED
  5
3FF
  9
$SURFTAB1
 70
     6
  9
$SURFTAB2
 70
     6
  9
$SURFTYPE
 70
     6
  9
$SURFU
 70
     6
  9
$SURFV
 70
     6
  9
$UCSBASE
  2

  9
$UCSNAME
  2

  9
$UCSORG
 10
0.0
 20
0.0
 30
0.0
  9
$UCSXDIR
 10
1.0
 20
0.0
 30
0.0
  9
$UCSYDIR
 10
0.0
 20
1.0
 30
0.0
  9
$UCSORTHOREF
  2

  9
$UCSORTHOVIEW
 70
     0
  9
$UCSORGTOP
 10
0.0
 20
0.0
 30
0.0
  9
$UCSORGBOTTOM
 10
0.0
 20
0.0
 30
0.0
  9
$UCSORGLEFT
 10
0.0
 20
0.0
 30
0.0
  9
$UCSORGRIGHT
 10
0.0
 20
0.0
 30
0.0
  9
$UCSORGFRONT
 10
0.0
 20
0.0
 30
0.0
  9
$UCSORGBACK
 10
0.0
 20
0.0
 30
0.0
  9
$PUCSBASE
  2

  9
$PUCSNAME
  2

  9
$PUCSORG
 10
0.0
 20
0.0
 30
0.0
  9
$PUCSXDIR
 10
1.0
 20
0.0
 30
0.0
  9
$PUCSYDIR
 10
0.0
 20
1.0
 30
0.0
  9
$PUCSORTHOREF
  2

  9
$PUCSORTHOVIEW
 70
     0
  9
$PUCSORGTOP
 10
0.0
 20
0.0
 30
0.0
  9
$PUCSORGBOTTOM
 10
0.0
 20
0.0
 30
0.0
  9
$PUCSORGLEFT
 10
0.0
 20
0.0
 30
0.0
  9
$PUCSORGRIGHT
 10
0.0
 20
0.0
 30
0.0
  9
$PUCSORGFRONT
 10
0.0
 20
0.0
 30
0.0
  9
$PUCSORGBACK
 10
0.0
 20
0.0
 30
0.0
  9
$USERI1
 70
     0
  9
$USERI2
 70
     0
  9
$USERI3
 70
     0
  9
$USERI4
 70
     0
  9
$USERI5
 70
     0
  9
$USERR1
 40
0.0
  9
$USERR2
 40
0.0
  9
$USERR3
 40
0.0
  9
$USERR4
 40
0.0
  9
$USERR5
 40
0.0
  9
$WORLDVIEW
 70
     1
  9
$SHADEDGE
 70
     3
  9
$SHADEDIF
 70
    70
  9
$TILEMODE
 70
     1
  9
$MAXACTVP
 70
    64
  9
$PINSBASE
 10
0.0
 20
0.0
 30
0.0
  9
$PLIMCHECK
 70
     0
  9
$PEXTMIN
 10
1.0000000000E+20
 20
1.0000000000E+20
 30
1.0000000000E+20
  9
$PEXTMAX
 10
-1.0000000000E+20
 20
-1.0000000000E+20
 30
-1.0000000000E+20
  9
$PLIMMIN
 10
0.0
 20
0.0
  9
$PLIMMAX
 10
420.0
 20
297.0
  9
$UNITMODE
 70
     0
  9
$VISRETAIN
 70
     1
  9
$PLINEGEN
 70
     0
  9
$PSLTSCALE
 70
     1
  9
$TREEDEPTH
 70
  3020
  9
$CMLSTYLE
  2
Standard
  9
$CMLJUST
 70
     0
  9
$CMLSCALE
 40
20.0
  9
$PROXYGRAPHICS
 70
     1
  9
$MEASUREMENT
 70
     1
  9
$CELWEIGHT
370
    -1
  9
$ENDCAPS
280
     0
  9
$JOINSTYLE
280
     0
  9
$LWDISPLAY
290
     1
  9
$INSUNITS
 70
     4
  9
$HYPERLINKBASE
  1

  9
$STYLESHEET
  1

  9
$XEDIT
290
     1
  9
$CEPSNTYPE
380
     0
  9
$PSTYLEMODE
290
     1
  9
$FINGERPRINTGUID
  2
{1971D3DE-9B5B-42D9-B706-4D708CF9BF74}
  9
$VERSIONGUID
  2
{FAEB1C32-E019-11D5-929B-00C0DF256EC4}
  9
$EXTNAMES
290
     1
  9
$PSVPSCALE
 40
0.0
  9
$OLESTARTUP
290
     0
  0
ENDSEC
  0
SECTION
  2
CLASSES
  0
CLASS
  1
ACDBDICTIONARYWDFLT
  2
AcDbDictionaryWithDefault
  3
ObjectDBX Classes
 90
        0
280
     0
281
     0
  0
CLASS
  1
VISUALSTYLE
  2
AcDbVisualStyle
  3
ObjectDBX Classes
 90
     4095
280
     0
281
     0
  0
CLASS
  1
MATERIAL
  2
AcDbMaterial
  3
ObjectDBX Classes
 90
     1153
280
     0
281
     0
  0
CLASS
  1
SCALE
  2
AcDbScale
  3
ObjectDBX Classes
 90
     1153
280
     0
281
     0
  0
CLASS
  1
TABLESTYLE
  2
AcDbTableStyle
  3
ObjectDBX Classes
 90
     4095
280
     0
281
     0
  0
CLASS
  1
MLEADERSTYLE
  2
AcDbMLeaderStyle
  3
ACDB_MLEADERSTYLE_CLASS
 90
     4095
280
     0
281
     0
  0
CLASS
  1
SUN
  2
AcDbSun
  3
SCENEOE
 90
     1153
280
     0
281
     0
  0
CLASS
  1
ACDBPLACEHOLDER
  2
AcDbPlaceHolder
  3
ObjectDBX Classes
 90
        0
280
     0
281
     0
  0
CLASS
  1
LAYOUT
  2
AcDbLayout
  3
ObjectDBX Classes
 90
        0
280
     0
281
     0
  0
ENDSEC
  0
SECTION
  2
TABLES
  0
TABLE
  2
VPORT
  5
8
330
0
100
AcDbSymbolTable
 70
     1
  0
VPORT
  5
29
330
8
100
AcDbSymbolTableRecord
100
AcDbViewportTableRecord
  2
*Active
 70
     0
 10
0.0
 20
0.0
 11
1.0
 21
1.0
 12
210.0
 22
148.5
 13
0.0
 23
0.0
 14
10.0
 24
10.0
 15
10.0
 25
10.0
 16
0.0
 26
0.0
 36
1.0
 17
0.0
 27
0.0
 37
0.0
 40
297.0
 41
1.4141414141
 42
50.0
 43
0.0
 44
0.0
 50
0.0
 51
0.0
 71
     0
 72
  2000
 73
     1
 74
     3
 75
     0
 76
     0
 77
     0
 78
     0
281
     0
 65
     1
110
0.0
120
0.0
130
0.0
111
1.0
121
0.0
131
0.0
112
0.0
122
1.0
132
0.0
 79
     0
146
0.0
  0
ENDTAB
  0
TABLE
  2
LTYPE
  5
5
330
0
100
AcDbSymbolTable
 70
     8
  0
LTYPE
  5
14
330
5
100
AcDbSymbolTableRecord
100
AcDbLinetypeTableRecord
  2
ByBlock
 70
     0
  3

 72
    65
 73
     0
 40
0.0
  0
LTYPE
  5
15
330
5
100
AcDbSymbolTableRecord
100
AcDbLinetypeTableRecord
  2
ByLayer
 70
     0
  3

 72
    65
 73
     0
 40
0.0
  0
LTYPE
  5
16
330
5
100
AcDbSymbolTableRecord
100
AcDbLinetypeTableRecord
  2
Continuous
 70
     0
  3
Solid line
 72
    65
 73
     0
 40
0.0
  0
LTYPE
  5
6E
330
5
100
AcDbSymbolTableRecord
100
AcDbLinetypeTableRecord
  2
SLD-Durchgehend
 70
     0
  3
SolidWorks Line Style
 72
    65
 73
     0
 40
0.0
  0
LTYPE
  5
6F
330
5
100
AcDbSymbolTableRecord
100
AcDbLinetypeTableRecord
  2
SLD-Gestrichelt
 70
     0
  3
SolidWorks Line Style
 72
    65
 73
     2
 40
1.905
 49
1.27
 74
     0
 49
-0.635
 74
     0
  0
LTYPE
  5
70
330
5
100
AcDbSymbolTableRecord
100
AcDbLinetypeTableRecord
  2
SLD-Phantom
 70
     0
  3
SolidWorks Line Style
 72
    65
 73
     6
 40
12.7
 49
6.35
 74
     0
 49
-1.27
 74
     0
 49
1.27
 74
     0
 49
-1.27
 74
     0
 49
1.27
 74
     0
 49
-1.27
 74
     0
  0
LTYPE
  5
71
330
5
100
AcDbSymbolTableRecord
100
AcDbLinetypeTableRecord
  2
SLD-Kette
 70
     0
  3
SolidWorks Line Style
 72
    65
 73
     4
 40
10.16
 49
6.35
 74
     0
 49
-1.27
 74
     0
 49
1.27
 74
     0
 49
-1.27
 74
     0
  0
LTYPE
  5
72
330
5
100
AcDbSymbolTableRecord
100
AcDbLinetypeTableRecord
  2
SLD-Punktstrich
 70
     0
  3
SolidWorks Line Style
 72
    65
 73
     4
 40
19.05
 49
15.24
 74
     0
 49
-1.27
 74
     0
 49
1.27
 74
     0
 49
-1.27
 74
     0
  0
LTYPE
  5
73
330
5
100
AcDbSymbolTableRecord
100
AcDbLinetypeTableRecord
  2
SLD-Naht
 70
     0
  3
SolidWorks Line Style
 72
    65
 73
     2
 40
0.635
 49
0.0
 74
     0
 49
-0.635
 74
     0
  0
LTYPE
  5
74
330
5
100
AcDbSymbolTableRecord
100
AcDbLinetypeTableRecord
  2
SLD-Dicke-Dünne-Kette
 70
     0
  3
SolidWorks Line Style
 72
    65
 73
     4
 40
10.16
 49
6.35
 74
     0
 49
-1.27
 74
     0
 49
1.27
 74
     0
 49
-1.27
 74
     0
  0
ENDTAB
  0
TABLE
  2
LAYER
  5
2
330
0
100
AcDbSymbolTable
 70
     1
  0
LAYER
  5
10
330
2
100
AcDbSymbolTableRecord
100
AcDbLayerTableRecord
  2
0
 70
     0
 62
     7
  6
Continuous
370
    -3
390
F
  0
ENDTAB
  0
TABLE
  2
STYLE
  5
3
330
0
100
AcDbSymbolTable
 70
     5
  0
STYLE
  5
11
330
3
100
AcDbSymbolTableRecord
100
AcDbTextStyleTableRecord
  2
STANDARD
 70
     0
 40
0.0
 41
1.0
 50
0.0
 71
     0
 42
3.0
  3
ARIAL.TTF
  4

1001
ACAD
1000
ARIAL
1071
       34
  0
STYLE
  5
7C
330
3
100
AcDbSymbolTableRecord
100
AcDbTextStyleTableRecord
  2
SLDTEXTSTYLE0
 70
     0
 40
0.0
 41
0.948
 50
0.0
 71
     0
 42
3.0
  3
ARIAL.TTF
  4

1001
ACAD
1000
Arial
1071
      290
  0
STYLE
  5
128
330
3
100
AcDbSymbolTableRecord
100
AcDbTextStyleTableRecord
  2
SLDTEXTSTYLE1
 70
     0
 40
0.0
 41
1.0
 50
0.0
 71
     0
 42
3.0
  3
HLHI___.TTF
  4

1001
ACAD
1000
Helvetica 65 Medium
1071
 50331938
  0
STYLE
  5
12A
330
3
100
AcDbSymbolTableRecord
100
AcDbTextStyleTableRecord
  2
SLDTEXTSTYLE2
 70
     0
 40
0.0
 41
1.0
 50
0.0
 71
     0
 42
3.0
  3
HLR____.TTF
  4

1001
ACAD
1000
Helvetica 55 Roman
1071
 16777506
  0
STYLE
  5
138
330
3
100
AcDbSymbolTableRecord
100
AcDbTextStyleTableRecord
  2
SLDTEXTSTYLE3
 70
     0
 40
0.0
 41
0.948
 50
0.0
 71
     0
 42
3.0
  3
ARIALBD.TTF
  4

1001
ACAD
1000
Arial
1071
 33554722
  0
ENDTAB
  0
TABLE
  2
VIEW
  5
6
330
0
100
AcDbSymbolTable
 70
     0
  0
ENDTAB
  0
TABLE
  2
UCS
  5
7
330
0
100
AcDbSymbolTable
 70
     0
  0
ENDTAB
  0
TABLE
  2
APPID
  5
9
330
0
100
AcDbSymbolTable
 70
     1
  0
APPID
  5
12
330
9
100
AcDbSymbolTableRecord
100
AcDbRegAppTableRecord
  2
ACAD
 70
     0
  0
ENDTAB
  0
TABLE
  2
DIMSTYLE
  5
A
330
0
100
AcDbSymbolTable
 70
     4
100
AcDbDimStyleTable
  0
DIMSTYLE
105
27
330
A
100
AcDbSymbolTableRecord
100
AcDbDimStyleTableRecord
  2
ISO-25
 70
     0
 41
2.5
 42
0.625
 43
3.75
 44
1.25
 73
     0
 74
     0
 77
     1
 78
     8
140
2.5
141
2.5
143
0.0393700787
147
0.625
171
     3
172
     1
178
     0
271
     2
272
     2
274
     3
278
    44
283
     0
284
     8
340
11
  0
DIMSTYLE
105
19C
330
A
100
AcDbSymbolTableRecord
100
AcDbDimStyleTableRecord
  2
SLDDIMSTYLE0
 70
     0
 41
2.5
 44
0.0
 45
0.000000001
146
2.5
147
0.0
173
     1
178
     0
271
     0
272
     0
276
     2
340
11
  0
DIMSTYLE
105
1A1
102
{ACAD_REACTORS
330
1A0
330
1AB
330
1B5
330
1BF
330
1C9
330
1D3
330
1DC
330
2F4
330
30B
102
}
330
A
100
AcDbSymbolTableRecord
100
AcDbDimStyleTableRecord
  2
SLDDIMSTYLE1
 70
     0
 41
2.5
 44
0.0
 45
0.000000001
 73
     0
 74
     0
 77
     1
 78
    12
 79
     3
140
3.0
147
0.75
173
     1
178
     0
271
     3
272
     3
276
     2
284
    12
340
7C
  0
DIMSTYLE
105
2FF
102
{ACAD_REACTORS
330
2FE
102
}
330
A
100
AcDbSymbolTableRecord
100
AcDbDimStyleTableRecord
  2
SLDDIMSTYLE2
 70
     0
 41
2.5
 44
0.0
 45
0.000000001
 73
     0
 74
     0
 77
     1
 78
    12
 79
     3
140
3.0
147
0.75
172
     1
173
     1
178
     0
271
     3
272
     3
276
     2
284
    12
289
     0
340
7C
  0
ENDTAB
  0
TABLE
  2
BLOCK_RECORD
  5
1
330
0
100
AcDbSymbolTable
 70
    24
  0
BLOCK_RECORD
  5
1F
330
1
100
AcDbSymbolTableRecord
100
AcDbBlockTableRecord
  2
*Model_Space
340
22
  0
BLOCK_RECORD
  5
1B
330
1
100
AcDbSymbolTableRecord
100
AcDbBlockTableRecord
  2
*Paper_Space
340
1E
  0
BLOCK_RECORD
  5
23
330
1
100
AcDbSymbolTableRecord
100
AcDbBlockTableRecord
  2
*Paper_Space0
340
26
  0
BLOCK_RECORD
  5
75
330
1
100
AcDbSymbolTableRecord
100
AcDbBlockTableRecord
  2
Änderungsindex a
340
0
  0
BLOCK_RECORD
  5
78
330
1
100
AcDbSymbolTableRecord
100
AcDbBlockTableRecord
  2
SW_NOTE_0
340
0
102
{BLKREFS
331
7E
102
}
  0
BLOCK_RECORD
  5
7F
330
1
100
AcDbSymbolTableRecord
100
AcDbBlockTableRecord
  2
Text Zuluft
340
0
102
{BLKREFS
331
19E
102
}
  0
BLOCK_RECORD
  5
82
330
1
100
AcDbSymbolTableRecord
100
AcDbBlockTableRecord
  2
SW_NOTE_1
340
0
102
{BLKREFS
331
89
102
}
  0
BLOCK_RECORD
  5
8A
330
1
100
AcDbSymbolTableRecord
100
AcDbBlockTableRecord
  2
Text Abluft
340
0
102
{BLKREFS
331
19B
102
}
  0
BLOCK_RECORD
  5
8D
330
1
100
AcDbSymbolTableRecord
100
AcDbBlockTableRecord
  2
SW_NOTE_2
340
0
102
{BLKREFS
331
94
102
}
  0
BLOCK_RECORD
  5
124
330
1
100
AcDbSymbolTableRecord
100
AcDbBlockTableRecord
  2
SW_NOTE_3
340
0
102
{BLKREFS
331
12D
102
}
  0
BLOCK_RECORD
  5
12F
330
1
100
AcDbSymbolTableRecord
100
AcDbBlockTableRecord
  2
SW_NOTE_4
340
0
102
{BLKREFS
331
134
102
}
  0
BLOCK_RECORD
  5
1A2
330
1
100
AcDbSymbolTableRecord
100
AcDbBlockTableRecord
  2
_D
340
0
  0
BLOCK_RECORD
  5
1AC
330
1
100
AcDbSymbolTableRecord
100
AcDbBlockTableRecord
  2
_D_1
340
0
  0
BLOCK_RECORD
  5
1B6
330
1
100
AcDbSymbolTableRecord
100
AcDbBlockTableRecord
  2
_D_2
340
0
  0
BLOCK_RECORD
  5
1C0
330
1
100
AcDbSymbolTableRecord
100
AcDbBlockTableRecord
  2
_D_3
340
0
  0
BLOCK_RECORD
  5
1CA
330
1
100
AcDbSymbolTableRecord
100
AcDbBlockTableRecord
  2
_D_4
340
0
  0
BLOCK_RECORD
  5
1D4
330
1
100
AcDbSymbolTableRecord
100
AcDbBlockTableRecord
  2
_D_5
340
0
  0
BLOCK_RECORD
  5
1DD
330
1
100
AcDbSymbolTableRecord
100
AcDbBlockTableRecord
  2
_D_6
340
0
  0
BLOCK_RECORD
  5
1E6
330
1
100
AcDbSymbolTableRecord
100
AcDbBlockTableRecord
  2
SW_CENTERMARKSYMBOL_0
340
0
102
{BLKREFS
331
1F1
102
}
  0
BLOCK_RECORD
  5
2F5
330
1
100
AcDbSymbolTableRecord
100
AcDbBlockTableRecord
  2
_D_7
340
0
  0
BLOCK_RECORD
  5
300
330
1
100
AcDbSymbolTableRecord
100
AcDbBlockTableRecord
  2
_D_8
340
0
  0
BLOCK_RECORD
  5
30C
330
1
100
AcDbSymbolTableRecord
100
AcDbBlockTableRecord
  2
_D_9
340
0
  0
BLOCK_RECORD
  5
315
330
1
100
AcDbSymbolTableRecord
100
AcDbBlockTableRecord
  2
SW_CENTERMARKSYMBOL_1
340
0
102
{BLKREFS
331
320
102
}
  0
BLOCK_RECORD
  5
321
330
1
100
AcDbSymbolTableRecord
100
AcDbBlockTableRecord
  2
SW_CENTERMARKSYMBOL_2
340
0
102
{BLKREFS
331
32C
102
}
  0
BLOCK_RECORD
  5
32D
330
1
100
AcDbSymbolTableRecord
100
AcDbBlockTableRecord
  2
SW_CENTERMARKSYMBOL_3
340
0
102
{BLKREFS
331
338
102
}
  0
BLOCK_RECORD
  5
339
330
1
100
AcDbSymbolTableRecord
100
AcDbBlockTableRecord
  2
SW_CENTERMARKSYMBOL_4
340
0
102
{BLKREFS
331
344
102
}
  0
ENDTAB
  0
ENDSEC
  0
SECTION
  2
BLOCKS
  0
BLOCK
  5
20
330
1F
100
AcDbEntity
  8
0
100
AcDbBlockBegin
  2
*Model_Space
 70
     0
 10
0.0
 20
0.0
 30
0.0
  3
*Model_Space
  1

  0
ENDBLK
  5
21
330
1F
100
AcDbEntity
  8
0
100
AcDbBlockEnd
  0
BLOCK
  5
1C
330
1B
100
AcDbEntity
 67
     1
  8
0
100
AcDbBlockBegin
  2
*Paper_Space
 70
     0
 10
0.0
 20
0.0
 30
0.0
  3
*Paper_Space
  1

  0
ENDBLK
  5
1D
330
1B
100
AcDbEntity
 67
     1
  8
0
100
AcDbBlockEnd
  0
BLOCK
  5
24
330
23
100
AcDbEntity
  8
0
100
AcDbBlockBegin
  2
*Paper_Space0
 70
     0
 10
0.0
 20
0.0
 30
0.0
  3
*Paper_Space0
  1

  0
ENDBLK
  5
25
330
23
100
AcDbEntity
  8
0
100
AcDbBlockEnd
  0
BLOCK
  5
76
330
75
100
AcDbEntity
  8
0
100
AcDbBlockBegin
  2
Änderungsindex a
 70
     0
 10
0.0
 20
0.0
 30
0.0
  3
Änderungsindex a
  1

  0
INSERT
  5
7E
330
75
100
AcDbEntity
  8
0
  6
Continuous
 62
     7
370
     0
100
AcDbBlockReference
  2
SW_NOTE_0
 10
-2.6785442717
 20
-4.2179726306
 30
0.0
  0
ENDBLK
  5
77
330
75
100
AcDbEntity
  8
0
100
AcDbBlockEnd
  0
BLOCK
  5
79
330
78
100
AcDbEntity
  8
0
100
AcDbBlockBegin
  2
SW_NOTE_0
 70
     0
 10
0.0
 20
0.0
 30
0.0
  3
SW_NOTE_0
  1

  0
CIRCLE
  5
7B
330
78
100
AcDbEntity
  8
0
  6
SLD-Durchgehend
 62
     0
370
     0
100
AcDbCircle
 10
2.2903442717
 20
4.4413809806
 30
0.0
 40
4.60970460902865
  0
MTEXT
  5
7D
330
78
100
AcDbEntity
  8
0
  6
Continuous
 62
     0
370
     0
100
AcDbMText
 10
0.0
 20
7.7344064386
 30
0.0
 40
6.0
 41
0.0
 71
     1
 72
     1
  1
a
  7
SLDTEXTSTYLE0
 73
     1
 44
1.0
  0
ENDBLK
  5
7A
330
78
100
AcDbEntity
  8
0
100
AcDbBlockEnd
  0
BLOCK
  5
80
330
7F
100
AcDbEntity
  8
0
100
AcDbBlockBegin
  2
Text Zuluft
 70
     0
 10
0.0
 20
0.0
 30
0.0
  3
Text Zuluft
  1

  0
INSERT
  5
89
330
7F
100
AcDbEntity
  8
0
  6
SLD-Durchgehend
 62
     7
370
     0
100
AcDbBlockReference
  2
SW_NOTE_1
 10
0.0
 20
7.9354514905
 30
0.0
  0
ENDBLK
  5
81
330
7F
100
AcDbEntity
  8
0
100
AcDbBlockEnd
  0
BLOCK
  5
83
330
82
100
AcDbEntity
  8
0
100
AcDbBlockBegin
  2
SW_NOTE_1
 70
     0
 10
0.0
 20
0.0
 30
0.0
  3
SW_NOTE_1
  1

  0
MTEXT
  5
85
330
82
100
AcDbEntity
  8
0
  6
SLD-Durchgehend
 62
     0
370
     0
100
AcDbMText
 10
0.0
 20
3.8672032193
 30
0.0
 40
3.0
 41
0.0
 71
     1
 72
     1
  1
G 1/4
  7
SLDTEXTSTYLE0
 73
     1
 44
1.0
  0
MTEXT
  5
86
330
82
100
AcDbEntity
  8
0
  6
SLD-Durchgehend
 62
     0
370
     0
100
AcDbMText
 10
0.0
 20
-0.1327969707
 30
0.0
 40
3.0
 41
0.0
 71
     1
 72
     1
  1
Zuluft
  7
SLDTEXTSTYLE0
 73
     1
 44
1.0
  0
MTEXT
  5
87
330
82
100
AcDbEntity
  8
0
  6
SLD-Durchgehend
 62
     0
370
     0
100
AcDbMText
 10
0.0
 20
-4.1327971607
 30
0.0
 40
3.0
 41
0.0
 71
     1
 72
     1
  1
Air supply
  7
SLDTEXTSTYLE0
 73
     1
 44
1.0
  0
MTEXT
  5
88
330
82
100
AcDbEntity
  8
0
  6
SLD-Durchgehend
 62
     0
370
     0
100
AcDbMText
 10
0.0
 20
-8.1327973507
 30
0.0
 40
3.0
 41
0.0
 71
     1
 72
     1
  1
Arrivée d´air
  7
SLDTEXTSTYLE0
 73
     1
 44
1.0
  0
ENDBLK
  5
84
330
82
100
AcDbEntity
  8
0
100
AcDbBlockEnd
  0
BLOCK
  5
8B
330
8A
100
AcDbEntity
  8
0
100
AcDbBlockBegin
  2
Text Abluft
 70
     0
 10
0.0
 20
0.0
 30
0.0
  3
Text Abluft
  1

  0
INSERT
  5
94
330
8A
100
AcDbEntity
  8
0
  6
SLD-Durchgehend
 62
     7
370
     0
100
AcDbBlockReference
  2
SW_NOTE_2
 10
0.0438152488
 20
7.8085249423
 30
0.0
  0
ENDBLK
  5
8C
330
8A
100
AcDbEntity
  8
0
100
AcDbBlockEnd
  0
BLOCK
  5
8E
330
8D
100
AcDbEntity
  8
0
100
AcDbBlockBegin
  2
SW_NOTE_2
 70
     0
 10
0.0
 20
0.0
 30
0.0
  3
SW_NOTE_2
  1

  0
MTEXT
  5
90
330
8D
100
AcDbEntity
  8
0
  6
SLD-Durchgehend
 62
     0
370
     0
100
AcDbMText
 10
0.0
 20
3.8672032193
 30
0.0
 40
3.0
 41
0.0
 71
     1
 72
     1
  1
G 1/4
  7
SLDTEXTSTYLE0
 73
     1
 44
1.0
  0
MTEXT
  5
91
330
8D
100
AcDbEntity
  8
0
  6
SLD-Durchgehend
 62
     0
370
     0
100
AcDbMText
 10
0.0
 20
-0.1327969707
 30
0.0
 40
3.0
 41
0.0
 71
     1
 72
     1
  1
Abluft
  7
SLDTEXTSTYLE0
 73
     1
 44
1.0
  0
MTEXT
  5
92
330
8D
100
AcDbEntity
  8
0
  6
SLD-Durchgehend
 62
     0
370
     0
100
AcDbMText
 10
0.0
 20
-4.1327971607
 30
0.0
 40
3.0
 41
0.0
 71
     1
 72
     1
  1
Exhaust
  7
SLDTEXTSTYLE0
 73
     1
 44
1.0
  0
MTEXT
  5
93
330
8D
100
AcDbEntity
  8
0
  6
SLD-Durchgehend
 62
     0
370
     0
100
AcDbMText
 10
0.0
 20
-8.1327973507
 30
0.0
 40
3.0
 41
0.0
 71
     1
 72
     1
  1
Echappement
  7
SLDTEXTSTYLE0
 73
     1
 44
1.0
  0
ENDBLK
  5
8F
330
8D
100
AcDbEntity
  8
0
100
AcDbBlockEnd
  0
BLOCK
  5
125
330
124
100
AcDbEntity
  8
0
100
AcDbBlockBegin
  2
SW_NOTE_3
 70
     0
 10
0.0
 20
0.0
 30
0.0
  3
SW_NOTE_3
  1

  0
MTEXT
  5
127
330
124
100
AcDbEntity
  8
0
  6
Continuous
 62
     0
370
     0
100
AcDbMText
 10
0.0
 20
2.3874608764
 30
0.0
 40
1.8520833333
 41
0.0
 71
     1
 72
     1
  1
Tel.: +49 6134 2901-0, www.
  7
SLDTEXTSTYLE0
 73
     1
 44
1.0
  0
MTEXT
  5
129
330
124
100
AcDbEntity
  8
0
  6
Continuous
 62
     0
370
     0
100
AcDbMText
 10
31.6226072609
 20
2.2325681125
 30
0.0
 40
1.8520833333
 41
0.0
 71
     1
 72
     1
  1
Netter
  7
SLDTEXTSTYLE1
 73
     1
 44
1.0
  0
MTEXT
  5
12B
330
124
100
AcDbEntity
  8
0
  6
Continuous
 62
     0
370
     0
100
AcDbMText
 10
39.4425168633
 20
2.3157006648
 30
0.0
 40
1.8520833333
 41
0.0
 71
     1
 72
     1
  1
Vibration
  7
SLDTEXTSTYLE2
 73
     1
 44
1.0
  0
MTEXT
  5
12C
330
124
100
AcDbEntity
  8
0
  6
Continuous
 62
     0
370
     0
100
AcDbMText
 10
49.1865314543
 20
2.3874608764
 30
0.0
 40
1.8520833333
 41
0.0
 71
     1
 72
     1
  1
.com
  7
SLDTEXTSTYLE0
 73
     1
 44
1.0
  0
ENDBLK
  5
126
330
124
100
AcDbEntity
  8
0
100
AcDbBlockEnd
  0
BLOCK
  5
130
330
12F
100
AcDbEntity
  8
0
100
AcDbBlockBegin
  2
SW_NOTE_4
 70
     0
 10
0.0
 20
0.0
 30
0.0
  3
SW_NOTE_4
  1

  0
MTEXT
  5
132
330
12F
100
AcDbEntity
  8
0
  6
Continuous
 62
     0
370
     0
100
AcDbMText
 10
0.0
 20
4.8649193548
 30
0.0
 40
3.96875
 41
0.0
 71
     1
 72
     1
  1
Netter
  7
SLDTEXTSTYLE1
 73
     1
 44
1.0
  0
MTEXT
  5
133
330
12F
100
AcDbEntity
  8
0
  6
Continuous
 62
     0
370
     0
100
AcDbMText
 10
16.7569443583
 20
5.0430605384
 30
0.0
 40
3.96875
 41
0.0
 71
     1
 72
     1
  1
Vibration
  7
SLDTEXTSTYLE2
 73
     1
 44
1.0
  0
ENDBLK
  5
131
330
12F
100
AcDbEntity
  8
0
100
AcDbBlockEnd
  0
BLOCK
  5
1A3
330
1A2
100
AcDbEntity
  8
0
100
AcDbBlockBegin
  2
_D
 70
     0
 10
0.0
 20
0.0
 30
0.0
  3
_D
  1

  0
SOLID
  5
1A5
330
1A2
100
AcDbEntity
  8
0
  6
SLD-Durchgehend
 62
     7
370
     0
100
AcDbTrace
 10
33.2555176123
 20
145.0072262027
 30
0.0
 11
35.7555176123
 21
144.5672262027
 31
0.0
 12
35.7555176123
 22
145.4472262027
 32
0.0
 13
35.7555176123
 23
145.4472262027
 33
0.0
  0
SOLID
  5
1A6
330
1A2
100
AcDbEntity
  8
0
  6
SLD-Durchgehend
 62
     7
370
     0
100
AcDbTrace
 10
146.2555176123
 20
145.0072262027
 30
0.0
 11
143.7555176123
 21
145.4472262027
 31
0.0
 12
143.7555176123
 22
144.5672262027
 32
0.0
 13
143.7555176123
 23
144.5672262027
 33
0.0
  0
LINE
  5
1A7
330
1A2
100
AcDbEntity
  8
0
  6
SLD-Durchgehend
 62
     7
370
     0
100
AcDbLine
 10
33.2555176123
 20
165.847214641
 30
0.0
 11
33.2555176123
 21
144.0072262027
 31
0.0
  0
LINE
  5
1A8
330
1A2
100
AcDbEntity
  8
0
  6
SLD-Durchgehend
 62
     7
370
     0
100
AcDbLine
 10
146.2555176123
 20
165.847214641
 30
0.0
 11
146.2555176123
 21
144.0072262027
 31
0.0
  0
LINE
  5
1A9
330
1A2
100
AcDbEntity
  8
0
  6
SLD-Durchgehend
 62
     7
370
     0
100
AcDbLine
 10
33.2555176123
 20
145.0072262027
 30
0.0
 11
146.2555176123
 21
145.0072262027
 31
0.0
  0
MTEXT
  5
1AA
330
1A2
100
AcDbEntity
  8
0
  6
SLD-Durchgehend
 62
     7
370
     0
100
AcDbMText
 10
86.3185676123
 20
148.8744296548
 30
0.0
 40
3.0
 41
0.0
 71
     1
 72
     1
  1
113
  7
SLDTEXTSTYLE0
 73
     1
 44
1.0
  0
ENDBLK
  5
1A4
330
1A2
100
AcDbEntity
  8
0
100
AcDbBlockEnd
  0
BLOCK
  5
1AD
330
1AC
100
AcDbEntity
  8
0
100
AcDbBlockBegin
  2
_D_1
 70
     0
 10
0.0
 20
0.0
 30
0.0
  3
_D_1
  1

  0
SOLID
  5
1AF
330
1AC
100
AcDbEntity
  8
0
  6
SLD-Durchgehend
 62
     7
370
     0
100
AcDbTrace
 10
157.6771883755
 20
182.847214641
 30
0.0
 11
157.2371883755
 21
180.347214641
 31
0.0
 12
158.1171883755
 22
180.347214641
 32
0.0
 13
158.1171883755
 23
180.347214641
 33
0.0
  0
SOLID
  5
1B0
330
1AC
100
AcDbEntity
  8
0
  6
SLD-Durchgehend
 62
     7
370
     0
100
AcDbTrace
 10
157.6771883755
 20
166.847214641
 30
0.0
 11
158.1171883755
 21
169.347214641
 31
0.0
 12
157.2371883755
 22
169.347214641
 32
0.0
 13
157.2371883755
 23
169.347214641
 33
0.0
  0
LINE
  5
1B1
330
1AC
100
AcDbEntity
  8
0
  6
SLD-Durchgehend
 62
     7
370
     0
100
AcDbLine
 10
147.2555176123
 20
182.847214641
 30
0.0
 11
158.6771883755
 21
182.847214641
 31
0.0
  0
LINE
  5
1B2
330
1AC
100
AcDbEntity
  8
0
  6
SLD-Durchgehend
 62
     7
370
     0
100
AcDbLine
 10
147.2555176123
 20
166.847214641
 30
0.0
 11
158.6771883755
 21
166.847214641
 31
0.0
  0
LINE
  5
1B3
330
1AC
100
AcDbEntity
  8
0
  6
SLD-Durchgehend
 62
     7
370
     0
100
AcDbLine
 10
157.6771883755
 20
182.847214641
 30
0.0
 11
157.6771883755
 21
166.847214641
 31
0.0
  0
MTEXT
  5
1B4
330
1AC
100
AcDbEntity
  8
0
  6
SLD-Durchgehend
 62
     7
370
     0
100
AcDbMText
 10
153.8099849234
 20
172.557014641
 30
0.0
 40
3.0
 41
0.0
 71
     1
 72
     1
  1
16
  7
SLDTEXTSTYLE0
 11
-7.044195017643634E-15
 21
1.0
 31
0.0
 73
     1
 44
1.0
  0
ENDBLK
  5
1AE
330
1AC
100
AcDbEntity
  8
0
100
AcDbBlockEnd
  0
BLOCK
  5
1B7
330
1B6
100
AcDbEntity
  8
0
100
AcDbBlockBegin
  2
_D_2
 70
     0
 10
0.0
 20
0.0
 30
0.0
  3
_D_2
  1

  0
SOLID
  5
1B9
330
1B6
100
AcDbEntity
  8
0
  6
SLD-Durchgehend
 62
     7
370
     0
100
AcDbTrace
 10
170.2555176123
 20
231.847214641
 30
0.0
 11
169.8155176123
 21
229.347214641
 31
0.0
 12
170.6955176123
 22
229.347214641
 32
0.0
 13
170.6955176123
 23
229.347214641
 33
0.0
  0
SOLID
  5
1BA
330
1B6
100
AcDbEntity
  8
0
  6
SLD-Durchgehend
 62
     7
370
     0
100
AcDbTrace
 10
170.2555176123
 20
166.847214641
 30
0.0
 11
170.6955176123
 21
169.347214641
 31
0.0
 12
169.8155176123
 22
169.347214641
 32
0.0
 13
169.8155176123
 23
169.347214641
 33
0.0
  0
LINE
  5
1BB
330
1B6
100
AcDbEntity
  8
0
  6
SLD-Durchgehend
 62
     7
370
     0
100
AcDbLine
 10
123.2555176123
 20
231.847214641
 30
0.0
 11
171.2555176123
 21
231.847214641
 31
0.0
  0
LINE
  5
1BC
330
1B6
100
AcDbEntity
  8
0
  6
SLD-Durchgehend
 62
     7
370
     0
100
AcDbLine
 10
147.2555176123
 20
166.847214641
 30
0.0
 11
171.2555176123
 21
166.847214641
 31
0.0
  0
LINE
  5
1BD
330
1B6
100
AcDbEntity
  8
0
  6
SLD-Durchgehend
 62
     7
370
     0
100
AcDbLine
 10
170.2555176123
 20
231.847214641
 30
0.0
 11
170.2555176123
 21
166.847214641
 31
0.0
  0
MTEXT
  5
1BE
330
1B6
100
AcDbEntity
  8
0
  6
SLD-Durchgehend
 62
     7
370
     0
100
AcDbMText
 10
166.3883141602
 20
197.057014641
 30
0.0
 40
3.0
 41
0.0
 71
     1
 72
     1
  1
65
  7
SLDTEXTSTYLE0
 11
-7.044195017643634E-15
 21
1.0
 31
0.0
 73
     1
 44
1.0
  0
ENDBLK
  5
1B8
330
1B6
100
AcDbEntity
  8
0
100
AcDbBlockEnd
  0
BLOCK
  5
1C1
330
1C0
100
AcDbEntity
  8
0
100
AcDbBlockBegin
  2
_D_3
 70
     0
 10
0.0
 20
0.0
 30
0.0
  3
_D_3
  1

  0
SOLID
  5
1C3
330
1C0
100
AcDbEntity
  8
0
  6
SLD-Durchgehend
 62
     7
370
     0
100
AcDbTrace
 10
184.2555176123
 20
266.847214641
 30
0.0
 11
183.8155176123
 21
264.347214641
 31
0.0
 12
184.6955176123
 22
264.347214641
 32
0.0
 13
184.6955176123
 23
264.347214641
 33
0.0
  0
SOLID
  5
1C4
330
1C0
100
AcDbEntity
  8
0
  6
SLD-Durchgehend
 62
     7
370
     0
100
AcDbTrace
 10
184.2555176123
 20
166.847214641
 30
0.0
 11
184.6955176123
 21
169.347214641
 31
0.0
 12
183.8155176123
 22
169.347214641
 32
0.0
 13
183.8155176123
 23
169.347214641
 33
0.0
  0
LINE
  5
1C5
330
1C0
100
AcDbEntity
  8
0
  6
SLD-Durchgehend
 62
     7
370
     0
100
AcDbLine
 10
83.7555176123
 20
266.847214641
 30
0.0
 11
185.2555176123
 21
266.847214641
 31
0.0
  0
LINE
  5
1C6
330
1C0
100
AcDbEntity
  8
0
  6
SLD-Durchgehend
 62
     7
370
     0
100
AcDbLine
 10
147.2555176123
 20
166.847214641
 30
0.0
 11
185.2555176123
 21
166.847214641
 31
0.0
  0
LINE
  5
1C7
330
1C0
100
AcDbEntity
  8
0
  6
SLD-Durchgehend
 62
     7
370
     0
100
AcDbLine
 10
184.2555176123
 20
266.847214641
 30
0.0
 11
184.2555176123
 21
166.847214641
 31
0.0
  0
MTEXT
  5
1C8
330
1C0
100
AcDbEntity
  8
0
  6
SLD-Durchgehend
 62
     7
370
     0
100
AcDbMText
 10
180.3883141602
 20
213.410264641
 30
0.0
 40
3.0
 41
0.0
 71
     1
 72
     1
  1
100
  7
SLDTEXTSTYLE0
 11
-7.044195017643634E-15
 21
1.0
 31
0.0
 73
     1
 44
1.0
  0
ENDBLK
  5
1C2
330
1C0
100
AcDbEntity
  8
0
100
AcDbBlockEnd
  0
BLOCK
  5
1CB
330
1CA
100
AcDbEntity
  8
0
100
AcDbBlockBegin
  2
_D_4
 70
     0
 10
0.0
 20
0.0
 30
0.0
  3
_D_4
  1

  0
SOLID
  5
1CD
330
1CA
100
AcDbEntity
  8
0
  6
SLD-Durchgehend
 62
     7
370
     0
100
AcDbTrace
 10
57.2555176123
 20
276.847214641
 30
0.0
 11
59.7555176123
 21
276.407214641
 31
0.0
 12
59.7555176123
 22
277.287214641
 32
0.0
 13
59.7555176123
 23
277.287214641
 33
0.0
  0
SOLID
  5
1CE
330
1CA
100
AcDbEntity
  8
0
  6
SLD-Durchgehend
 62
     7
370
     0
100
AcDbTrace
 10
122.2555176123
 20
276.847214641
 30
0.0
 11
119.7555176123
 21
277.287214641
 31
0.0
 12
119.7555176123
 22
276.407214641
 32
0.0
 13
119.7555176123
 23
276.407214641
 33
0.0
  0
LINE
  5
1CF
330
1CA
100
AcDbEntity
  8
0
  6
SLD-Durchgehend
 62
     7
370
     0
100
AcDbLine
 10
57.2555176123
 20
232.847214641
 30
0.0
 11
57.2555176123
 21
277.847214641
 31
0.0
  0
LINE
  5
1D0
330
1CA
100
AcDbEntity
  8
0
  6
SLD-Durchgehend
 62
     7
370
     0
100
AcDbLine
 10
122.2555176123
 20
232.847214641
 30
0.0
 11
122.2555176123
 21
277.847214641
 31
0.0
  0
LINE
  5
1D1
330
1CA
100
AcDbEntity
  8
0
  6
SLD-Durchgehend
 62
     7
370
     0
100
AcDbLine
 10
57.2555176123
 20
276.847214641
 30
0.0
 11
122.2555176123
 21
276.847214641
 31
0.0
  0
MTEXT
  5
1D2
330
1CA
100
AcDbEntity
  8
0
  6
SLD-Durchgehend
 62
     7
370
     0
100
AcDbMText
 10
87.4653176123
 20
280.7144180931
 30
0.0
 40
3.0
 41
0.0
 71
     1
 72
     1
  1
65
  7
SLDTEXTSTYLE0
 73
     1
 44
1.0
  0
ENDBLK
  5
1CC
330
1CA
100
AcDbEntity
  8
0
100
AcDbBlockEnd
  0
BLOCK
  5
1D5
330
1D4
100
AcDbEntity
  8
0
100
AcDbBlockBegin
  2
_D_5
 70
     0
 10
0.0
 20
0.0
 30
0.0
  3
_D_5
  1

  0
SOLID
  5
1D7
330
1D4
100
AcDbEntity
  8
0
  6
SLD-Durchgehend
 62
     7
370
     0
100
AcDbTrace
 10
53.4217361498
 20
175.847214641
 30
0.0
 11
52.9817361498
 21
173.347214641
 31
0.0
 12
53.8617361498
 22
173.347214641
 32
0.0
 13
53.8617361498
 23
173.347214641
 33
0.0
  0
SOLID
  5
1D8
330
1D4
100
AcDbEntity
  8
0
  6
SLD-Durchgehend
 62
     7
370
     0
100
AcDbTrace
 10
53.4217361498
 20
166.847214641
 30
0.0
 11
53.8617361498
 21
169.347214641
 31
0.0
 12
52.9817361498
 22
169.347214641
 32
0.0
 13
52.9817361498
 23
169.347214641
 33
0.0
  0
LINE
  5
1D9
330
1D4
100
AcDbEntity
  8
0
  6
SLD-Durchgehend
 62
     7
370
     0
100
AcDbLine
 10
63.7555176123
 20
175.847214641
 30
0.0
 11
52.4217361498
 21
175.847214641
 31
0.0
  0
LINE
  5
1DA
330
1D4
100
AcDbEntity
  8
0
  6
SLD-Durchgehend
 62
     7
370
     0
100
AcDbLine
 10
53.4217361498
 20
175.847214641
 30
0.0
 11
53.4217361498
 21
166.847214641
 31
0.0
  0
MTEXT
  5
1DB
330
1D4
100
AcDbEntity
  8
0
  6
SLD-Durchgehend
 62
     7
370
     0
100
AcDbMText
 10
49.5545326976
 20
170.2013813527
 30
0.0
 40
3.0
 41
0.0
 71
     1
 72
     1
  1
9
  7
SLDTEXTSTYLE0
 11
-7.044195017643634E-15
 21
1.0
 31
0.0
 73
     1
 44
1.0
  0
ENDBLK
  5
1D6
330
1D4
100
AcDbEntity
  8
0
100
AcDbBlockEnd
  0
BLOCK
  5
1DE
330
1DD
100
AcDbEntity
  8
0
100
AcDbBlockBegin
  2
_D_6
 70
     0
 10
0.0
 20
0.0
 30
0.0
  3
_D_6
  1

  0
SOLID
  5
1E0
330
1DD
100
AcDbEntity
  8
0
  6
SLD-Durchgehend
 62
     7
370
     0
100
AcDbTrace
 10
64.7555176123
 20
156.847214641
 30
0.0
 11
67.2555176123
 21
156.407214641
 31
0.0
 12
67.2555176123
 22
157.287214641
 32
0.0
 13
67.2555176123
 23
157.287214641
 33
0.0
  0
SOLID
  5
1E1
330
1DD
100
AcDbEntity
  8
0
  6
SLD-Durchgehend
 62
     7
370
     0
100
AcDbTrace
 10
114.7555176123
 20
156.847214641
 30
0.0
 11
112.2555176123
 21
157.287214641
 31
0.0
 12
112.2555176123
 22
156.407214641
 32
0.0
 13
112.2555176123
 23
156.407214641
 33
0.0
  0
LINE
  5
1E2
330
1DD
100
AcDbEntity
  8
0
  6
SLD-Durchgehend
 62
     7
370
     0
100
AcDbLine
 10
64.7555176123
 20
174.847214641
 30
0.0
 11
64.7555176123
 21
155.847214641
 31
0.0
  0
LINE
  5
1E3
330
1DD
100
AcDbEntity
  8
0
  6
SLD-Durchgehend
 62
     7
370
     0
100
AcDbLine
 10
114.7555176123
 20
174.847214641
 30
0.0
 11
114.7555176123
 21
155.847214641
 31
0.0
  0
LINE
  5
1E4
330
1DD
100
AcDbEntity
  8
0
  6
SLD-Durchgehend
 62
     7
370
     0
100
AcDbLine
 10
64.7555176123
 20
156.847214641
 30
0.0
 11
114.7555176123
 21
156.847214641
 31
0.0
  0
MTEXT
  5
1E5
330
1DD
100
AcDbEntity
  8
0
  6
SLD-Durchgehend
 62
     7
370
     0
100
AcDbMText
 10
87.4638510357
 20
160.7144180931
 30
0.0
 40
3.0
 41
0.0
 71
     1
 72
     1
  1
50
  7
SLDTEXTSTYLE0
 73
     1
 44
1.0
  0
ENDBLK
  5
1DF
330
1DD
100
AcDbEntity
  8
0
100
AcDbBlockEnd
  0
BLOCK
  5
1E7
330
1E6
100
AcDbEntity
  8
0
100
AcDbBlockBegin
  2
SW_CENTERMARKSYMBOL_0
 70
     0
 10
0.0
 20
0.0
 30
0.0
  3
SW_CENTERMARKSYMBOL_0
  1

  0
LINE
  5
1E9
330
1E6
100
AcDbEntity
  8
0
  6
SLD-Durchgehend
 62
     0
370
     0
100
AcDbLine
 10
0.0
 20
0.0
 30
0.0
 11
0.0
 21
1.0
 31
0.0
  0
LINE
  5
1EA
330
1E6
100
AcDbEntity
  8
0
  6
SLD-Durchgehend
 62
     0
370
     0
100
AcDbLine
 10
0.0
 20
0.0
 30
0.0
 11
-1.0
 21
0.0
 31
0.0
  0
LINE
  5
1EB
330
1E6
100
AcDbEntity
  8
0
  6
SLD-Durchgehend
 62
     0
370
     0
100
AcDbLine
 10
0.0
 20
0.0
 30
0.0
 11
0.0
 21
-1.0
 31
0.0
  0
LINE
  5
1EC
330
1E6
100
AcDbEntity
  8
0
  6
SLD-Durchgehend
 62
     0
370
     0
100
AcDbLine
 10
0.0
 20
0.0
 30
0.0
 11
1.0
 21
0.0
 31
0.0
  0
LINE
  5
1ED
330
1E6
100
AcDbEntity
  8
0
  6
SLD-Durchgehend
 62
     0
370
     0
100
AcDbLine
 10
0.0
 20
2.0
 30
0.0
 11
0.0
 21
23.25
 31
0.0
  0
LINE
  5
1EE
330
1E6
100
AcDbEntity
  8
0
  6
SLD-Durchgehend
 62
     0
370
     0
100
AcDbLine
 10
-2.0
 20
0.0
 30
0.0
 11
-23.25
 21
0.0
 31
0.0
  0
LINE
  5
1EF
330
1E6
100
AcDbEntity
  8
0
  6
SLD-Durchgehend
 62
     0
370
     0
100
AcDbLine
 10
0.0
 20
-2.0
 30
0.0
 11
0.0
 21
-23.25
 31
0.0
  0
LINE
  5
1F0
330
1E6
100
AcDbEntity
  8
0
  6
SLD-Durchgehend
 62
     0
370
     0
100
AcDbLine
 10
2.0
 20
0.0
 30
0.0
 11
23.25
 21
0.0
 31
0.0
  0
ENDBLK
  5
1E8
330
1E6
100
AcDbEntity
  8
0
100
AcDbBlockEnd
  0
BLOCK
  5
2F6
330
2F5
100
AcDbEntity
  8
0
100
AcDbBlockBegin
  2
_D_7
 70
     0
 10
0.0
 20
0.0
 30
0.0
  3
_D_7
  1

  0
SOLID
  5
2F8
330
2F5
100
AcDbEntity
  8
0
  6
SLD-Durchgehend
 62
     7
370
     0
100
AcDbTrace
 10
269.0265684221
 20
96.1200431034
 30
0.0
 11
271.5265684221
 21
95.6800431034
 31
0.0
 12
271.5265684221
 22
96.5600431034
 32
0.0
 13
271.5265684221
 23
96.5600431034
 33
0.0
  0
SOLID
  5
2F9
330
2F5
100
AcDbEntity
  8
0
  6
SLD-Durchgehend
 62
     7
370
     0
100
AcDbTrace
 10
359.0265684221
 20
96.1200431034
 30
0.0
 11
356.5265684221
 21
96.5600431034
 31
0.0
 12
356.5265684221
 22
95.6800431034
 32
0.0
 13
356.5265684221
 23
95.6800431034
 33
0.0
  0
LINE
  5
2FA
330
2F5
100
AcDbEntity
  8
0
  6
SLD-Durchgehend
 62
     7
370
     0
100
AcDbLine
 10
269.0265684221
 20
112.6200431034
 30
0.0
 11
269.0265684221
 21
95.1200431034
 31
0.0
  0
LINE
  5
2FB
330
2F5
100
AcDbEntity
  8
0
  6
SLD-Durchgehend
 62
     7
370
     0
100
AcDbLine
 10
359.0265684221
 20
112.6200431034
 30
0.0
 11
359.0265684221
 21
95.1200431034
 31
0.0
  0
LINE
  5
2FC
330
2F5
100
AcDbEntity
  8
0
  6
SLD-Durchgehend
 62
     7
370
     0
100
AcDbLine
 10
269.0265684221
 20
96.1200431034
 30
0.0
 11
359.0265684221
 21
96.1200431034
 31
0.0
  0
MTEXT
  5
2FD
330
2F5
100
AcDbEntity
  8
0
  6
SLD-Durchgehend
 62
     7
370
     0
100
AcDbMText
 10
311.7363684221
 20
99.9872465556
 30
0.0
 40
3.0
 41
0.0
 71
     1
 72
     1
  1
90
  7
SLDTEXTSTYLE0
 73
     1
 44
1.0
  0
ENDBLK
  5
2F7
330
2F5
100
AcDbEntity
  8
0
100
AcDbBlockEnd
  0
BLOCK
  5
301
330
300
100
AcDbEntity
  8
0
100
AcDbBlockBegin
  2
_D_8
 70
     0
 10
0.0
 20
0.0
 30
0.0
  3
_D_8
  1

  0
SOLID
  5
303
330
300
100
AcDbEntity
  8
0
  6
SLD-Durchgehend
 62
     7
370
     0
100
AcDbTrace
 10
247.4024945303
 20
123.6200431034
 30
0.0
 11
247.8424945303
 21
126.1200431034
 31
0.0
 12
246.9624945303
 22
126.1200431034
 32
0.0
 13
246.9624945303
 23
126.1200431034
 33
0.0
  0
SOLID
  5
304
330
300
100
AcDbEntity
  8
0
  6
SLD-Durchgehend
 62
     7
370
     0
100
AcDbTrace
 10
247.4024945303
 20
114.6200431034
 30
0.0
 11
246.9624945303
 21
112.1200431034
 31
0.0
 12
247.8424945303
 22
112.1200431034
 32
0.0
 13
247.8424945303
 23
112.1200431034
 33
0.0
  0
LINE
  5
305
330
300
100
AcDbEntity
  8
0
  6
SLD-Durchgehend
 62
     7
370
     0
100
AcDbLine
 10
256.5265684221
 20
123.6200431034
 30
0.0
 11
246.4024945303
 21
123.6200431034
 31
0.0
  0
LINE
  5
306
330
300
100
AcDbEntity
  8
0
  6
SLD-Durchgehend
 62
     7
370
     0
100
AcDbLine
 10
256.5265684221
 20
114.6200431034
 30
0.0
 11
246.4024945303
 21
114.6200431034
 31
0.0
  0
LINE
  5
307
330
300
100
AcDbEntity
  8
0
  6
SLD-Durchgehend
 62
     7
370
     0
100
AcDbLine
 10
247.4024945303
 20
123.6200431034
 30
0.0
 11
247.4024945303
 21
127.1200431034
 31
0.0
  0
LINE
  5
308
330
300
100
AcDbEntity
  8
0
  6
SLD-Durchgehend
 62
     7
370
     0
100
AcDbLine
 10
247.4024945303
 20
123.6200431034
 30
0.0
 11
247.4024945303
 21
114.6200431034
 31
0.0
  0
LINE
  5
309
330
300
100
AcDbEntity
  8
0
  6
SLD-Durchgehend
 62
     7
370
     0
100
AcDbLine
 10
247.4024945303
 20
114.6200431034
 30
0.0
 11
247.4024945303
 21
111.1200431034
 31
0.0
  0
MTEXT
  5
30A
330
300
100
AcDbEntity
  8
0
  6
SLD-Durchgehend
 62
     7
370
     0
100
AcDbMText
 10
243.5352910782
 20
117.9749431034
 30
0.0
 40
3.0
 41
0.0
 71
     1
 72
     1
  1
9
  7
SLDTEXTSTYLE0
 11
-1.326144395554451E-14
 21
1.0
 31
0.0
 73
     1
 44
1.0
  0
ENDBLK
  5
302
330
300
100
AcDbEntity
  8
0
100
AcDbBlockEnd
  0
BLOCK
  5
30D
330
30C
100
AcDbEntity
  8
0
100
AcDbBlockBegin
  2
_D_9
 70
     0
 10
0.0
 20
0.0
 30
0.0
  3
_D_9
  1

  0
SOLID
  5
30F
330
30C
100
AcDbEntity
  8
0
  6
SLD-Durchgehend
 62
     7
370
     0
100
AcDbTrace
 10
235.6600408005
 20
132.1200431034
 30
0.0
 11
235.2200408005
 21
129.6200431034
 31
0.0
 12
236.1000408005
 22
129.6200431034
 32
0.0
 13
236.1000408005
 23
129.6200431034
 33
0.0
  0
SOLID
  5
310
330
30C
100
AcDbEntity
  8
0
  6
SLD-Durchgehend
 62
     7
370
     0
100
AcDbTrace
 10
235.6600408005
 20
106.1200431034
 30
0.0
 11
236.1000408005
 21
108.6200431034
 31
0.0
 12
235.2200408005
 22
108.6200431034
 32
0.0
 13
235.2200408005
 23
108.6200431034
 33
0.0
  0
LINE
  5
311
330
30C
100
AcDbEntity
  8
0
  6
SLD-Durchgehend
 62
     7
370
     0
100
AcDbLine
 10
256.5265684221
 20
132.1200431034
 30
0.0
 11
234.6600408005
 21
132.1200431034
 31
0.0
  0
LINE
  5
312
330
30C
100
AcDbEntity
  8
0
  6
SLD-Durchgehend
 62
     7
370
     0
100
AcDbLine
 10
256.5265684221
 20
106.1200431034
 30
0.0
 11
234.6600408005
 21
106.1200431034
 31
0.0
  0
LINE
  5
313
330
30C
100
AcDbEntity
  8
0
  6
SLD-Durchgehend
 62
     7
370
     0
100
AcDbLine
 10
235.6600408005
 20
132.1200431034
 30
0.0
 11
235.6600408005
 21
106.1200431034
 31
0.0
  0
MTEXT
  5
314
330
30C
100
AcDbEntity
  8
0
  6
SLD-Durchgehend
 62
     7
370
     0
100
AcDbMText
 10
231.7928373483
 20
116.8298431034
 30
0.0
 40
3.0
 41
0.0
 71
     1
 72
     1
  1
26
  7
SLDTEXTSTYLE0
 11
-1.414962237524464E-14
 21
1.0
 31
0.0
 73
     1
 44
1.0
  0
ENDBLK
  5
30E
330
30C
100
AcDbEntity
  8
0
100
AcDbBlockEnd
  0
BLOCK
  5
316
330
315
100
AcDbEntity
  8
0
100
AcDbBlockBegin
  2
SW_CENTERMARKSYMBOL_1
 70
     0
 10
0.0
 20
0.0
 30
0.0
  3
SW_CENTERMARKSYMBOL_1
  1

  0
LINE
  5
318
330
315
100
AcDbEntity
  8
0
  6
SLD-Durchgehend
 62
     0
370
     0
100
AcDbLine
 10
0.0
 20
0.0
 30
0.0
 11
0.0
 21
1.0
 31
0.0
  0
LINE
  5
319
330
315
100
AcDbEntity
  8
0
  6
SLD-Durchgehend
 62
     0
370
     0
100
AcDbLine
 10
0.0
 20
0.0
 30
0.0
 11
-1.0
 21
0.0
 31
0.0
  0
LINE
  5
31A
330
315
100
AcDbEntity
  8
0
  6
SLD-Durchgehend
 62
     0
370
     0
100
AcDbLine
 10
0.0
 20
0.0
 30
0.0
 11
0.0
 21
-1.0
 31
0.0
  0
LINE
  5
31B
330
315
100
AcDbEntity
  8
0
  6
SLD-Durchgehend
 62
     0
370
     0
100
AcDbLine
 10
0.0
 20
0.0
 30
0.0
 11
1.0
 21
0.0
 31
0.0
  0
LINE
  5
31C
330
315
100
AcDbEntity
  8
0
  6
SLD-Durchgehend
 62
     0
370
     0
100
AcDbLine
 10
0.0
 20
2.0
 30
0.0
 11
0.0
 21
5.5
 31
0.0
  0
LINE
  5
31D
330
315
100
AcDbEntity
  8
0
  6
SLD-Durchgehend
 62
     0
370
     0
100
AcDbLine
 10
-2.0
 20
0.0
 30
0.0
 11
-5.5
 21
0.0
 31
0.0
  0
LINE
  5
31E
330
315
100
AcDbEntity
  8
0
  6
SLD-Durchgehend
 62
     0
370
     0
100
AcDbLine
 10
0.0
 20
-2.0
 30
0.0
 11
0.0
 21
-5.5
 31
0.0
  0
LINE
  5
31F
330
315
100
AcDbEntity
  8
0
  6
SLD-Durchgehend
 62
     0
370
     0
100
AcDbLine
 10
2.0
 20
0.0
 30
0.0
 11
5.5
 21
0.0
 31
0.0
  0
ENDBLK
  5
317
330
315
100
AcDbEntity
  8
0
100
AcDbBlockEnd
  0
BLOCK
  5
322
330
321
100
AcDbEntity
  8
0
100
AcDbBlockBegin
  2
SW_CENTERMARKSYMBOL_2
 70
     0
 10
0.0
 20
0.0
 30
0.0
  3
SW_CENTERMARKSYMBOL_2
  1

  0
LINE
  5
324
330
321
100
AcDbEntity
  8
0
  6
SLD-Durchgehend
 62
     0
370
     0
100
AcDbLine
 10
0.0
 20
0.0
 30
0.0
 11
0.0
 21
1.0
 31
0.0
  0
LINE
  5
325
330
321
100
AcDbEntity
  8
0
  6
SLD-Durchgehend
 62
     0
370
     0
100
AcDbLine
 10
0.0
 20
0.0
 30
0.0
 11
-1.0
 21
0.0
 31
0.0
  0
LINE
  5
326
330
321
100
AcDbEntity
  8
0
  6
SLD-Durchgehend
 62
     0
370
     0
100
AcDbLine
 10
0.0
 20
0.0
 30
0.0
 11
0.0
 21
-1.0
 31
0.0
  0
LINE
  5
327
330
321
100
AcDbEntity
  8
0
  6
SLD-Durchgehend
 62
     0
370
     0
100
AcDbLine
 10
0.0
 20
0.0
 30
0.0
 11
1.0
 21
0.0
 31
0.0
  0
LINE
  5
328
330
321
100
AcDbEntity
  8
0
  6
SLD-Durchgehend
 62
     0
370
     0
100
AcDbLine
 10
0.0
 20
2.0
 30
0.0
 11
0.0
 21
5.5
 31
0.0
  0
LINE
  5
329
330
321
100
AcDbEntity
  8
0
  6
SLD-Durchgehend
 62
     0
370
     0
100
AcDbLine
 10
-2.0
 20
0.0
 30
0.0
 11
-5.5
 21
0.0
 31
0.0
  0
LINE
  5
32A
330
321
100
AcDbEntity
  8
0
  6
SLD-Durchgehend
 62
     0
370
     0
100
AcDbLine
 10
0.0
 20
-2.0
 30
0.0
 11
0.0
 21
-5.5
 31
0.0
  0
LINE
  5
32B
330
321
100
AcDbEntity
  8
0
  6
SLD-Durchgehend
 62
     0
370
     0
100
AcDbLine
 10
2.0
 20
0.0
 30
0.0
 11
5.5
 21
0.0
 31
0.0
  0
ENDBLK
  5
323
330
321
100
AcDbEntity
  8
0
100
AcDbBlockEnd
  0
BLOCK
  5
32E
330
32D
100
AcDbEntity
  8
0
100
AcDbBlockBegin
  2
SW_CENTERMARKSYMBOL_3
 70
     0
 10
0.0
 20
0.0
 30
0.0
  3
SW_CENTERMARKSYMBOL_3
  1

  0
LINE
  5
330
330
32D
100
AcDbEntity
  8
0
  6
SLD-Durchgehend
 62
     0
370
     0
100
AcDbLine
 10
0.0
 20
0.0
 30
0.0
 11
0.0
 21
1.0
 31
0.0
  0
LINE
  5
331
330
32D
100
AcDbEntity
  8
0
  6
SLD-Durchgehend
 62
     0
370
     0
100
AcDbLine
 10
0.0
 20
0.0
 30
0.0
 11
-1.0
 21
0.0
 31
0.0
  0
LINE
  5
332
330
32D
100
AcDbEntity
  8
0
  6
SLD-Durchgehend
 62
     0
370
     0
100
AcDbLine
 10
0.0
 20
0.0
 30
0.0
 11
0.0
 21
-1.0
 31
0.0
  0
LINE
  5
333
330
32D
100
AcDbEntity
  8
0
  6
SLD-Durchgehend
 62
     0
370
     0
100
AcDbLine
 10
0.0
 20
0.0
 30
0.0
 11
1.0
 21
0.0
 31
0.0
  0
LINE
  5
334
330
32D
100
AcDbEntity
  8
0
  6
SLD-Durchgehend
 62
     0
370
     0
100
AcDbLine
 10
0.0
 20
2.0
 30
0.0
 11
0.0
 21
10.25
 31
0.0
  0
LINE
  5
335
330
32D
100
AcDbEntity
  8
0
  6
SLD-Durchgehend
 62
     0
370
     0
100
AcDbLine
 10
-2.0
 20
0.0
 30
0.0
 11
-10.25
 21
0.0
 31
0.0
  0
LINE
  5
336
330
32D
100
AcDbEntity
  8
0
  6
SLD-Durchgehend
 62
     0
370
     0
100
AcDbLine
 10
0.0
 20
-2.0
 30
0.0
 11
0.0
 21
-10.25
 31
0.0
  0
LINE
  5
337
330
32D
100
AcDbEntity
  8
0
  6
SLD-Durchgehend
 62
     0
370
     0
100
AcDbLine
 10
2.0
 20
0.0
 30
0.0
 11
10.25
 21
0.0
 31
0.0
  0
ENDBLK
  5
32F
330
32D
100
AcDbEntity
  8
0
100
AcDbBlockEnd
  0
BLOCK
  5
33A
330
339
100
AcDbEntity
  8
0
100
AcDbBlockBegin
  2
SW_CENTERMARKSYMBOL_4
 70
     0
 10
0.0
 20
0.0
 30
0.0
  3
SW_CENTERMARKSYMBOL_4
  1

  0
LINE
  5
33C
330
339
100
AcDbEntity
  8
0
  6
SLD-Durchgehend
 62
     0
370
     0
100
AcDbLine
 10
0.0
 20
0.0
 30
0.0
 11
0.0
 21
1.0
 31
0.0
  0
LINE
  5
33D
330
339
100
AcDbEntity
  8
0
  6
SLD-Durchgehend
 62
     0
370
     0
100
AcDbLine
 10
0.0
 20
0.0
 30
0.0
 11
-1.0
 21
0.0
 31
0.0
  0
LINE
  5
33E
330
339
100
AcDbEntity
  8
0
  6
SLD-Durchgehend
 62
     0
370
     0
100
AcDbLine
 10
0.0
 20
0.0
 30
0.0
 11
0.0
 21
-1.0
 31
0.0
  0
LINE
  5
33F
330
339
100
AcDbEntity
  8
0
  6
SLD-Durchgehend
 62
     0
370
     0
100
AcDbLine
 10
0.0
 20
0.0
 30
0.0
 11
1.0
 21
0.0
 31
0.0
  0
LINE
  5
340
330
339
100
AcDbEntity
  8
0
  6
SLD-Durchgehend
 62
     0
370
     0
100
AcDbLine
 10
0.0
 20
2.0
 30
0.0
 11
0.0
 21
7.7225
 31
0.0
  0
LINE
  5
341
330
339
100
AcDbEntity
  8
0
  6
SLD-Durchgehend
 62
     0
370
     0
100
AcDbLine
 10
-2.0
 20
0.0
 30
0.0
 11
-7.7225
 21
0.0
 31
0.0
  0
LINE
  5
342
330
339
100
AcDbEntity
  8
0
  6
SLD-Durchgehend
 62
     0
370
     0
100
AcDbLine
 10
0.0
 20
-2.0
 30
0.0
 11
0.0
 21
-7.7225
 31
0.0
  0
LINE
  5
343
330
339
100
AcDbEntity
  8
0
  6
SLD-Durchgehend
 62
     0
370
     0
100
AcDbLine
 10
2.0
 20
0.0
 30
0.0
 11
7.7225
 21
0.0
 31
0.0
  0
ENDBLK
  5
33B
330
339
100
AcDbEntity
  8
0
100
AcDbBlockEnd
  0
ENDSEC
  0
SECTION
  2
ENTITIES
  0
HATCH
  5
95
330
1F
100
AcDbEntity
  8
0
  6
Continuous
 62
    52
100
AcDbHatch
 10
0.0
 20
0.0
 30
0.0
210
0.0
220
0.0
230
1.0
  2
SOLID
 70
     1
 71
     0
 91
        1
 92
        0
 93
        6
 72
     2
 10
397.2166905884209
 20
27.19368183392314
 40
9.336383935046287
 50
28.83743273930608
 51
198.8193368338523
 73
     1
 72
     1
 10
388.3794255903911
 20
24.18190290159952
 11
388.7816097341537
 21
24.18190290159952
 72
     1
 10
388.7816097341537
 20
24.18190290159952
 11
390.8103449730125
 21
31.54854125382066
 72
     1
 10
390.8103449730125
 20
31.54854125382066
 11
392.6133250240622
 21
31.54854125382066
 72
     2
 10
398.3341692458886
 20
29.54038196427235
 40
6.063065424569007
 50
199.3423480985319
 51
339.1651749394908
 73
     0
 72
     1
 10
404.0007687940603
 20
31.69686333522489
 11
405.3952859047894
 21
31.69686333522489
 97
        0
 75
     0
 76
     1
 98
        1
 10
0.0
 20
0.0
  0
HATCH
  5
96
330
1F
100
AcDbEntity
  8
0
  6
Continuous
 62
     7
100
AcDbHatch
 10
0.0
 20
0.0
 30
0.0
210
0.0
220
0.0
230
1.0
  2
SOLID
 70
     1
 71
     0
 91
        2
 92
        0
 93
        6
 72
     1
 10
390.9093832949075
 20
31.41854125382066
 11
392.7062226385282
 21
31.41854125382066
 72
     2
 10
398.3341692458886
 20
29.54038196427235
 40
5.933065424568984
 50
198.4548941224166
 51
340.0282228512785
 73
     0
 72
     1
 10
403.9104259280544
 20
31.56686333522489
 11
405.6123864120185
 21
31.56686333522489
 72
     2
 10
397.2166905884209
 20
27.19368183392314
 40
9.46638393504625
 50
27.51427472226174
 51
199.3834076115143
 73
     1
 72
     1
 10
388.2868725641771
 20
24.05190290159952
 11
388.8806480560487
 21
24.05190290159952
 72
     1
 10
388.8806480560487
 20
24.05190290159952
 11
390.9093832949075
 21
31.41854125382066
 97
        0
 92
        0
 93
        6
 72
     1
 10
388.7816097341537
 20
24.18190290159952
 11
388.3794255903911
 21
24.18190290159952
 72
     2
 10
397.2166905884209
 20
27.19368183392314
 40
9.336383935046287
 50
161.1806631661485
 51
331.1625672606947
 73
     0
 72
     1
 10
405.3952859047894
 20
31.69686333522489
 11
404.0007687940603
 21
31.69686333522489
 72
     2
 10
398.3341692458886
 20
29.54038196427235
 40
6.063065424569007
 50
20.83482506051003
 51
160.6576519014689
 73
     1
 72
     1
 10
392.6133250240622
 20
31.54854125382066
 11
390.8103449730125
 21
31.54854125382066
 72
     1
 10
390.8103449730125
 20
31.54854125382066
 11
388.7816097341537
 21
24.18190290159952
 97
        0
 75
     0
 76
     1
 98
        1
 10
0.0
 20
0.0
  0
HATCH
  5
97
330
1F
100
AcDbEntity
  8
0
  6
Continuous
 62
     7
100
AcDbHatch
 10
0.0
 20
0.0
 30
0.0
210
0.0
220
0.0
230
1.0
  2
SOLID
 70
     1
 71
     0
 91
        1
 92
        0
 93
       10
 72
     1
 10
391.2557525416791
 20
31.17133921476775
 11
389.4249433061572
 21
24.10134359540109
 72
     1
 10
389.4249433061572
 20
24.10134359540109
 11
391.9979725360537
 21
24.10134359540109
 72
     1
 10
391.9979725360537
 20
24.10134359540109
 11
392.9875987755306
 21
27.90826414852663
 72
     1
 10
392.9875987755306
 20
27.90826414852663
 11
394.5215202651154
 21
24.1013435954011
 72
     1
 10
394.5215202651154
 20
24.1013435954011
 11
397.1935124966802
 21
24.1013435954011
 72
     1
 10
397.1935124966802
 20
24.1013435954011
 11
398.8758772296985
 21
31.07245782716463
 72
     1
 10
398.8758772296985
 20
31.07245782716463
 11
396.4512925023055
 21
31.07245782716463
 72
     1
 10
396.4512925023055
 20
31.07245782716463
 11
395.5606280054266
 21
27.16665660141341
 72
     1
 10
395.5606280054266
 20
27.16665660141341
 11
393.8782632724091
 21
31.17133921476775
 72
     1
 10
393.8782632724091
 20
31.17133921476775
 11
391.2557525416791
 21
31.17133921476775
 97
        0
 75
     0
 76
     1
 98
        1
 10
0.0
 20
0.0
  0
HATCH
  5
98
330
1F
100
AcDbEntity
  8
0
  6
Continuous
 62
     7
100
AcDbHatch
 10
0.0
 20
0.0
 30
0.0
210
0.0
220
0.0
230
1.0
  2
SOLID
 70
     1
 71
     0
 91
        2
 92
        0
 93
        3
 72
     1
 10
393.1360432780339
 20
26.3261669517193
 11
392.5549013500252
 21
24.05190290159952
 72
     1
 10
392.5549013500252
 20
24.05190290159952
 11
394.0761880166766
 21
24.05190290159952
 72
     1
 10
394.0761880166766
 20
24.05190290159952
 11
393.1360432780339
 21
26.3261669517193
 97
        0
 92
        0
 93
        3
 72
     1
 10
393.8817783160101
 20
24.18190290159951
 11
392.7222972997866
 21
24.18190290159952
 72
     1
 10
392.7222972997866
 20
24.18190290159952
 11
393.1652269908361
 21
25.91528165906799
 72
     1
 10
393.1652269908361
 20
25.91528165906799
 11
393.8817783160101
 21
24.18190290159951
 97
        0
 75
     0
 76
     1
 98
        1
 10
0.0
 20
0.0
  0
HATCH
  5
99
330
1F
100
AcDbEntity
  8
0
  6
Continuous
 62
    52
100
AcDbHatch
 10
0.0
 20
0.0
 30
0.0
210
0.0
220
0.0
230
1.0
  2
SOLID
 70
     1
 71
     0
 91
        1
 92
        0
 93
        3
 72
     1
 10
393.1652269908361
 20
25.91528165906799
 11
392.7222972997866
 21
24.18190290159952
 72
     1
 10
392.7222972997866
 20
24.18190290159952
 11
393.8817783160101
 21
24.18190290159951
 72
     1
 10
393.8817783160101
 20
24.18190290159951
 11
393.1652269908361
 21
25.91528165906799
 97
        0
 75
     0
 76
     1
 98
        1
 10
0.0
 20
0.0
  0
HATCH
  5
9A
330
1F
100
AcDbEntity
  8
0
  6
Continuous
 62
     7
100
AcDbHatch
 10
0.0
 20
0.0
 30
0.0
210
0.0
220
0.0
230
1.0
  2
SOLID
 70
     1
 71
     0
 91
        1
 92
        0
 93
        8
 72
     1
 10
399.4696539806409
 20
31.12189852096661
 11
398.7274339862658
 21
28.25434757518244
 72
     1
 10
398.7274339862658
 20
28.25434757518244
 11
399.1727662347047
 21
24.00246292277559
 72
     1
 10
399.1727662347047
 20
24.00246292277559
 11
402.3395709564733
 21
24.00246292277559
 72
     1
 10
402.3395709564733
 20
24.00246292277559
 11
406.5454846776286
 21
31.07245782718087
 72
     1
 10
406.5454846776286
 20
31.07245782718087
 11
403.7745294443889
 21
31.07245782718087
 72
     1
 10
403.7745294443889
 20
31.07245782718087
 11
401.5478694612618
 21
27.0677752138452
 72
     1
 10
401.5478694612618
 20
27.0677752138452
 11
401.0530569710604
 21
31.12189852096661
 72
     1
 10
401.0530569710604
 20
31.12189852096661
 11
399.4696539806409
 21
31.12189852096661
 97
        0
 75
     0
 76
     1
 98
        1
 10
0.0
 20
0.0
  0
HATCH
  5
9B
330
1F
100
AcDbEntity
  8
0
  6
Continuous
 62
     7
100
AcDbHatch
 10
0.0
 20
0.0
 30
0.0
210
0.0
220
0.0
230
1.0
  2
SOLID
 70
     1
 71
     0
 91
        2
 92
        0
 93
        3
 72
     2
 10
398.60159497708
 20
26.88049322517953
 40
8.003675602344106
 50
339.303884922883
 51
377.0191257258724
 73
     1
 72
     1
 10
406.2547664701381
 20
29.22309631691353
 11
403.0323094500141
 21
24.05190290159952
 72
     1
 10
403.0323094500141
 20
24.05190290159952
 11
406.0887773529079
 21
24.05190290159952
 97
        0
 92
        0
 93
        3
 72
     1
 10
403.2664948845861
 20
24.18190290159952
 11
406.2102984795193
 21
28.90593107979706
 72
     2
 10
398.60159497708
 20
26.88049322517953
 40
7.873675602344119
 50
345.0935417050616
 51
380.0436402959713
 73
     0
 72
     1
 10
405.99837655804
 20
24.18190290159952
 11
403.2664948845861
 21
24.18190290159952
 97
        0
 75
     0
 76
     1
 98
        1
 10
0.0
 20
0.0
  0
HATCH
  5
9C
330
1F
100
AcDbEntity
  8
0
  6
Continuous
 62
    52
100
AcDbHatch
 10
0.0
 20
0.0
 30
0.0
210
0.0
220
0.0
230
1.0
  2
SOLID
 70
     1
 71
     0
 91
        1
 92
        0
 93
        3
 72
     2
 10
398.60159497708
 20
26.88049322517953
 40
7.873675602344119
 50
339.9563597040303
 51
374.90645829494
 73
     1
 72
     1
 10
406.2102984795193
 20
28.90593107979706
 11
403.2664948845861
 21
24.18190290159952
 72
     1
 10
403.2664948845861
 20
24.18190290159952
 11
405.99837655804
 21
24.18190290159952
 97
        0
 75
     0
 76
     1
 98
        1
 10
0.0
 20
0.0
  0
LINE
  5
9D
330
1F
100
AcDbEntity
  8
0
  6
SLD-Durchgehend
 62
     7
370
     0
100
AcDbLine
 10
222.0
 20
45.0
 30
0.0
 11
222.0
 21
10.0
 31
0.0
  0
LINE
  5
9E
330
1F
100
AcDbEntity
  8
0
  6
SLD-Durchgehend
 62
     7
370
     0
100
AcDbLine
 10
410.0
 20
65.0
 30
0.0
 11
410.0
 21
10.0
 31
0.0
  0
LINE
  5
9F
330
1F
100
AcDbEntity
  8
0
  6
SLD-Durchgehend
 62
     7
370
     0
100
AcDbLine
 10
222.0
 20
10.0
 30
0.0
 11
410.0
 21
10.0
 31
0.0
  0
LINE
  5
A0
330
1F
100
AcDbEntity
  8
0
  6
SLD-Durchgehend
 62
     7
370
     0
100
AcDbLine
 10
222.0
 20
10.0
 30
0.0
 11
410.0
 21
10.0
 31
0.0
  0
LINE
  5
A1
330
1F
100
AcDbEntity
  8
0
  6
SLD-Durchgehend
 62
     7
370
     0
100
AcDbLine
 10
410.0
 20
45.0
 30
0.0
 11
410.0
 21
10.0
 31
0.0
  0
LINE
  5
A2
330
1F
100
AcDbEntity
  8
0
  6
SLD-Durchgehend
 62
     7
370
     0
100
AcDbLine
 10
222.0
 20
45.0
 30
0.0
 11
410.0
 21
45.0
 31
0.0
  0
LINE
  5
A3
330
1F
100
AcDbEntity
  8
0
  6
SLD-Durchgehend
 62
     7
370
     0
100
AcDbLine
 10
345.0
 20
45.0
 30
0.0
 11
345.0
 21
10.0
 31
0.0
  0
LINE
  5
A4
330
1F
100
AcDbEntity
  8
0
  6
SLD-Durchgehend
 62
     7
370
     0
100
AcDbLine
 10
274.0
 20
45.0
 30
0.0
 11
274.0
 21
10.0
 31
0.0
  0
LINE
  5
A5
330
1F
100
AcDbEntity
  8
0
  6
SLD-Durchgehend
 62
     7
370
     0
100
AcDbLine
 10
222.0
 20
24.5
 30
0.0
 11
274.0
 21
24.5
 31
0.0
  0
LINE
  5
A6
330
1F
100
AcDbEntity
  8
0
  6
SLD-Durchgehend
 62
     7
370
     0
100
AcDbLine
 10
222.0
 20
17.25
 30
0.0
 11
274.0
 21
17.25
 31
0.0
  0
LINE
  5
A7
330
1F
100
AcDbEntity
  8
0
  6
SLD-Durchgehend
 62
     7
370
     0
100
AcDbLine
 10
388.2868725642
 20
24.0519029016
 30
0.0
 11
388.880648056
 21
24.0519029016
 31
0.0
  0
LINE
  5
A8
330
1F
100
AcDbEntity
  8
0
  6
SLD-Durchgehend
 62
     7
370
     0
100
AcDbLine
 10
388.880648056
 20
24.0519029016
 30
0.0
 11
390.9093832949
 21
31.4185412538
 31
0.0
  0
LINE
  5
A9
330
1F
100
AcDbEntity
  8
0
  6
SLD-Durchgehend
 62
     7
370
     0
100
AcDbLine
 10
390.9093832949
 20
31.4185412538
 30
0.0
 11
392.7062226385
 21
31.4185412538
 31
0.0
  0
LINE
  5
AA
330
1F
100
AcDbEntity
  8
0
  6
SLD-Durchgehend
 62
     7
370
     0
100
AcDbLine
 10
403.9104259281
 20
31.5668633352
 30
0.0
 11
405.612386412
 21
31.5668633352
 31
0.0
  0
LINE
  5
AB
330
1F
100
AcDbEntity
  8
0
  6
SLD-Durchgehend
 62
     7
370
     0
100
AcDbLine
 10
391.2557525417
 20
31.1713392148
 30
0.0
 11
393.8782632724
 21
31.1713392148
 31
0.0
  0
LINE
  5
AC
330
1F
100
AcDbEntity
  8
0
  6
SLD-Durchgehend
 62
     7
370
     0
100
AcDbLine
 10
393.8782632724
 20
31.1713392148
 30
0.0
 11
395.5606280054
 21
27.1666566014
 31
0.0
  0
LINE
  5
AD
330
1F
100
AcDbEntity
  8
0
  6
SLD-Durchgehend
 62
     7
370
     0
100
AcDbLine
 10
395.5606280054
 20
27.1666566014
 30
0.0
 11
396.4512925023
 21
31.0724578272
 31
0.0
  0
LINE
  5
AE
330
1F
100
AcDbEntity
  8
0
  6
SLD-Durchgehend
 62
     7
370
     0
100
AcDbLine
 10
396.4512925023
 20
31.0724578272
 30
0.0
 11
398.8758772297
 21
31.0724578272
 31
0.0
  0
LINE
  5
AF
330
1F
100
AcDbEntity
  8
0
  6
SLD-Durchgehend
 62
     7
370
     0
100
AcDbLine
 10
398.8758772297
 20
31.0724578272
 30
0.0
 11
397.1935124967
 21
24.1013435954
 31
0.0
  0
LINE
  5
B0
330
1F
100
AcDbEntity
  8
0
  6
SLD-Durchgehend
 62
     7
370
     0
100
AcDbLine
 10
397.1935124967
 20
24.1013435954
 30
0.0
 11
394.5215202651
 21
24.1013435954
 31
0.0
  0
LINE
  5
B1
330
1F
100
AcDbEntity
  8
0
  6
SLD-Durchgehend
 62
     7
370
     0
100
AcDbLine
 10
394.5215202651
 20
24.1013435954
 30
0.0
 11
392.9875987755
 21
27.9082641485
 31
0.0
  0
LINE
  5
B2
330
1F
100
AcDbEntity
  8
0
  6
SLD-Durchgehend
 62
     7
370
     0
100
AcDbLine
 10
392.9875987755
 20
27.9082641485
 30
0.0
 11
391.9979725361
 21
24.1013435954
 31
0.0
  0
LINE
  5
B3
330
1F
100
AcDbEntity
  8
0
  6
SLD-Durchgehend
 62
     7
370
     0
100
AcDbLine
 10
391.9979725361
 20
24.1013435954
 30
0.0
 11
389.4249433062
 21
24.1013435954
 31
0.0
  0
LINE
  5
B4
330
1F
100
AcDbEntity
  8
0
  6
SLD-Durchgehend
 62
     7
370
     0
100
AcDbLine
 10
389.4249433062
 20
24.1013435954
 30
0.0
 11
391.2557525417
 21
31.1713392148
 31
0.0
  0
LINE
  5
B5
330
1F
100
AcDbEntity
  8
0
  6
SLD-Durchgehend
 62
     7
370
     0
100
AcDbLine
 10
393.136043278
 20
26.3261669517
 30
0.0
 11
394.0761880167
 21
24.0519029016
 31
0.0
  0
LINE
  5
B6
330
1F
100
AcDbEntity
  8
0
  6
SLD-Durchgehend
 62
     7
370
     0
100
AcDbLine
 10
394.0761880167
 20
24.0519029016
 30
0.0
 11
392.55490135
 21
24.0519029016
 31
0.0
  0
LINE
  5
B7
330
1F
100
AcDbEntity
  8
0
  6
SLD-Durchgehend
 62
     7
370
     0
100
AcDbLine
 10
392.55490135
 20
24.0519029016
 30
0.0
 11
393.136043278
 21
26.3261669517
 31
0.0
  0
LINE
  5
B8
330
1F
100
AcDbEntity
  8
0
  6
SLD-Durchgehend
 62
     7
370
     0
100
AcDbLine
 10
399.4696539806
 20
31.121898521
 30
0.0
 11
401.0530569711
 21
31.121898521
 31
0.0
  0
LINE
  5
B9
330
1F
100
AcDbEntity
  8
0
  6
SLD-Durchgehend
 62
     7
370
     0
100
AcDbLine
 10
401.0530569711
 20
31.121898521
 30
0.0
 11
401.5478694613
 21
27.0677752138
 31
0.0
  0
LINE
  5
BA
330
1F
100
AcDbEntity
  8
0
  6
SLD-Durchgehend
 62
     7
370
     0
100
AcDbLine
 10
222.0
 20
10.0
 30
0.0
 11
410.0
 21
10.0
 31
0.0
  0
LINE
  5
BB
330
1F
100
AcDbEntity
  8
0
  6
SLD-Durchgehend
 62
     7
370
     0
100
AcDbLine
 10
401.5478694613
 20
27.0677752138
 30
0.0
 11
403.7745294444
 21
31.0724578272
 31
0.0
  0
LINE
  5
BC
330
1F
100
AcDbEntity
  8
0
  6
SLD-Durchgehend
 62
     7
370
     0
100
AcDbLine
 10
403.7745294444
 20
31.0724578272
 30
0.0
 11
406.5454846776
 21
31.0724578272
 31
0.0
  0
LINE
  5
BD
330
1F
100
AcDbEntity
  8
0
  6
SLD-Durchgehend
 62
     7
370
     0
100
AcDbLine
 10
406.5454846776
 20
31.0724578272
 30
0.0
 11
402.3395709565
 21
24.0024629228
 31
0.0
  0
LINE
  5
BE
330
1F
100
AcDbEntity
  8
0
  6
SLD-Durchgehend
 62
     7
370
     0
100
AcDbLine
 10
402.3395709565
 20
24.0024629228
 30
0.0
 11
399.1727662347
 21
24.0024629228
 31
0.0
  0
LINE
  5
BF
330
1F
100
AcDbEntity
  8
0
  6
SLD-Durchgehend
 62
     7
370
     0
100
AcDbLine
 10
399.1727662347
 20
24.0024629228
 30
0.0
 11
398.7274339863
 21
28.2543475752
 31
0.0
  0
LINE
  5
C0
330
1F
100
AcDbEntity
  8
0
  6
SLD-Durchgehend
 62
     7
370
     0
100
AcDbLine
 10
398.7274339863
 20
28.2543475752
 30
0.0
 11
399.4696539806
 21
31.121898521
 31
0.0
  0
LINE
  5
C1
330
1F
100
AcDbEntity
  8
0
  6
SLD-Durchgehend
 62
     7
370
     0
100
AcDbLine
 10
403.03230945
 20
24.0519029016
 30
0.0
 11
406.2547664701
 21
29.2230963169
 31
0.0
  0
LINE
  5
C2
330
1F
100
AcDbEntity
  8
0
  6
SLD-Durchgehend
 62
     7
370
     0
100
AcDbLine
 10
403.03230945
 20
24.0519029016
 30
0.0
 11
406.0887773529
 21
24.0519029016
 31
0.0
  0
LINE
  5
C3
330
1F
100
AcDbEntity
  8
0
  6
SLD-Durchgehend
 62
     7
370
     0
100
AcDbLine
 10
403.2664948846
 20
24.1819029016
 30
0.0
 11
405.998376558
 21
24.1819029016
 31
0.0
  0
LINE
  5
C4
330
1F
100
AcDbEntity
  8
0
  6
SLD-Durchgehend
 62
     7
370
     0
100
AcDbLine
 10
222.0
 20
10.0
 30
0.0
 11
410.0
 21
10.0
 31
0.0
  0
LINE
  5
C5
330
1F
100
AcDbEntity
  8
0
  6
SLD-Durchgehend
 62
     7
370
     0
100
AcDbLine
 10
410.0
 20
42.5
 30
0.0
 11
410.0
 21
10.0
 31
0.0
  0
LINE
  5
C6
330
1F
100
AcDbEntity
  8
0
  6
SLD-Durchgehend
 62
     7
370
     0
100
AcDbLine
 10
403.2664948846
 20
24.1819029016
 30
0.0
 11
406.2102984795
 21
28.9059310798
 31
0.0
  0
LINE
  5
C7
330
1F
100
AcDbEntity
  8
0
  6
SLD-Durchgehend
 62
     7
370
     0
100
AcDbLine
 10
404.0007687941
 20
31.6968633352
 30
0.0
 11
405.3952859048
 21
31.6968633352
 31
0.0
  0
LINE
  5
C8
330
1F
100
AcDbEntity
  8
0
  6
SLD-Durchgehend
 62
     7
370
     0
100
AcDbLine
 10
388.3794255904
 20
24.1819029016
 30
0.0
 11
388.7816097342
 21
24.1819029016
 31
0.0
  0
LINE
  5
C9
330
1F
100
AcDbEntity
  8
0
  6
SLD-Durchgehend
 62
     7
370
     0
100
AcDbLine
 10
388.7816097342
 20
24.1819029016
 30
0.0
 11
390.810344973
 21
31.5485412538
 31
0.0
  0
LINE
  5
CA
330
1F
100
AcDbEntity
  8
0
  6
SLD-Durchgehend
 62
     7
370
     0
100
AcDbLine
 10
390.810344973
 20
31.5485412538
 30
0.0
 11
392.6133250241
 21
31.5485412538
 31
0.0
  0
LINE
  5
CB
330
1F
100
AcDbEntity
  8
0
  6
SLD-Durchgehend
 62
     7
370
     0
100
AcDbLine
 10
393.1652269908
 20
25.9152816591
 30
0.0
 11
393.881778316
 21
24.1819029016
 31
0.0
  0
LINE
  5
CC
330
1F
100
AcDbEntity
  8
0
  6
SLD-Durchgehend
 62
     7
370
     0
100
AcDbLine
 10
393.881778316
 20
24.1819029016
 30
0.0
 11
392.7222972998
 21
24.1819029016
 31
0.0
  0
LINE
  5
CD
330
1F
100
AcDbEntity
  8
0
  6
SLD-Durchgehend
 62
     7
370
     0
100
AcDbLine
 10
392.7222972998
 20
24.1819029016
 30
0.0
 11
393.1652269908
 21
25.9152816591
 31
0.0
  0
LINE
  5
CE
330
1F
100
AcDbEntity
  8
0
  6
SLD-Durchgehend
 62
     7
370
     0
100
AcDbLine
 10
410.0
 20
50.5
 30
0.0
 11
410.0
 21
42.5
 31
0.0
  0
LINE
  5
CF
330
1F
100
AcDbEntity
  8
0
  6
SLD-Durchgehend
 62
     7
370
     0
100
AcDbLine
 10
410.0
 20
73.0
 30
0.0
 11
410.0
 21
65.0
 31
0.0
  0
LINE
  5
D0
330
1F
100
AcDbEntity
  8
0
  6
SLD-Durchgehend
 62
     7
370
     0
100
AcDbLine
 10
260.0
 20
10.0
 30
0.0
 11
260.0
 21
5.0
 31
0.0
  0
LINE
  5
D1
330
1F
100
AcDbEntity
  8
0
  6
SLD-Durchgehend
 62
     7
370
     0
100
AcDbLine
 10
410.0
 20
287.0
 30
0.0
 11
10.0
 21
287.0
 31
0.0
  0
LINE
  5
D2
330
1F
100
AcDbEntity
  8
0
  6
SLD-Durchgehend
 62
     7
370
     0
100
AcDbLine
 10
10.0
 20
10.0
 30
0.0
 11
410.0
 21
10.0
 31
0.0
  0
LINE
  5
D3
330
1F
100
AcDbEntity
  8
0
  6
SLD-Durchgehend
 62
     7
370
     0
100
AcDbLine
 10
5.0
 20
5.0
 30
0.0
 11
415.0
 21
5.0
 31
0.0
  0
LINE
  5
D4
330
1F
100
AcDbEntity
  8
0
  6
SLD-Durchgehend
 62
     7
370
     0
100
AcDbLine
 10
415.0
 20
292.0
 30
0.0
 11
5.0
 21
292.0
 31
0.0
  0
LINE
  5
D5
330
1F
100
AcDbEntity
  8
0
  6
SLD-Durchgehend
 62
     7
370
     0
100
AcDbLine
 10
310.0
 20
10.0
 30
0.0
 11
310.0
 21
5.0
 31
0.0
  0
LINE
  5
D6
330
1F
100
AcDbEntity
  8
0
  6
SLD-Durchgehend
 62
     7
370
     0
100
AcDbLine
 10
5.0
 20
292.0
 30
0.0
 11
5.0
 21
5.0
 31
0.0
  0
LINE
  5
D7
330
1F
100
AcDbEntity
  8
0
  6
SLD-Durchgehend
 62
     7
370
     0
100
AcDbLine
 10
10.0
 20
287.0
 30
0.0
 11
10.0
 21
191.5
 31
0.0
  0
LINE
  5
D8
330
1F
100
AcDbEntity
  8
0
  6
SLD-Durchgehend
 62
     7
370
     0
100
AcDbLine
 10
60.0
 20
10.0
 30
0.0
 11
60.0
 21
5.0
 31
0.0
  0
LINE
  5
D9
330
1F
100
AcDbEntity
  8
0
  6
SLD-Durchgehend
 62
     7
370
     0
100
AcDbLine
 10
10.0
 20
56.166
 30
0.0
 11
5.0
 21
56.166
 31
0.0
  0
LINE
  5
DA
330
1F
100
AcDbEntity
  8
0
  6
SLD-Durchgehend
 62
     7
370
     0
100
AcDbLine
 10
10.0
 20
102.332
 30
0.0
 11
5.0
 21
102.332
 31
0.0
  0
LINE
  5
DB
330
1F
100
AcDbEntity
  8
0
  6
SLD-Durchgehend
 62
     7
370
     0
100
AcDbLine
 10
10.0
 20
148.498
 30
0.0
 11
5.0
 21
148.498
 31
0.0
  0
LINE
  5
DC
330
1F
100
AcDbEntity
  8
0
  6
SLD-Durchgehend
 62
     7
370
     0
100
AcDbLine
 10
110.0
 20
10.0
 30
0.0
 11
110.0
 21
5.0
 31
0.0
  0
LINE
  5
DD
330
1F
100
AcDbEntity
  8
0
  6
SLD-Durchgehend
 62
     7
370
     0
100
AcDbLine
 10
360.0
 20
10.0
 30
0.0
 11
360.0
 21
5.0
 31
0.0
  0
LINE
  5
DE
330
1F
100
AcDbEntity
  8
0
  6
SLD-Durchgehend
 62
     7
370
     0
100
AcDbLine
 10
210.0
 20
10.0
 30
0.0
 11
210.0
 21
5.0
 31
0.0
  0
LINE
  5
DF
330
1F
100
AcDbEntity
  8
0
  6
SLD-Durchgehend
 62
     7
370
     0
100
AcDbLine
 10
160.0
 20
10.0
 30
0.0
 11
160.0
 21
5.0
 31
0.0
  0
LINE
  5
E0
330
1F
100
AcDbEntity
  8
0
  6
SLD-Durchgehend
 62
     7
370
     0
100
AcDbLine
 10
10.0
 20
194.664
 30
0.0
 11
5.0
 21
194.664
 31
0.0
  0
LINE
  5
E1
330
1F
100
AcDbEntity
  8
0
  6
SLD-Durchgehend
 62
     7
370
     0
100
AcDbLine
 10
10.0
 20
240.83
 30
0.0
 11
5.0
 21
240.83
 31
0.0
  0
LINE
  5
E2
330
1F
100
AcDbEntity
  8
0
  6
SLD-Durchgehend
 62
     7
370
     0
100
AcDbLine
 10
60.0
 20
292.0
 30
0.0
 11
60.0
 21
287.0
 31
0.0
  0
LINE
  5
E3
330
1F
100
AcDbEntity
  8
0
  6
SLD-Durchgehend
 62
     7
370
     0
100
AcDbLine
 10
110.0
 20
292.0
 30
0.0
 11
110.0
 21
287.0
 31
0.0
  0
LINE
  5
E4
330
1F
100
AcDbEntity
  8
0
  6
SLD-Durchgehend
 62
     7
370
     0
100
AcDbLine
 10
210.0
 20
292.0
 30
0.0
 11
210.0
 21
287.0
 31
0.0
  0
LINE
  5
E5
330
1F
100
AcDbEntity
  8
0
  6
SLD-Durchgehend
 62
     7
370
     0
100
AcDbLine
 10
160.0
 20
292.0
 30
0.0
 11
160.0
 21
287.0
 31
0.0
  0
LINE
  5
E6
330
1F
100
AcDbEntity
  8
0
  6
SLD-Durchgehend
 62
     7
370
     0
100
AcDbLine
 10
410.0
 20
287.0
 30
0.0
 11
410.0
 21
10.0
 31
0.0
  0
LINE
  5
E7
330
1F
100
AcDbEntity
  8
0
  6
SLD-Durchgehend
 62
     7
370
     0
100
AcDbLine
 10
415.0
 20
292.0
 30
0.0
 11
415.0
 21
5.0
 31
0.0
  0
LINE
  5
E8
330
1F
100
AcDbEntity
  8
0
  6
SLD-Durchgehend
 62
     7
370
     0
100
AcDbLine
 10
415.0
 20
56.166
 30
0.0
 11
410.0
 21
56.166
 31
0.0
  0
LINE
  5
E9
330
1F
100
AcDbEntity
  8
0
  6
SLD-Durchgehend
 62
     7
370
     0
100
AcDbLine
 10
415.0
 20
102.332
 30
0.0
 11
410.0
 21
102.332
 31
0.0
  0
LINE
  5
EA
330
1F
100
AcDbEntity
  8
0
  6
SLD-Durchgehend
 62
     7
370
     0
100
AcDbLine
 10
415.0
 20
148.498
 30
0.0
 11
410.0
 21
148.498
 31
0.0
  0
LINE
  5
EB
330
1F
100
AcDbEntity
  8
0
  6
SLD-Durchgehend
 62
     7
370
     0
100
AcDbLine
 10
260.0
 20
292.0
 30
0.0
 11
260.0
 21
287.0
 31
0.0
  0
LINE
  5
EC
330
1F
100
AcDbEntity
  8
0
  6
SLD-Durchgehend
 62
     7
370
     0
100
AcDbLine
 10
310.0
 20
292.0
 30
0.0
 11
310.0
 21
287.0
 31
0.0
  0
LINE
  5
ED
330
1F
100
AcDbEntity
  8
0
  6
SLD-Durchgehend
 62
     7
370
     0
100
AcDbLine
 10
415.0
 20
194.664
 30
0.0
 11
410.0
 21
194.664
 31
0.0
  0
LINE
  5
EE
330
1F
100
AcDbEntity
  8
0
  6
SLD-Durchgehend
 62
     7
370
     0
100
AcDbLine
 10
415.0
 20
240.83
 30
0.0
 11
410.0
 21
240.83
 31
0.0
  0
LINE
  5
EF
330
1F
100
AcDbEntity
  8
0
  6
SLD-Durchgehend
 62
     7
370
     0
100
AcDbLine
 10
360.0
 20
292.0
 30
0.0
 11
360.0
 21
287.0
 31
0.0
  0
LINE
  5
F0
330
1F
100
AcDbEntity
  8
0
  6
SLD-Durchgehend
 62
     7
370
     0
100
AcDbLine
 10
222.0
 20
5.0
 30
0.0
 11
222.0
 21
0.0
 31
0.0
  0
LINE
  5
F1
330
1F
100
AcDbEntity
  8
0
  6
SLD-Durchgehend
 62
     7
370
     0
100
AcDbLine
 10
120.0
 20
5.0
 30
0.0
 11
120.0
 21
0.0
 31
0.0
  0
LINE
  5
F2
330
1F
100
AcDbEntity
  8
0
  6
SLD-Durchgehend
 62
     7
370
     0
100
AcDbLine
 10
120.0
 20
292.0
 30
0.0
 11
120.0
 21
297.0
 31
0.0
  0
LINE
  5
F3
330
1F
100
AcDbEntity
  8
0
  6
SLD-Durchgehend
 62
     7
370
     0
100
AcDbLine
 10
222.0
 20
292.0
 30
0.0
 11
222.0
 21
297.0
 31
0.0
  0
LINE
  5
F4
330
1F
100
AcDbEntity
  8
0
  6
SLD-Durchgehend
 62
     7
370
     0
100
AcDbLine
 10
5.0
 20
148.5
 30
0.0
 11
0.0
 21
148.5
 31
0.0
  0
LINE
  5
F5
330
1F
100
AcDbEntity
  8
0
  6
SLD-Durchgehend
 62
     7
370
     0
100
AcDbLine
 10
10.0
 20
185.5
 30
0.0
 11
10.0
 21
111.5
 31
0.0
  0
LINE
  5
F6
330
1F
100
AcDbEntity
  8
0
  6
SLD-Durchgehend
 62
     7
370
     0
100
AcDbLine
 10
10.0
 20
105.5
 30
0.0
 11
10.0
 21
10.0
 31
0.0
  0
LINE
  5
F7
330
1F
100
AcDbEntity
  8
0
  6
SLD-Durchgehend
 62
     7
370
     0
100
AcDbLine
 10
222.0
 20
31.75
 30
0.0
 11
274.0
 21
31.75
 31
0.0
  0
LINE
  5
F8
330
1F
100
AcDbEntity
  8
0
  6
SLD-Durchgehend
 62
     7
370
     0
100
AcDbLine
 10
0.0
 20
0.0
 30
0.0
 11
420.0
 21
0.0
 31
0.0
  0
LINE
  5
F9
330
1F
100
AcDbEntity
  8
0
  6
SLD-Durchgehend
 62
     7
370
     0
100
AcDbLine
 10
0.0
 20
0.0
 30
0.0
 11
0.0
 21
297.0
 31
0.0
  0
LINE
  5
FA
330
1F
100
AcDbEntity
  8
0
  6
SLD-Durchgehend
 62
     7
370
     0
100
AcDbLine
 10
0.0
 20
297.0
 30
0.0
 11
420.0
 21
297.0
 31
0.0
  0
LINE
  5
FB
330
1F
100
AcDbEntity
  8
0
  6
SLD-Durchgehend
 62
     7
370
     0
100
AcDbLine
 10
420.0
 20
0.0
 30
0.0
 11
420.0
 21
297.0
 31
0.0
  0
CIRCLE
  5
FC
330
1F
100
AcDbEntity
  8
0
  6
SLD-Durchgehend
 62
     7
370
     0
100
AcDbCircle
 10
10.0
 20
188.5
 30
0.0
 40
3.000000000000001
  0
CIRCLE
  5
FD
330
1F
100
AcDbEntity
  8
0
  6
SLD-Durchgehend
 62
     7
370
     0
100
AcDbCircle
 10
10.0
 20
108.5
 30
0.0
 40
3.000000000000005
  0
ARC
  5
FE
330
1F
100
AcDbEntity
  8
0
  6
SLD-Durchgehend
 62
     7
370
     0
100
AcDbCircle
 10
397.2166905884
 20
27.1936818339
 30
0.0
 40
9.466383935046306
100
AcDbArc
 50
27.5142747223
 51
199.3834076115
  0
ARC
  5
FF
330
1F
100
AcDbEntity
  8
0
  6
SLD-Durchgehend
 62
     7
370
     0
100
AcDbCircle
 10
398.3341692459
 20
29.5403819643
 30
0.0
 40
5.933065424568992
100
AcDbArc
 50
19.9717771487
 51
161.5451058776
  0
ARC
  5
100
330
1F
100
AcDbEntity
  8
0
  6
SLD-Durchgehend
 62
     7
370
     0
100
AcDbCircle
 10
398.6015949771
 20
26.8804932252
 30
0.0
 40
8.003675602344112
100
AcDbArc
 50
339.3038849229
 51
17.0191257259
  0
CIRCLE
  5
101
330
1F
100
AcDbEntity
  8
0
  6
SLD-Durchgehend
 62
     7
370
     0
100
AcDbCircle
 10
407.3866676737
 20
30.5286123403
 30
0.0
 40
0.6921638106894162
  0
ARC
  5
102
330
1F
100
AcDbEntity
  8
0
  6
SLD-Durchgehend
 62
     7
370
     0
100
AcDbCircle
 10
398.6015949771
 20
26.8804932252
 30
0.0
 40
7.873675602344121
100
AcDbArc
 50
339.956359704
 51
14.9064582949
  0
ARC
  5
103
330
1F
100
AcDbEntity
  8
0
  6
SLD-Durchgehend
 62
     7
370
     0
100
AcDbCircle
 10
398.3341692459
 20
29.5403819643
 30
0.0
 40
6.063065424569016
100
AcDbArc
 50
20.8348250605
 51
160.6576519015
  0
ARC
  5
104
330
1F
100
AcDbEntity
  8
0
  6
SLD-Durchgehend
 62
     7
370
     0
100
AcDbCircle
 10
397.2166905884
 20
27.1936818339
 30
0.0
 40
9.336383935046333
100
AcDbArc
 50
28.8374327393
 51
198.8193368339
  0
MTEXT
  5
105
330
1F
100
AcDbEntity
  8
0
  6
Continuous
 62
     7
370
     0
100
AcDbMText
 10
5.7028577714
 20
34.989604144
 30
0.0
 40
4.0
 41
0.0
 71
     1
 72
     1
  1
A
  7
SLDTEXTSTYLE0
 73
     1
 44
1.0
  0
MTEXT
  5
106
330
1F
100
AcDbEntity
  8
0
  6
Continuous
 62
     7
370
     0
100
AcDbMText
 10
33.5
 20
9.489604144
 30
0.0
 40
4.0
 41
0.0
 71
     1
 72
     1
  1
8
  7
SLDTEXTSTYLE0
 73
     1
 44
1.0
  0
MTEXT
  5
107
330
1F
100
AcDbEntity
  8
0
  6
Continuous
 62
     7
370
     0
100
AcDbMText
 10
5.7622862171
 20
80.989604144
 30
0.0
 40
4.0
 41
0.0
 71
     1
 72
     1
  1
B
  7
SLDTEXTSTYLE0
 73
     1
 44
1.0
  0
MTEXT
  5
108
330
1F
100
AcDbEntity
  8
0
  6
Continuous
 62
     7
370
     0
100
AcDbMText
 10
5.6317379175
 20
126.8054731028
 30
0.0
 40
4.0
 41
0.0
 71
     1
 72
     1
  1
C
  7
SLDTEXTSTYLE0
 73
     1
 44
1.0
  0
MTEXT
  5
109
330
1F
100
AcDbEntity
  8
0
  6
Continuous
 62
     7
370
     0
100
AcDbMText
 10
133.5
 20
9.489604144
 30
0.0
 40
4.0
 41
0.0
 71
     1
 72
     1
  1
6
  7
SLDTEXTSTYLE0
 73
     1
 44
1.0
  0
MTEXT
  5
10A
330
1F
100
AcDbEntity
  8
0
  6
Continuous
 62
     7
370
     0
100
AcDbMText
 10
83.5
 20
9.489604144
 30
0.0
 40
4.0
 41
0.0
 71
     1
 72
     1
  1
7
  7
SLDTEXTSTYLE0
 73
     1
 44
1.0
  0
MTEXT
  5
10B
330
1F
100
AcDbEntity
  8
0
  6
Continuous
 62
     7
370
     0
100
AcDbMText
 10
183.5
 20
9.489604144
 30
0.0
 40
4.0
 41
0.0
 71
     1
 72
     1
  1
5
  7
SLDTEXTSTYLE0
 73
     1
 44
1.0
  0
MTEXT
  5
10C
330
1F
100
AcDbEntity
  8
0
  6
Continuous
 62
     7
370
     0
100
AcDbMText
 10
5.5396723969
 20
173.989604144
 30
0.0
 40
4.0
 41
0.0
 71
     1
 72
     1
  1
D
  7
SLDTEXTSTYLE0
 73
     1
 44
1.0
  0
MTEXT
  5
10D
330
1F
100
AcDbEntity
  8
0
  6
Continuous
 62
     7
370
     0
100
AcDbMText
 10
5.7692745255
 20
219.989604144
 30
0.0
 40
4.0
 41
0.0
 71
     1
 72
     1
  1
E
  7
SLDTEXTSTYLE0
 73
     1
 44
1.0
  0
MTEXT
  5
10E
330
1F
100
AcDbEntity
  8
0
  6
Continuous
 62
     7
370
     0
100
AcDbMText
 10
6.0
 20
265.989604144
 30
0.0
 40
4.0
 41
0.0
 71
     1
 72
     1
  1
F
  7
SLDTEXTSTYLE0
 73
     1
 44
1.0
  0
MTEXT
  5
10F
330
1F
100
AcDbEntity
  8
0
  6
Continuous
 62
     7
370
     0
100
AcDbMText
 10
33.5
 20
291.489604144
 30
0.0
 40
4.0
 41
0.0
 71
     1
 72
     1
  1
8
  7
SLDTEXTSTYLE0
 73
     1
 44
1.0
  0
MTEXT
  5
110
330
1F
100
AcDbEntity
  8
0
  6
Continuous
 62
     7
370
     0
100
AcDbMText
 10
83.5
 20
291.489604144
 30
0.0
 40
4.0
 41
0.0
 71
     1
 72
     1
  1
7
  7
SLDTEXTSTYLE0
 73
     1
 44
1.0
  0
MTEXT
  5
111
330
1F
100
AcDbEntity
  8
0
  6
Continuous
 62
     7
370
     0
100
AcDbMText
 10
133.5
 20
291.489604144
 30
0.0
 40
4.0
 41
0.0
 71
     1
 72
     1
  1
6
  7
SLDTEXTSTYLE0
 73
     1
 44
1.0
  0
MTEXT
  5
112
330
1F
100
AcDbEntity
  8
0
  6
Continuous
 62
     7
370
     0
100
AcDbMText
 10
183.5
 20
291.489604144
 30
0.0
 40
4.0
 41
0.0
 71
     1
 72
     1
  1
5
  7
SLDTEXTSTYLE0
 73
     1
 44
1.0
  0
MTEXT
  5
113
330
1F
100
AcDbEntity
  8
0
  6
Continuous
 62
     7
370
     0
100
AcDbMText
 10
410.7729847128
 20
34.9442010866
 30
0.0
 40
4.0
 41
0.0
 71
     1
 72
     1
  1
A
  7
SLDTEXTSTYLE0
 73
     1
 44
1.0
  0
MTEXT
  5
114
330
1F
100
AcDbEntity
  8
0
  6
Continuous
 62
     7
370
     0
100
AcDbMText
 10
410.7121909102
 20
81.1364716754
 30
0.0
 40
4.0
 41
0.0
 71
     1
 72
     1
  1
B
  7
SLDTEXTSTYLE0
 73
     1
 44
1.0
  0
MTEXT
  5
115
330
1F
100
AcDbEntity
  8
0
  6
Continuous
 62
     7
370
     0
100
AcDbMText
 10
410.6203893089
 20
126.989604144
 30
0.0
 40
4.0
 41
0.0
 71
     1
 72
     1
  1
C
  7
SLDTEXTSTYLE0
 73
     1
 44
1.0
  0
MTEXT
  5
116
330
1F
100
AcDbEntity
  8
0
  6
Continuous
 62
     7
370
     0
100
AcDbMText
 10
233.5
 20
291.489604144
 30
0.0
 40
4.0
 41
0.0
 71
     1
 72
     1
  1
4
  7
SLDTEXTSTYLE0
 73
     1
 44
1.0
  0
MTEXT
  5
117
330
1F
100
AcDbEntity
  8
0
  6
Continuous
 62
     7
370
     0
100
AcDbMText
 10
284.0
 20
291.489604144
 30
0.0
 40
4.0
 41
0.0
 71
     1
 72
     1
  1
3
  7
SLDTEXTSTYLE0
 73
     1
 44
1.0
  0
MTEXT
  5
118
330
1F
100
AcDbEntity
  8
0
  6
Continuous
 62
     7
370
     0
100
AcDbMText
 10
334.0
 20
291.489604144
 30
0.0
 40
4.0
 41
0.0
 71
     1
 72
     1
  1
2
  7
SLDTEXTSTYLE0
 73
     1
 44
1.0
  0
MTEXT
  5
119
330
1F
100
AcDbEntity
  8
0
  6
Continuous
 62
     7
370
     0
100
AcDbMText
 10
410.5396138496
 20
174.1137585664
 30
0.0
 40
4.0
 41
0.0
 71
     1
 72
     1
  1
D
  7
SLDTEXTSTYLE0
 73
     1
 44
1.0
  0
MTEXT
  5
11A
330
1F
100
AcDbEntity
  8
0
  6
Continuous
 62
     7
370
     0
100
AcDbMText
 10
410.7442616209
 20
220.1816801137
 30
0.0
 40
4.0
 41
0.0
 71
     1
 72
     1
  1
E
  7
SLDTEXTSTYLE0
 73
     1
 44
1.0
  0
MTEXT
  5
11B
330
1F
100
AcDbEntity
  8
0
  6
Continuous
 62
     7
370
     0
100
AcDbMText
 10
384.0
 20
291.489604144
 30
0.0
 40
4.0
 41
0.0
 71
     1
 72
     1
  1
1
  7
SLDTEXTSTYLE0
 73
     1
 44
1.0
  0
MTEXT
  5
11C
330
1F
100
AcDbEntity
  8
0
  6
Continuous
 62
     7
370
     0
100
AcDbMText
 10
411.0
 20
265.989604144
 30
0.0
 40
4.0
 41
0.0
 71
     1
 72
     1
  1
F
  7
SLDTEXTSTYLE0
 73
     1
 44
1.0
  0
MTEXT
  5
11D
330
1F
100
AcDbEntity
  8
0
  6
Continuous
 62
     7
370
     0
100
AcDbMText
 10
233.8998971425
 20
9.6619578374
 30
0.0
 40
4.0
 41
0.0
 71
     1
 72
     1
  1
4
  7
SLDTEXTSTYLE0
 73
     1
 44
1.0
  0
MTEXT
  5
11E
330
1F
100
AcDbEntity
  8
0
  6
Continuous
 62
     7
370
     0
100
AcDbMText
 10
284.3998971425
 20
9.6619578374
 30
0.0
 40
4.0
 41
0.0
 71
     1
 72
     1
  1
3
  7
SLDTEXTSTYLE0
 73
     1
 44
1.0
  0
MTEXT
  5
11F
330
1F
100
AcDbEntity
  8
0
  6
Continuous
 62
     7
370
     0
100
AcDbMText
 10
334.3998971425
 20
9.6619578374
 30
0.0
 40
4.0
 41
0.0
 71
     1
 72
     1
  1
2
  7
SLDTEXTSTYLE0
 73
     1
 44
1.0
  0
MTEXT
  5
120
330
1F
100
AcDbEntity
  8
0
  6
Continuous
 62
     7
370
     0
100
AcDbMText
 10
384.3998971425
 20
9.6619578374
 30
0.0
 40
4.0
 41
0.0
 71
     1
 72
     1
  1
1
  7
SLDTEXTSTYLE0
 73
     1
 44
1.0
  0
MTEXT
  5
121
330
1F
100
AcDbEntity
  8
0
  6
Continuous
 62
     7
370
     0
100
AcDbMText
 10
235.333368457
 20
13.9532375323
 30
0.0
 40
3.0
 41
0.0
 71
     1
 72
     1
  1
01805000
  7
SLDTEXTSTYLE0
 73
     1
 44
1.0
  0
MTEXT
  5
122
330
1F
100
AcDbEntity
  8
0
  6
Continuous
 62
     7
370
     0
100
AcDbMText
 10
277.5042038186
 20
17.4849420031
 30
0.0
 40
4.0
 41
0.0
 71
     1
 72
     1
  1
Vibrateur à bille
  7
SLDTEXTSTYLE0
 73
     1
 44
1.0
  0
MTEXT
  5
123
330
1F
100
AcDbEntity
  8
0
  6
Continuous
 62
     7
370
     0
100
AcDbMText
 10
223.3772893016
 20
16.5178662951
 30
0.0
 40
2.0
 41
0.0
 71
     1
 72
     1
  1
Bestell Nr.: / Part no.: / No d`article:
  7
SLDTEXTSTYLE0
 73
     1
 44
1.0
  0
INSERT
  5
12D
330
1F
100
AcDbEntity
  8
0
  6
Continuous
 62
     7
370
     0
100
AcDbBlockReference
  2
SW_NOTE_3
 10
347.2177413053
 20
17.0976931256
 30
0.0
  0
MTEXT
  5
12E
330
1F
100
AcDbEntity
  8
0
  6
Continuous
 62
     7
370
     0
100
AcDbMText
 10
347.2177413053
 20
22.8281708005
 30
0.0
 40
1.8520833333
 41
0.0
 71
     1
 72
     1
  1
Fritz-Lenges-Straße 3,  55252 Mainz-Kastel
  7
SLDTEXTSTYLE0
 73
     1
 44
1.0
  0
INSERT
  5
134
330
1F
100
AcDbEntity
  8
0
  6
Continuous
 62
     7
370
     0
100
AcDbBlockReference
  2
SW_NOTE_4
 10
347.2177413053
 20
23.0066254519
 30
0.0
  0
MTEXT
  5
135
330
1F
100
AcDbEntity
  8
0
  6
Continuous
 62
     7
370
     0
100
AcDbMText
 10
407.0748866834
 20
30.8708309295
 30
0.0
 40
0.65
 41
0.0
 71
     1
 72
     1
  1
R
  7
SLDTEXTSTYLE0
 73
     1
 44
1.0
  0
MTEXT
  5
136
330
1F
100
AcDbEntity
  8
0
  6
Continuous
 62
     7
370
     0
100
AcDbMText
 10
277.5042038186
 20
24.4879186679
 30
0.0
 40
4.0
 41
0.0
 71
     1
 72
     1
  1
Ball vibrator
  7
SLDTEXTSTYLE0
 73
     1
 44
1.0
  0
MTEXT
  5
137
330
1F
100
AcDbEntity
  8
0
  6
Continuous
 62
     7
370
     0
100
AcDbMText
 10
277.5042038186
 20
31.495794101
 30
0.0
 40
4.0
 41
0.0
 71
     1
 72
     1
  1
Kugelvibrator
  7
SLDTEXTSTYLE0
 73
     1
 44
1.0
  0
MTEXT
  5
139
330
1F
100
AcDbEntity
  8
0
  6
Continuous
 62
     7
370
     0
100
AcDbMText
 10
277.5042038186
 20
40.9994003142
 30
0.0
 40
4.0
 41
0.0
 71
     1
 72
     1
  1
NCB 5
  7
SLDTEXTSTYLE3
 73
     1
 44
1.0
  0
MTEXT
  5
13A
330
1F
100
AcDbEntity
  8
0
  6
Continuous
 62
     7
370
     0
100
AcDbMText
 10
223.3772893016
 20
23.7813752683
 30
0.0
 40
2.0
 41
0.0
 71
     1
 72
     1
  1
Angebot Nr.: / Quotation no.: / Offre no.:
  7
SLDTEXTSTYLE0
 73
     1
 44
1.0
  0
MTEXT
  5
13B
330
1F
100
AcDbEntity
  8
0
  6
Continuous
 62
     7
370
     0
100
AcDbMText
 10
225.29574253
 20
36.1700862926
 30
0.0
 40
2.5
 41
0.0
 71
     1
 72
     1
  1
tous droits réservés
  7
SLDTEXTSTYLE0
 73
     1
 44
1.0
  0
MTEXT
  5
13C
330
1F
100
AcDbEntity
  8
0
  6
Continuous
 62
     7
370
     0
100
AcDbMText
 10
225.29574253
 20
40.2315981188
 30
0.0
 40
2.5
 41
0.0
 71
     1
 72
     1
  1
all rights reserved
  7
SLDTEXTSTYLE0
 73
     1
 44
1.0
  0
MTEXT
  5
13D
330
1F
100
AcDbEntity
  8
0
  6
Continuous
 62
     7
370
     0
100
AcDbMText
 10
225.29574253
 20
44.0417302482
 30
0.0
 40
2.5
 41
0.0
 71
     1
 72
     1
  1
alle Schutzrechte vorbehalten
  7
SLDTEXTSTYLE0
 73
     1
 44
1.0
  0
MTEXT
  5
13E
330
1F
100
AcDbEntity
  8
0
  6
Continuous
 62
     7
370
     0
100
AcDbMText
 10
223.3772893016
 20
31.3281263199
 30
0.0
 40
2.0
 41
0.0
 71
     1
 72
     1
  1
Datum: / Date: / Date:
  7
SLDTEXTSTYLE0
 73
     1
 44
1.0
  0
MTEXT
  5
13F
330
1F
100
AcDbEntity
  8
0
  6
Continuous
 62
     7
370
     0
100
AcDbMText
 10
235.333368457
 20
28.459898148
 30
0.0
 40
3.0
 41
0.0
 71
     1
 72
     1
  1
24.06.2022
  7
SLDTEXTSTYLE0
 73
     1
 44
1.0
  0
LINE
  5
140
330
1F
100
AcDbEntity
  8
0
  6
SLD-Durchgehend
 62
     7
370
    15
100
AcDbLine
 10
86.5055175453
 20
232.3472144622
 30
0.0
 11
86.5055175453
 21
263.3472176808
 31
0.0
  0
LINE
  5
141
330
1F
100
AcDbEntity
  8
0
  6
SLD-Durchgehend
 62
     7
370
    15
100
AcDbLine
 10
67.0055180743
 20
239.8472147602
 30
0.0
 11
67.0055180743
 21
232.3472144622
 31
0.0
  0
LINE
  5
142
330
1F
100
AcDbEntity
  8
0
  6
SLD-Durchgehend
 62
     7
370
    15
100
AcDbLine
 10
67.0055180743
 20
247.8472160715
 30
0.0
 11
67.0055180743
 21
241.847215088
 31
0.0
  0
LINE
  5
143
330
1F
100
AcDbEntity
  8
0
  6
SLD-Durchgehend
 62
     7
370
    15
100
AcDbLine
 10
67.0055180743
 20
255.8472136575
 30
0.0
 11
67.0055180743
 21
249.8472163993
 31
0.0
  0
LINE
  5
144
330
1F
100
AcDbEntity
  8
0
  6
SLD-Durchgehend
 62
     7
370
    15
100
AcDbLine
 10
67.0055180743
 20
263.3472176808
 30
0.0
 11
67.0055180743
 21
257.8472139853
 31
0.0
  0
ARC
  5
145
330
1F
100
AcDbEntity
  8
0
  6
SLD-Durchgehend
 62
     7
370
    15
100
AcDbCircle
 10
67.5055176123
 20
263.347214641
 30
0.0
 40
0.5
100
AcDbArc
 50
90.0
 51
180.0
  0
ARC
  5
146
330
1F
100
AcDbEntity
  8
0
  6
SLD-Durchgehend
 62
     7
370
    15
100
AcDbCircle
 10
86.0055176123
 20
263.347214641
 30
0.0
 40
0.5000000000000142
100
AcDbArc
 50
0.0
 51
90.0
  0
ARC
  5
147
330
1F
100
AcDbEntity
  8
0
  6
SLD-Durchgehend
 62
     7
370
    15
100
AcDbCircle
 10
67.5055176123
 20
232.347214641
 30
0.0
 40
0.5000000000000142
100
AcDbArc
 50
180.0
 51
270.0
  0
ARC
  5
148
330
1F
100
AcDbEntity
  8
0
  6
SLD-Durchgehend
 62
     7
370
    15
100
AcDbCircle
 10
86.0055176123
 20
232.347214641
 30
0.0
 40
0.5000000000000142
100
AcDbArc
 50
270.0
 51
0.0
  0
LINE
  5
149
330
1F
100
AcDbEntity
  8
0
  6
SLD-Durchgehend
 62
     7
370
    15
100
AcDbLine
 10
68.2555168822
 20
249.8472163993
 30
0.0
 11
68.2555168822
 21
247.8472160715
 31
0.0
  0
LINE
  5
14A
330
1F
100
AcDbEntity
  8
0
  6
SLD-Durchgehend
 62
     7
370
    15
100
AcDbLine
 10
68.2555168822
 20
241.847215088
 30
0.0
 11
68.2555168822
 21
239.8472147602
 31
0.0
  0
LINE
  5
14B
330
1F
100
AcDbEntity
  8
0
  6
SLD-Durchgehend
 62
     7
370
    15
100
AcDbLine
 10
68.2555168822
 20
257.8472139853
 30
0.0
 11
68.2555168822
 21
255.8472136575
 31
0.0
  0
LINE
  5
14C
330
1F
100
AcDbEntity
  8
0
  6
SLD-Durchgehend
 62
     7
370
    15
100
AcDbLine
 10
76.7555173441
 20
241.847215088
 30
0.0
 11
76.7555173441
 21
239.8472147602
 31
0.0
  0
LINE
  5
14D
330
1F
100
AcDbEntity
  8
0
  6
SLD-Durchgehend
 62
     7
370
    15
100
AcDbLine
 10
67.0055180743
 20
241.847215088
 30
0.0
 11
76.7555173441
 21
241.847215088
 31
0.0
  0
LINE
  5
14E
330
1F
100
AcDbEntity
  8
0
  6
SLD-Durchgehend
 62
     7
370
    15
100
AcDbLine
 10
67.0055180743
 20
239.8472147602
 30
0.0
 11
76.7555173441
 21
239.8472147602
 31
0.0
  0
LINE
  5
14F
330
1F
100
AcDbEntity
  8
0
  6
SLD-Durchgehend
 62
     7
370
    15
100
AcDbLine
 10
67.0055180743
 20
247.8472160715
 30
0.0
 11
76.7555173441
 21
247.8472160715
 31
0.0
  0
LINE
  5
150
330
1F
100
AcDbEntity
  8
0
  6
SLD-Durchgehend
 62
     7
370
    15
100
AcDbLine
 10
67.0055180743
 20
249.8472163993
 30
0.0
 11
76.7555173441
 21
249.8472163993
 31
0.0
  0
LINE
  5
151
330
1F
100
AcDbEntity
  8
0
  6
SLD-Durchgehend
 62
     7
370
    15
100
AcDbLine
 10
67.0055180743
 20
255.8472136575
 30
0.0
 11
76.7555173441
 21
255.8472136575
 31
0.0
  0
LINE
  5
152
330
1F
100
AcDbEntity
  8
0
  6
SLD-Durchgehend
 62
     7
370
    15
100
AcDbLine
 10
67.0055180743
 20
257.8472139853
 30
0.0
 11
76.7555173441
 21
257.8472139853
 31
0.0
  0
LINE
  5
153
330
1F
100
AcDbEntity
  8
0
  6
SLD-Durchgehend
 62
     7
370
    15
100
AcDbLine
 10
76.7555173441
 20
247.8472160715
 30
0.0
 11
76.7555173441
 21
249.8472163993
 31
0.0
  0
LINE
  5
154
330
1F
100
AcDbEntity
  8
0
  6
SLD-Durchgehend
 62
     7
370
    15
100
AcDbLine
 10
76.7555173441
 20
255.8472136575
 30
0.0
 11
76.7555173441
 21
257.8472139853
 31
0.0
  0
LINE
  5
155
330
1F
100
AcDbEntity
  8
0
  6
SLD-Durchgehend
 62
     7
370
    15
100
AcDbLine
 10
67.5055172249
 20
263.8472112435
 30
0.0
 11
86.0055176962
 21
263.8472112435
 31
0.0
  0
LINE
  5
156
330
1F
100
AcDbEntity
  8
0
  6
SLD-Durchgehend
 62
     7
370
    15
100
AcDbLine
 10
70.7555182233
 20
266.8472173232
 30
0.0
 11
76.7555173441
 21
266.8472173232
 31
0.0
  0
LINE
  5
157
330
1F
100
AcDbEntity
  8
0
  6
SLD-Durchgehend
 62
     7
370
    15
100
AcDbLine
 10
76.7555173441
 20
266.8472173232
 30
0.0
 11
82.7555173963
 21
266.8472173232
 31
0.0
  0
ARC
  5
158
330
1F
100
AcDbEntity
  8
0
  6
SLD-Durchgehend
 62
     7
370
    15
100
AcDbCircle
 10
83.7555176123
 20
264.347214641
 30
0.0
 40
0.5000000000000284
100
AcDbArc
 50
180.0
 51
270.0
  0
ARC
  5
159
330
1F
100
AcDbEntity
  8
0
  6
SLD-Durchgehend
 62
     7
370
    15
100
AcDbCircle
 10
69.7555176123
 20
264.347214641
 30
0.0
 40
0.5
100
AcDbArc
 50
270.0
 51
0.0
  0
ARC
  5
15A
330
1F
100
AcDbEntity
  8
0
  6
SLD-Durchgehend
 62
     7
370
    15
100
AcDbCircle
 10
70.7555176123
 20
266.347214641
 30
0.0
 40
0.5
100
AcDbArc
 50
90.0
 51
180.0
  0
LINE
  5
15B
330
1F
100
AcDbEntity
  8
0
  6
SLD-Durchgehend
 62
     7
370
    15
100
AcDbLine
 10
70.25551721
 20
264.3472122568
 30
0.0
 11
70.25551721
 21
266.3472163099
 31
0.0
  0
ARC
  5
15C
330
1F
100
AcDbEntity
  8
0
  6
SLD-Durchgehend
 62
     7
370
    15
100
AcDbCircle
 10
82.7555176123
 20
266.347214641
 30
0.0
 40
0.5
100
AcDbArc
 50
0.0
 51
90.0
  0
LINE
  5
15D
330
1F
100
AcDbEntity
  8
0
  6
SLD-Durchgehend
 62
     7
370
    15
100
AcDbLine
 10
83.2555174782
 20
266.3472163099
 30
0.0
 11
83.2555174782
 21
264.3472122568
 31
0.0
  0
CIRCLE
  5
15E
330
1F
100
AcDbEntity
  8
0
  6
SLD-Durchgehend
 62
     7
370
    15
100
AcDbCircle
 10
89.7555176123
 20
199.347214641
 30
0.0
 40
22.24019237886463
  0
LINE
  5
15F
330
1F
100
AcDbEntity
  8
0
  6
SLD-Durchgehend
 62
     7
370
    15
100
AcDbLine
 10
111.2555183425
 20
219.8472152072
 30
0.0
 11
113.2555168077
 21
219.8472152072
 31
0.0
  0
LINE
  5
160
330
1F
100
AcDbEntity
  8
0
  6
SLD-Durchgehend
 62
     7
370
    15
100
AcDbLine
 10
114.2555169716
 20
213.8472142237
 30
0.0
 11
111.2555183425
 21
219.8472152072
 31
0.0
  0
LINE
  5
161
330
1F
100
AcDbEntity
  8
0
  6
SLD-Durchgehend
 62
     7
370
    15
100
AcDbLine
 10
117.2555174633
 20
219.8472152072
 30
0.0
 11
114.2555169716
 21
213.8472142237
 31
0.0
  0
LINE
  5
162
330
1F
100
AcDbEntity
  8
0
  6
SLD-Durchgehend
 62
     7
370
    15
100
AcDbLine
 10
115.2555171355
 20
219.8472152072
 30
0.0
 11
117.2555174633
 21
219.8472152072
 31
0.0
  0
LINE
  5
163
330
1F
100
AcDbEntity
  8
0
  6
SLD-Durchgehend
 62
     7
370
    15
100
AcDbLine
 10
115.2555171355
 20
227.8472146559
 30
0.0
 11
115.2555171355
 21
219.8472152072
 31
0.0
  0
LINE
  5
164
330
1F
100
AcDbEntity
  8
0
  6
SLD-Durchgehend
 62
     7
370
    15
100
AcDbLine
 10
66.255518417
 20
213.8472142237
 30
0.0
 11
66.255518417
 21
221.847215535
 31
0.0
  0
LINE
  5
165
330
1F
100
AcDbEntity
  8
0
  6
SLD-Durchgehend
 62
     7
370
    15
100
AcDbLine
 10
66.255518417
 20
221.847215535
 30
0.0
 11
68.2555168822
 21
221.847215535
 31
0.0
  0
LINE
  5
166
330
1F
100
AcDbEntity
  8
0
  6
SLD-Durchgehend
 62
     7
370
    15
100
AcDbLine
 10
68.2555168822
 20
221.847215535
 30
0.0
 11
65.2555182531
 21
227.8472146559
 31
0.0
  0
LINE
  5
167
330
1F
100
AcDbEntity
  8
0
  6
SLD-Durchgehend
 62
     7
370
    15
100
AcDbLine
 10
65.2555182531
 20
227.8472146559
 30
0.0
 11
62.2555177614
 21
221.847215535
 31
0.0
  0
LINE
  5
168
330
1F
100
AcDbEntity
  8
0
  6
SLD-Durchgehend
 62
     7
370
    15
100
AcDbLine
 10
62.2555177614
 20
221.847215535
 30
0.0
 11
64.2555180892
 21
221.847215535
 31
0.0
  0
LINE
  5
169
330
1F
100
AcDbEntity
  8
0
  6
SLD-Durchgehend
 62
     7
370
    15
100
AcDbLine
 10
64.2555180892
 20
221.847215535
 30
0.0
 11
64.2555180892
 21
213.8472142237
 31
0.0
  0
LINE
  5
16A
330
1F
100
AcDbEntity
  8
0
  6
SLD-Durchgehend
 62
     7
370
    15
100
AcDbLine
 10
64.2555180892
 20
213.8472142237
 30
0.0
 11
66.255518417
 21
213.8472142237
 31
0.0
  0
CIRCLE
  5
16B
330
1F
100
AcDbEntity
  8
0
  6
SLD-Durchgehend
 62
     7
370
    15
100
AcDbCircle
 10
64.7555176123
 20
175.847214641
 30
0.0
 40
1.0
  0
CIRCLE
  5
16C
330
1F
100
AcDbEntity
  8
0
  6
SLD-Durchgehend
 62
     7
370
    15
100
AcDbCircle
 10
114.7555176123
 20
175.847214641
 30
0.0
 40
1.0
  0
CIRCLE
  5
16D
330
1F
100
AcDbEntity
  8
0
  6
SLD-Durchgehend
 62
     7
370
    15
100
AcDbCircle
 10
89.7555176123
 20
199.347214641
 30
0.0
 40
22.25000000000001
  0
LINE
  5
16E
330
1F
100
AcDbEntity
  8
0
  6
SLD-Durchgehend
 62
     7
370
    15
100
AcDbLine
 10
33.2555185958
 20
182.8472147304
 30
0.0
 11
33.2555185958
 21
166.8472158331
 31
0.0
  0
LINE
  5
16F
330
1F
100
AcDbEntity
  8
0
  6
SLD-Durchgehend
 62
     7
370
    15
100
AcDbLine
 10
33.2555185958
 20
182.8472147304
 30
0.0
 11
54.7555174633
 21
182.8472147304
 31
0.0
  0
ARC
  5
170
330
1F
100
AcDbEntity
  8
0
  6
SLD-Durchgehend
 62
     7
370
    15
100
AcDbCircle
 10
54.7555176123
 20
185.347214641
 30
0.0
 40
2.500000000000007
100
AcDbArc
 50
270.0
 51
0.0
  0
LINE
  5
171
330
1F
100
AcDbEntity
  8
0
  6
SLD-Durchgehend
 62
     7
370
    15
100
AcDbLine
 10
57.2555188044
 20
185.3472142088
 30
0.0
 11
57.2555188044
 21
231.8472134489
 31
0.0
  0
LINE
  5
172
330
1F
100
AcDbEntity
  8
0
  6
SLD-Durchgehend
 62
     7
370
    15
100
AcDbLine
 10
122.2555164203
 20
231.8472134489
 30
0.0
 11
57.2555188044
 21
231.8472134489
 31
0.0
  0
LINE
  5
173
330
1F
100
AcDbEntity
  8
0
  6
SLD-Durchgehend
 62
     7
370
    15
100
AcDbLine
 10
122.2555164203
 20
231.8472134489
 30
0.0
 11
122.2555164203
 21
185.3472142088
 31
0.0
  0
ARC
  5
174
330
1F
100
AcDbEntity
  8
0
  6
SLD-Durchgehend
 62
     7
370
    15
100
AcDbCircle
 10
124.7555176123
 20
185.347214641
 30
0.0
 40
2.5
100
AcDbArc
 50
180.0
 51
270.0
  0
LINE
  5
175
330
1F
100
AcDbEntity
  8
0
  6
SLD-Durchgehend
 62
     7
370
    15
100
AcDbLine
 10
124.7555177614
 20
182.8472147304
 30
0.0
 11
146.2555166289
 21
182.8472147304
 31
0.0
  0
LINE
  5
176
330
1F
100
AcDbEntity
  8
0
  6
SLD-Durchgehend
 62
     7
370
    15
100
AcDbLine
 10
146.2555166289
 20
166.8472158331
 30
0.0
 11
146.2555166289
 21
182.8472147304
 31
0.0
  0
LINE
  5
177
330
1F
100
AcDbEntity
  8
0
  6
SLD-Durchgehend
 62
     7
370
    15
100
AcDbLine
 10
114.7555179849
 20
166.8472158331
 30
0.0
 11
146.2555166289
 21
166.8472158331
 31
0.0
  0
LINE
  5
178
330
1F
100
AcDbEntity
  8
0
  6
SLD-Durchgehend
 62
     7
370
    15
100
AcDbLine
 10
114.7555179849
 20
166.8472158331
 30
0.0
 11
114.7555179849
 21
167.3472131211
 31
0.0
  0
LINE
  5
179
330
1F
100
AcDbEntity
  8
0
  6
SLD-Durchgehend
 62
     7
370
    15
100
AcDbLine
 10
114.7555179849
 20
167.3472131211
 30
0.0
 11
64.7555172398
 21
167.3472131211
 31
0.0
  0
LINE
  5
17A
330
1F
100
AcDbEntity
  8
0
  6
SLD-Durchgehend
 62
     7
370
    15
100
AcDbLine
 10
64.7555172398
 20
167.3472131211
 30
0.0
 11
64.7555172398
 21
166.8472158331
 31
0.0
  0
LINE
  5
17B
330
1F
100
AcDbEntity
  8
0
  6
SLD-Durchgehend
 62
     7
370
    15
100
AcDbLine
 10
33.2555185958
 20
166.8472158331
 30
0.0
 11
64.7555172398
 21
166.8472158331
 31
0.0
  0
LINE
  5
17C
330
1F
100
AcDbEntity
  8
0
  6
SLD-Durchgehend
 62
     7
370
    15
100
AcDbLine
 10
113.2555168077
 20
227.8472146559
 30
0.0
 11
115.2555171355
 21
227.8472146559
 31
0.0
  0
LINE
  5
17D
330
1F
100
AcDbEntity
  8
0
  6
SLD-Durchgehend
 62
     7
370
    15
100
AcDbLine
 10
113.2555168077
 20
219.8472152072
 30
0.0
 11
113.2555168077
 21
227.8472146559
 31
0.0
  0
LINE
  5
17E
330
1F
100
AcDbEntity
  8
0
  6
SLD-Durchgehend
 62
     8
370
     0
100
AcDbLine
 10
86.5055175453
 20
263.3472176808
 30
0.0
 11
67.0055180743
 21
263.3472176808
 31
0.0
  0
LINE
  5
17F
330
1F
100
AcDbEntity
  8
0
  6
SLD-Durchgehend
 62
     8
370
     0
100
AcDbLine
 10
67.0055180743
 20
232.3472144622
 30
0.0
 11
86.5055175453
 21
232.3472144622
 31
0.0
  0
LWPOLYLINE
  5
180
330
1F
100
AcDbEntity
  8
0
  6
SLD-Durchgehend
 62
     8
370
     0
100
AcDbPolyline
 90
        9
 70
   128
 43
0.0
 10
76.2555172622
 20
263.8472112435
 10
76.3042906254
 20
263.8568224925
 10
76.351188305
 20
263.8852762598
 10
76.3944100543
 20
263.9314773101
 10
76.432294394
 20
263.9936598557
 10
76.4633847355
 20
264.0694322604
 10
76.4864871233
 20
264.1558738965
 10
76.500714007
 20
264.2496692556
 10
76.5055177688
 20
264.3472122568
  0
LINE
  5
181
330
1F
100
AcDbEntity
  8
0
  6
SLD-Durchgehend
 62
     8
370
     0
100
AcDbLine
 10
77.0055178508
 20
264.3472122568
 30
0.0
 11
76.5055177688
 21
264.3472122568
 31
0.0
  0
LWPOLYLINE
  5
182
330
1F
100
AcDbEntity
  8
0
  6
SLD-Durchgehend
 62
     8
370
     0
100
AcDbPolyline
 90
        9
 70
   128
 43
0.0
 10
77.2555174261
 20
263.8472112435
 10
77.2067449942
 20
263.8568224925
 10
77.1598463833
 20
263.8852762598
 10
77.1166246339
 20
263.9314773101
 10
77.0787412255
 20
263.9936598557
 10
77.0476499527
 20
264.0694322604
 10
77.0245475649
 20
264.1558738965
 10
77.0103216126
 20
264.2496692556
 10
77.0055178508
 20
264.3472122568
  0
LINE
  5
183
330
1F
100
AcDbEntity
  8
0
  6
SLD-Durchgehend
 62
     8
370
     0
100
AcDbLine
 10
77.0055178508
 20
264.3472122568
 30
0.0
 11
83.0055174373
 21
264.3472122568
 31
0.0
  0
LWPOLYLINE
  5
184
330
1F
100
AcDbEntity
  8
0
  6
SLD-Durchgehend
 62
     8
370
     0
100
AcDbPolyline
 90
        9
 70
   128
 43
0.0
 10
83.2555174782
 20
263.8472112435
 10
83.2067450463
 20
263.8568224925
 10
83.1598469011
 20
263.8852762598
 10
83.1166251517
 20
263.9314773101
 10
83.078740812
 20
263.9936598557
 10
83.0476500049
 20
264.0694322604
 10
83.0245476171
 20
264.1558738965
 10
83.0103211991
 20
264.2496692556
 10
83.0055174373
 20
264.3472122568
  0
LWPOLYLINE
  5
185
330
1F
100
AcDbEntity
  8
0
  6
SLD-Durchgehend
 62
     8
370
     0
100
AcDbPolyline
 90
        9
 70
   128
 43
0.0
 10
70.25551721
 20
263.8472112435
 10
70.3042905732
 20
263.8568224925
 10
70.3511882528
 20
263.8852762598
 10
70.3944109335
 20
263.9314773101
 10
70.4322934105
 20
263.9936598557
 10
70.4633846834
 20
264.0694322604
 10
70.4864870712
 20
264.1558738965
 10
70.5007139548
 20
264.2496692556
 10
70.5055177167
 20
264.3472122568
  0
LINE
  5
186
330
1F
100
AcDbEntity
  8
0
  6
SLD-Durchgehend
 62
     8
370
     0
100
AcDbLine
 10
70.5055177167
 20
264.3472122568
 30
0.0
 11
76.5055177688
 21
264.3472122568
 31
0.0
  0
LINE
  5
187
330
1F
100
AcDbEntity
  8
0
  6
SLD-Durchgehend
 62
     8
370
     0
100
AcDbLine
 10
76.5055177688
 20
264.3472122568
 30
0.0
 11
76.5055177688
 21
266.3472163099
 31
0.0
  0
LINE
  5
188
330
1F
100
AcDbEntity
  8
0
  6
SLD-Durchgehend
 62
     8
370
     0
100
AcDbLine
 10
76.5055177688
 20
266.3472163099
 30
0.0
 11
77.0055178508
 21
266.3472163099
 31
0.0
  0
LINE
  5
189
330
1F
100
AcDbEntity
  8
0
  6
SLD-Durchgehend
 62
     8
370
     0
100
AcDbLine
 10
77.0055178508
 20
266.3472163099
 30
0.0
 11
77.0055178508
 21
264.3472122568
 31
0.0
  0
LWPOLYLINE
  5
18A
330
1F
100
AcDbEntity
  8
0
  6
SLD-Durchgehend
 62
     8
370
     0
100
AcDbPolyline
 90
        9
 70
   128
 43
0.0
 10
76.5055177688
 20
266.3472163099
 10
76.5103215306
 20
266.4447593111
 10
76.524547483
 20
266.5385546702
 10
76.5476498708
 20
266.6249963063
 10
76.5787411436
 20
266.700768711
 10
76.6166254833
 20
266.7629512566
 10
76.6598463013
 20
266.8091523069
 10
76.7067449122
 20
266.8376060742
 10
76.7555173441
 20
266.8472173232
  0
LWPOLYLINE
  5
18B
330
1F
100
AcDbEntity
  8
0
  6
SLD-Durchgehend
 62
     8
370
     0
100
AcDbPolyline
 90
        9
 70
   128
 43
0.0
 10
77.0055178508
 20
266.3472163099
 10
77.0007140889
 20
266.4447593111
 10
76.9864872053
 20
266.5385546702
 10
76.9633848175
 20
266.6249963063
 10
76.932294476
 20
266.700768711
 10
76.8944101363
 20
266.7629512566
 10
76.8511883869
 20
266.8091523069
 10
76.804289776
 20
266.8376060742
 10
76.7555173441
 20
266.8472173232
  0
LINE
  5
18C
330
1F
100
AcDbEntity
  8
0
  6
SLD-Durchgehend
 62
     8
370
     0
100
AcDbLine
 10
70.5055177167
 20
266.3472163099
 30
0.0
 11
70.5055177167
 21
264.3472122568
 31
0.0
  0
LINE
  5
18D
330
1F
100
AcDbEntity
  8
0
  6
SLD-Durchgehend
 62
     8
370
     0
100
AcDbLine
 10
76.5055177688
 20
266.3472163099
 30
0.0
 11
70.5055177167
 21
266.3472163099
 31
0.0
  0
LWPOLYLINE
  5
18E
330
1F
100
AcDbEntity
  8
0
  6
SLD-Durchgehend
 62
     8
370
     0
100
AcDbPolyline
 90
        9
 70
   128
 43
0.0
 10
70.5055177167
 20
266.3472163099
 10
70.5103214785
 20
266.4447593111
 10
70.5245483621
 20
266.5385546702
 10
70.5476507499
 20
266.6249963063
 10
70.5787401601
 20
266.700768711
 10
70.6166244998
 20
266.7629512566
 10
70.6598471805
 20
266.8091523069
 10
70.7067448601
 20
266.8376060742
 10
70.7555182233
 20
266.8472173232
  0
LINE
  5
18F
330
1F
100
AcDbEntity
  8
0
  6
SLD-Durchgehend
 62
     8
370
     0
100
AcDbLine
 10
83.0055174373
 20
266.3472163099
 30
0.0
 11
77.0055178508
 21
266.3472163099
 31
0.0
  0
LWPOLYLINE
  5
190
330
1F
100
AcDbEntity
  8
0
  6
SLD-Durchgehend
 62
     8
370
     0
100
AcDbPolyline
 90
        9
 70
   128
 43
0.0
 10
83.0055174373
 20
266.3472163099
 10
83.0007141411
 20
266.4447593111
 10
82.9864877231
 20
266.5385546702
 10
82.9633848696
 20
266.6249963063
 10
82.9322945281
 20
266.700768711
 10
82.8944101884
 20
266.7629512566
 10
82.8511884391
 20
266.8091523069
 10
82.8042902938
 20
266.8376060742
 10
82.7555173963
 20
266.8472173232
  0
LINE
  5
191
330
1F
100
AcDbEntity
  8
0
  6
SLD-Durchgehend
 62
     8
370
     0
100
AcDbLine
 10
83.0055174373
 20
264.3472122568
 30
0.0
 11
83.0055174373
 21
266.3472163099
 31
0.0
  0
LINE
  5
192
330
1F
100
AcDbEntity
  8
0
  6
SLD-Durchgehend
 62
     8
370
     0
100
AcDbLine
 10
83.2555174782
 20
264.3472122568
 30
0.0
 11
83.0055174373
 21
264.3472122568
 31
0.0
  0
LINE
  5
193
330
1F
100
AcDbEntity
  8
0
  6
SLD-Durchgehend
 62
     8
370
     0
100
AcDbLine
 10
70.5055177167
 20
264.3472122568
 30
0.0
 11
70.25551721
 21
264.3472122568
 31
0.0
  0
LINE
  5
194
330
1F
100
AcDbEntity
  8
0
  6
SLD-Durchgehend
 62
     8
370
     0
100
AcDbLine
 10
70.25551721
 20
266.3472163099
 30
0.0
 11
70.5055177167
 21
266.3472163099
 31
0.0
  0
LINE
  5
195
330
1F
100
AcDbEntity
  8
0
  6
SLD-Durchgehend
 62
     8
370
     0
100
AcDbLine
 10
83.0055174373
 20
266.3472163099
 30
0.0
 11
83.2555174782
 21
266.3472163099
 31
0.0
  0
CIRCLE
  5
196
330
1F
100
AcDbEntity
  8
0
  6
SLD-Durchgehend
 62
     8
370
     0
100
AcDbCircle
 10
89.7555176123
 20
199.347214641
 30
0.0
 40
5.999999999999972
  0
CIRCLE
  5
197
330
1F
100
AcDbEntity
  8
0
  6
SLD-Durchgehend
 62
     8
370
     0
100
AcDbCircle
 10
89.7555176123
 20
199.347214641
 30
0.0
 40
15.06682392020488
  0
CIRCLE
  5
198
330
1F
100
AcDbEntity
  8
0
  6
SLD-Durchgehend
 62
     8
370
     0
100
AcDbCircle
 10
89.7555176123
 20
199.347214641
 30
0.0
 40
19.95965881556566
  0
CIRCLE
  5
199
330
1F
100
AcDbEntity
  8
0
  6
SLD-Durchgehend
 62
     8
370
     0
100
AcDbCircle
 10
89.7555176123
 20
199.347214641
 30
0.0
 40
19.35344103291655
  0
CIRCLE
  5
19A
330
1F
100
AcDbEntity
  8
0
  6
SLD-Durchgehend
 62
     8
370
     0
100
AcDbCircle
 10
89.7555176123
 20
199.347214641
 30
0.0
 40
15.60468635614924
  0
INSERT
  5
19B
330
1F
100
AcDbEntity
  8
0
  6
Continuous
 62
     7
100
AcDbBlockReference
  2
Text Abluft
 10
26.0933564069
 20
250.215526588
 30
0.0
  0
LEADER
  5
19D
330
1F
100
AcDbEntity
  8
0
  6
Continuous
 62
     7
100
AcDbLeader
  3
SLDDIMSTYLE0
 76
     2
 10
75.7332362016
 20
231.847214641
 30
0.0
 10
37.1206427607
 20
244.9792352562
 30
0.0
212
11.02728635382899
222
-5.236291331772975
232
0.0
  0
INSERT
  5
19E
330
1F
100
AcDbEntity
  8
0
  6
Continuous
 62
     7
100
AcDbBlockReference
  2
Text Zuluft
 10
131.6534482759
 20
249.152990503
 30
0.0
  0
LEADER
  5
19F
330
1F
100
AcDbEntity
  8
0
  6
Continuous
 62
     7
100
AcDbLeader
  3
SLDDIMSTYLE0
 76
     2
 10
106.8437068966
 20
231.847214641
 30
0.0
 10
131.6534482759
 20
249.152990503
 30
0.0
  0
DIMENSION
  5
1A0
330
1F
100
AcDbEntity
  8
0
  6
SLD-Durchgehend
 62
     7
370
     0
100
AcDbDimension
  2
_D
 10
146.2555176123
 20
145.0072262027
 30
0.0
 11
89.7555176123
 21
145.0072262027
 31
0.0
 70
   160
  1
<>
 71
     2
 42
-1.0
  3
SLDDIMSTYLE1
100
AcDbAlignedDimension
 13
33.2555176123
 23
166.847214641
 33
0.0
 14
146.2555176123
 24
166.847214641
 34
0.0
 50
0.0
100
AcDbRotatedDimension
  0
DIMENSION
  5
1AB
330
1F
100
AcDbEntity
  8
0
  6
SLD-Durchgehend
 62
     7
370
     0
100
AcDbDimension
  2
_D_1
 10
157.6771883755
 20
166.847214641
 30
0.0
 11
157.6771883755
 21
174.847214641
 31
0.0
 70
   160
  1
<>
 71
     2
 42
-1.0
  3
SLDDIMSTYLE1
100
AcDbAlignedDimension
 13
146.2555176123
 23
182.847214641
 33
0.0
 14
146.2555176123
 24
166.847214641
 34
0.0
 50
90.0
100
AcDbRotatedDimension
  0
DIMENSION
  5
1B5
330
1F
100
AcDbEntity
  8
0
  6
SLD-Durchgehend
 62
     7
370
     0
100
AcDbDimension
  2
_D_2
 10
170.2555176123
 20
166.847214641
 30
0.0
 11
170.2555176123
 21
199.347214641
 31
0.0
 70
   160
  1
<>
 71
     2
 42
-1.0
  3
SLDDIMSTYLE1
100
AcDbAlignedDimension
 13
122.2555176123
 23
231.847214641
 33
0.0
 14
146.2555176123
 24
166.847214641
 34
0.0
 50
90.0
100
AcDbRotatedDimension
  0
DIMENSION
  5
1BF
330
1F
100
AcDbEntity
  8
0
  6
SLD-Durchgehend
 62
     7
370
     0
100
AcDbDimension
  2
_D_3
 10
184.2555176123
 20
166.847214641
 30
0.0
 11
184.2555176123
 21
216.847214641
 31
0.0
 70
   160
  1
<>
 71
     2
 42
-1.0
  3
SLDDIMSTYLE1
100
AcDbAlignedDimension
 13
82.7555176123
 23
266.847214641
 33
0.0
 14
146.2555176123
 24
166.847214641
 34
0.0
 50
90.0
100
AcDbRotatedDimension
  0
DIMENSION
  5
1C9
330
1F
100
AcDbEntity
  8
0
  6
SLD-Durchgehend
 62
     7
370
     0
100
AcDbDimension
  2
_D_4
 10
122.2555176123
 20
276.847214641
 30
0.0
 11
89.7555176123
 21
276.847214641
 31
0.0
 70
   160
  1
<>
 71
     2
 42
-1.0
  3
SLDDIMSTYLE1
100
AcDbAlignedDimension
 13
57.2555176123
 23
231.847214641
 33
0.0
 14
122.2555176123
 24
231.847214641
 34
0.0
100
AcDbRotatedDimension
  0
DIMENSION
  5
1D3
330
1F
100
AcDbEntity
  8
0
  6
SLD-Durchgehend
 62
     7
370
     0
100
AcDbDimension
  2
_D_5
 10
53.4217361498
 20
166.847214641
 30
0.0
 11
53.4217361498
 21
171.347214641
 31
0.0
 70
   160
  1
<>
 71
     2
 42
-1.0
  3
SLDDIMSTYLE1
100
AcDbAlignedDimension
 13
64.7555176123
 23
175.847214641
 33
0.0
 14
64.7555176123
 24
166.847214641
 34
0.0
 50
90.0
100
AcDbRotatedDimension
  0
DIMENSION
  5
1DC
330
1F
100
AcDbEntity
  8
0
  6
SLD-Durchgehend
 62
     7
370
     0
100
AcDbDimension
  2
_D_6
 10
114.7555176123
 20
156.847214641
 30
0.0
 11
89.7555176123
 21
156.847214641
 31
0.0
 70
   160
  1
<>
 71
     2
 42
-1.0
  3
SLDDIMSTYLE1
100
AcDbAlignedDimension
 13
64.7555176123
 23
175.847214641
 33
0.0
 14
114.7555176123
 24
175.847214641
 34
0.0
100
AcDbRotatedDimension
  0
INSERT
  5
1F1
330
1F
100
AcDbEntity
  8
0
  6
SLD-Durchgehend
 62
     7
370
     0
100
AcDbBlockReference
  2
SW_CENTERMARKSYMBOL_0
 10
89.7555176123
 20
199.347214641
 30
0.0
  0
LINE
  5
1F2
330
1F
100
AcDbEntity
  8
0
  6
SLD-Punktstrich
 62
     7
370
     0
100
AcDbLine
 10
76.7555176123
 20
253.597214641
 30
0.0
 11
76.7555176123
 21
230.347214641
 31
0.0
  0
LINE
  5
1F3
330
1F
100
AcDbEntity
  8
0
  6
SLD-Durchgehend
 62
     7
370
    15
100
AcDbLine
 10
229.2659440227
 20
257.8472139853
 30
0.0
 11
229.2659440227
 21
263.3472176808
 31
0.0
  0
LINE
  5
1F4
330
1F
100
AcDbEntity
  8
0
  6
SLD-Durchgehend
 62
     7
370
    15
100
AcDbLine
 10
229.2659440227
 20
249.8472163993
 30
0.0
 11
229.2659440227
 21
255.8472136575
 31
0.0
  0
LINE
  5
1F5
330
1F
100
AcDbEntity
  8
0
  6
SLD-Durchgehend
 62
     7
370
    15
100
AcDbLine
 10
229.2659440227
 20
241.847215088
 30
0.0
 11
229.2659440227
 21
247.8472160715
 31
0.0
  0
LINE
  5
1F6
330
1F
100
AcDbEntity
  8
0
  6
SLD-Durchgehend
 62
     7
370
    15
100
AcDbLine
 10
229.2659440227
 20
232.3472144622
 30
0.0
 11
229.2659440227
 21
239.8472147602
 31
0.0
  0
LINE
  5
1F7
330
1F
100
AcDbEntity
  8
0
  6
SLD-Durchgehend
 62
     7
370
    15
100
AcDbLine
 10
209.7659436204
 20
239.8472147602
 30
0.0
 11
209.7659436204
 21
232.3472144622
 31
0.0
  0
LINE
  5
1F8
330
1F
100
AcDbEntity
  8
0
  6
SLD-Durchgehend
 62
     7
370
    15
100
AcDbLine
 10
209.7659436204
 20
247.8472160715
 30
0.0
 11
209.7659436204
 21
241.847215088
 31
0.0
  0
LINE
  5
1F9
330
1F
100
AcDbEntity
  8
0
  6
SLD-Durchgehend
 62
     7
370
    15
100
AcDbLine
 10
209.7659436204
 20
255.8472136575
 30
0.0
 11
209.7659436204
 21
249.8472163993
 31
0.0
  0
LINE
  5
1FA
330
1F
100
AcDbEntity
  8
0
  6
SLD-Durchgehend
 62
     7
370
    15
100
AcDbLine
 10
209.7659436204
 20
263.3472176808
 30
0.0
 11
209.7659436204
 21
257.8472139853
 31
0.0
  0
ARC
  5
1FB
330
1F
100
AcDbEntity
  8
0
  6
SLD-Durchgehend
 62
     7
370
    15
100
AcDbCircle
 10
210.2659438215
 20
232.347214641
 30
0.0
 40
0.5
100
AcDbArc
 50
180.0
 51
270.0
  0
ARC
  5
1FC
330
1F
100
AcDbEntity
  8
0
  6
SLD-Durchgehend
 62
     7
370
    15
100
AcDbCircle
 10
228.7659438215
 20
232.347214641
 30
0.0
 40
0.5
100
AcDbArc
 50
270.0
 51
0.0
  0
ARC
  5
1FD
330
1F
100
AcDbEntity
  8
0
  6
SLD-Durchgehend
 62
     7
370
    15
100
AcDbCircle
 10
210.2659438215
 20
263.347214641
 30
0.0
 40
0.5000000000000284
100
AcDbArc
 50
90.0
 51
180.0
  0
ARC
  5
1FE
330
1F
100
AcDbEntity
  8
0
  6
SLD-Durchgehend
 62
     7
370
    15
100
AcDbCircle
 10
228.7659438215
 20
263.347214641
 30
0.0
 40
0.5
100
AcDbArc
 50
0.0
 51
90.0
  0
ARC
  5
1FF
330
1F
100
AcDbEntity
  8
0
  6
SLD-Durchgehend
 62
     7
370
    15
100
AcDbCircle
 10
211.5877405913
 20
264.347214641
 30
0.0
 40
0.5
100
AcDbArc
 50
270.0
 51
0.0
  0
ARC
  5
200
330
1F
100
AcDbEntity
  8
0
  6
SLD-Durchgehend
 62
     7
370
    15
100
AcDbCircle
 10
227.4441470518
 20
264.347214641
 30
0.0
 40
0.5
100
AcDbArc
 50
180.0
 51
270.0
  0
LINE
  5
201
330
1F
100
AcDbEntity
  8
0
  6
SLD-Durchgehend
 62
     7
370
    15
100
AcDbLine
 10
212.0877405778
 20
266.3472163099
 30
0.0
 11
212.0877405778
 21
264.3472122568
 31
0.0
  0
ARC
  5
202
330
1F
100
AcDbEntity
  8
0
  6
SLD-Durchgehend
 62
     7
370
    15
100
AcDbCircle
 10
212.5877405913
 20
266.347214641
 30
0.0
 40
0.5000000000000568
100
AcDbArc
 50
90.0
 51
180.0
  0
LINE
  5
203
330
1F
100
AcDbEntity
  8
0
  6
SLD-Durchgehend
 62
     7
370
    15
100
AcDbLine
 10
226.9441470653
 20
264.3472122568
 30
0.0
 11
226.9441470653
 21
266.3472163099
 31
0.0
  0
ARC
  5
204
330
1F
100
AcDbEntity
  8
0
  6
SLD-Durchgehend
 62
     7
370
    15
100
AcDbCircle
 10
226.4441470518
 20
266.347214641
 30
0.0
 40
0.5000000000000568
100
AcDbArc
 50
0.0
 51
90.0
  0
LINE
  5
205
330
1F
100
AcDbEntity
  8
0
  6
SLD-Durchgehend
 62
     7
370
    15
100
AcDbLine
 10
206.5159435533
 20
205.8472147751
 30
0.0
 11
206.3159438931
 21
205.8472147751
 31
0.0
  0
LINE
  5
206
330
1F
100
AcDbEntity
  8
0
  6
SLD-Durchgehend
 62
     7
370
    15
100
AcDbLine
 10
206.3159438931
 20
230.8472151476
 30
0.0
 11
206.3159438931
 21
205.8472147751
 31
0.0
  0
LINE
  5
207
330
1F
100
AcDbEntity
  8
0
  6
SLD-Durchgehend
 62
     7
370
    15
100
AcDbLine
 10
206.5159435533
 20
230.8472151476
 30
0.0
 11
206.3159438931
 21
230.8472151476
 31
0.0
  0
LINE
  5
208
330
1F
100
AcDbEntity
  8
0
  6
SLD-Durchgehend
 62
     7
370
    15
100
AcDbLine
 10
229.2659440227
 20
241.847215088
 30
0.0
 11
229.2659440227
 21
239.8472147602
 31
0.0
  0
LINE
  5
209
330
1F
100
AcDbEntity
  8
0
  6
SLD-Durchgehend
 62
     7
370
    15
100
AcDbLine
 10
209.7659436204
 20
241.847215088
 30
0.0
 11
229.2659440227
 21
241.847215088
 31
0.0
  0
LINE
  5
20A
330
1F
100
AcDbEntity
  8
0
  6
SLD-Durchgehend
 62
     7
370
    15
100
AcDbLine
 10
209.7659436204
 20
239.8472147602
 30
0.0
 11
209.7659436204
 21
241.847215088
 31
0.0
  0
LINE
  5
20B
330
1F
100
AcDbEntity
  8
0
  6
SLD-Durchgehend
 62
     7
370
    15
100
AcDbLine
 10
209.7659436204
 20
239.8472147602
 30
0.0
 11
229.2659440227
 21
239.8472147602
 31
0.0
  0
LINE
  5
20C
330
1F
100
AcDbEntity
  8
0
  6
SLD-Durchgehend
 62
     7
370
    15
100
AcDbLine
 10
209.7659436204
 20
247.8472160715
 30
0.0
 11
229.2659440227
 21
247.8472160715
 31
0.0
  0
LINE
  5
20D
330
1F
100
AcDbEntity
  8
0
  6
SLD-Durchgehend
 62
     7
370
    15
100
AcDbLine
 10
229.2659440227
 20
247.8472160715
 30
0.0
 11
229.2659440227
 21
249.8472163993
 31
0.0
  0
LINE
  5
20E
330
1F
100
AcDbEntity
  8
0
  6
SLD-Durchgehend
 62
     7
370
    15
100
AcDbLine
 10
209.7659436204
 20
249.8472163993
 30
0.0
 11
229.2659440227
 21
249.8472163993
 31
0.0
  0
LINE
  5
20F
330
1F
100
AcDbEntity
  8
0
  6
SLD-Durchgehend
 62
     7
370
    15
100
AcDbLine
 10
209.7659436204
 20
249.8472163993
 30
0.0
 11
209.7659436204
 21
247.8472160715
 31
0.0
  0
LINE
  5
210
330
1F
100
AcDbEntity
  8
0
  6
SLD-Durchgehend
 62
     7
370
    15
100
AcDbLine
 10
209.7659436204
 20
255.8472136575
 30
0.0
 11
229.2659440227
 21
255.8472136575
 31
0.0
  0
LINE
  5
211
330
1F
100
AcDbEntity
  8
0
  6
SLD-Durchgehend
 62
     7
370
    15
100
AcDbLine
 10
229.2659440227
 20
255.8472136575
 30
0.0
 11
229.2659440227
 21
257.8472139853
 31
0.0
  0
LINE
  5
212
330
1F
100
AcDbEntity
  8
0
  6
SLD-Durchgehend
 62
     7
370
    15
100
AcDbLine
 10
209.7659436204
 20
257.8472139853
 30
0.0
 11
229.2659440227
 21
257.8472139853
 31
0.0
  0
LINE
  5
213
330
1F
100
AcDbEntity
  8
0
  6
SLD-Durchgehend
 62
     7
370
    15
100
AcDbLine
 10
209.7659436204
 20
257.8472139853
 30
0.0
 11
209.7659436204
 21
255.8472136575
 31
0.0
  0
LINE
  5
214
330
1F
100
AcDbEntity
  8
0
  6
SLD-Durchgehend
 62
     7
370
    15
100
AcDbLine
 10
210.2659437023
 20
263.8472112435
 30
0.0
 11
228.7659439407
 21
263.8472112435
 31
0.0
  0
LINE
  5
215
330
1F
100
AcDbEntity
  8
0
  6
SLD-Durchgehend
 62
     7
370
    15
100
AcDbLine
 10
211.0159433596
 20
249.8472163993
 30
0.0
 11
211.0159433596
 21
247.8472160715
 31
0.0
  0
LINE
  5
216
330
1F
100
AcDbEntity
  8
0
  6
SLD-Durchgehend
 62
     7
370
    15
100
AcDbLine
 10
228.0159442835
 20
249.8472163993
 30
0.0
 11
228.0159442835
 21
247.8472160715
 31
0.0
  0
LINE
  5
217
330
1F
100
AcDbEntity
  8
0
  6
SLD-Durchgehend
 62
     7
370
    15
100
AcDbLine
 10
228.0159442835
 20
239.8472147602
 30
0.0
 11
228.0159442835
 21
241.847215088
 31
0.0
  0
LINE
  5
218
330
1F
100
AcDbEntity
  8
0
  6
SLD-Durchgehend
 62
     7
370
    15
100
AcDbLine
 10
211.0159433596
 20
239.8472147602
 30
0.0
 11
211.0159433596
 21
241.847215088
 31
0.0
  0
LINE
  5
219
330
1F
100
AcDbEntity
  8
0
  6
SLD-Durchgehend
 62
     7
370
    15
100
AcDbLine
 10
211.0159433596
 20
257.8472139853
 30
0.0
 11
211.0159433596
 21
255.8472136575
 31
0.0
  0
LINE
  5
21A
330
1F
100
AcDbEntity
  8
0
  6
SLD-Durchgehend
 62
     7
370
    15
100
AcDbLine
 10
228.0159442835
 20
257.8472139853
 30
0.0
 11
228.0159442835
 21
255.8472136575
 31
0.0
  0
LINE
  5
21B
330
1F
100
AcDbEntity
  8
0
  6
SLD-Durchgehend
 62
     7
370
    15
100
AcDbLine
 10
216.0518422406
 20
266.8472173232
 30
0.0
 11
222.9800454024
 21
266.8472173232
 31
0.0
  0
LINE
  5
21C
330
1F
100
AcDbEntity
  8
0
  6
SLD-Durchgehend
 62
     7
370
    15
100
AcDbLine
 10
212.5877406597
 20
266.8472173232
 30
0.0
 11
216.0518422406
 21
266.8472173232
 31
0.0
  0
LINE
  5
21D
330
1F
100
AcDbEntity
  8
0
  6
SLD-Durchgehend
 62
     7
370
    15
100
AcDbLine
 10
222.9800454024
 20
266.8472173232
 30
0.0
 11
226.4441469833
 21
266.8472173232
 31
0.0
  0
LINE
  5
21E
330
1F
100
AcDbEntity
  8
0
  6
SLD-Durchgehend
 62
     7
370
    15
100
AcDbLine
 10
215.0159440153
 20
166.8472158331
 30
0.0
 11
215.0159440153
 21
182.8472147304
 31
0.0
  0
LINE
  5
21F
330
1F
100
AcDbEntity
  8
0
  6
SLD-Durchgehend
 62
     7
370
    15
100
AcDbLine
 10
206.5159435533
 20
182.8472147304
 30
0.0
 11
215.0159440153
 21
182.8472147304
 31
0.0
  0
LINE
  5
220
330
1F
100
AcDbEntity
  8
0
  6
SLD-Durchgehend
 62
     7
370
    15
100
AcDbLine
 10
206.5159435533
 20
182.8472147304
 30
0.0
 11
206.5159435533
 21
166.8472158331
 31
0.0
  0
LINE
  5
221
330
1F
100
AcDbEntity
  8
0
  6
SLD-Durchgehend
 62
     7
370
    15
100
AcDbLine
 10
215.0159440153
 20
166.8472158331
 30
0.0
 11
206.5159435533
 21
166.8472158331
 31
0.0
  0
LINE
  5
222
330
1F
100
AcDbEntity
  8
0
  6
SLD-Durchgehend
 62
     7
370
    15
100
AcDbLine
 10
232.5159440898
 20
182.8472147304
 30
0.0
 11
232.5159440898
 21
166.8472158331
 31
0.0
  0
LINE
  5
223
330
1F
100
AcDbEntity
  8
0
  6
SLD-Durchgehend
 62
     7
370
    15
100
AcDbLine
 10
224.0159436278
 20
166.8472158331
 30
0.0
 11
224.0159436278
 21
182.8472147304
 31
0.0
  0
LINE
  5
224
330
1F
100
AcDbEntity
  8
0
  6
SLD-Durchgehend
 62
     7
370
    15
100
AcDbLine
 10
224.0159436278
 20
182.8472147304
 30
0.0
 11
232.5159440898
 21
182.8472147304
 31
0.0
  0
LINE
  5
225
330
1F
100
AcDbEntity
  8
0
  6
SLD-Durchgehend
 62
     7
370
    15
100
AcDbLine
 10
232.5159440898
 20
166.8472158331
 30
0.0
 11
224.0159436278
 21
166.8472158331
 31
0.0
  0
LINE
  5
226
330
1F
100
AcDbEntity
  8
0
  6
SLD-Durchgehend
 62
     7
370
    15
100
AcDbLine
 10
224.0159436278
 20
182.8472147304
 30
0.0
 11
215.0159440153
 21
182.8472147304
 31
0.0
  0
LINE
  5
227
330
1F
100
AcDbEntity
  8
0
  6
SLD-Durchgehend
 62
     7
370
    15
100
AcDbLine
 10
224.0159436278
 20
166.8472158331
 30
0.0
 11
215.0159440153
 21
166.8472158331
 31
0.0
  0
LINE
  5
228
330
1F
100
AcDbEntity
  8
0
  6
SLD-Durchgehend
 62
     7
370
    15
100
AcDbLine
 10
232.5159440898
 20
185.3472142088
 30
0.0
 11
232.5159440898
 21
182.8472147304
 31
0.0
  0
LINE
  5
229
330
1F
100
AcDbEntity
  8
0
  6
SLD-Durchgehend
 62
     7
370
    15
100
AcDbLine
 10
206.5159435533
 20
182.8472147304
 30
0.0
 11
206.5159435533
 21
185.3472142088
 31
0.0
  0
LINE
  5
22A
330
1F
100
AcDbEntity
  8
0
  6
SLD-Durchgehend
 62
     7
370
    15
100
AcDbLine
 10
206.5159435533
 20
231.8472134489
 30
0.0
 11
232.5159440898
 21
231.8472134489
 31
0.0
  0
LINE
  5
22B
330
1F
100
AcDbEntity
  8
0
  6
SLD-Durchgehend
 62
     7
370
    15
100
AcDbLine
 10
232.5159440898
 20
185.3472142088
 30
0.0
 11
232.5159440898
 21
231.8472134489
 31
0.0
  0
LINE
  5
22C
330
1F
100
AcDbEntity
  8
0
  6
SLD-Durchgehend
 62
     7
370
    15
100
AcDbLine
 10
206.5159435533
 20
185.3472142088
 30
0.0
 11
206.5159435533
 21
231.8472134489
 31
0.0
  0
LINE
  5
22D
330
1F
100
AcDbEntity
  8
0
  6
SLD-Durchgehend
 62
     8
370
     0
100
AcDbLine
 10
229.2659440227
 20
263.3472176808
 30
0.0
 11
209.7659436204
 21
263.3472176808
 31
0.0
  0
LINE
  5
22E
330
1F
100
AcDbEntity
  8
0
  6
SLD-Durchgehend
 62
     8
370
     0
100
AcDbLine
 10
209.7659436204
 20
232.3472144622
 30
0.0
 11
229.2659440227
 21
232.3472144622
 31
0.0
  0
ARC
  5
22F
330
1F
100
AcDbEntity
  8
0
  6
SLD-Durchgehend
 62
     8
370
     0
100
AcDbCircle
 10
215.1497243366
 20
264.3159682
 30
0.0
 40
0.4701443919298875
100
AcDbArc
 50
274.4028637985
 51
3.8104738203
  0
LINE
  5
230
330
1F
100
AcDbEntity
  8
0
  6
SLD-Durchgehend
 62
     8
370
     0
100
AcDbLine
 10
215.6188293975
 20
264.3472122568
 30
0.0
 11
216.0518422406
 21
264.3472122568
 31
0.0
  0
LINE
  5
231
330
1F
100
AcDbEntity
  8
0
  6
SLD-Durchgehend
 62
     8
370
     0
100
AcDbLine
 10
216.0518422406
 20
263.8472112435
 30
0.0
 11
216.0518422406
 21
264.3472122568
 31
0.0
  0
LINE
  5
232
330
1F
100
AcDbEntity
  8
0
  6
SLD-Durchgehend
 62
     8
370
     0
100
AcDbLine
 10
216.0518422406
 20
264.3472122568
 30
0.0
 11
222.9800454024
 21
264.3472122568
 31
0.0
  0
LINE
  5
233
330
1F
100
AcDbEntity
  8
0
  6
SLD-Durchgehend
 62
     8
370
     0
100
AcDbLine
 10
222.9800454024
 20
263.8472112435
 30
0.0
 11
222.9800454024
 21
264.3472122568
 31
0.0
  0
LINE
  5
234
330
1F
100
AcDbEntity
  8
0
  6
SLD-Durchgehend
 62
     8
370
     0
100
AcDbLine
 10
223.4130582456
 20
264.3472122568
 30
0.0
 11
222.9800454024
 21
264.3472122568
 31
0.0
  0
ARC
  5
235
330
1F
100
AcDbEntity
  8
0
  6
SLD-Durchgehend
 62
     8
370
     0
100
AcDbCircle
 10
223.8821633065
 20
264.3159682
 30
0.0
 40
0.4701443919298695
100
AcDbArc
 50
176.1895261797
 51
265.5971362016
  0
LINE
  5
236
330
1F
100
AcDbEntity
  8
0
  6
SLD-Durchgehend
 62
     8
370
     0
100
AcDbLine
 10
212.1547278166
 20
264.3472122568
 30
0.0
 11
215.6188293975
 21
264.3472122568
 31
0.0
  0
ARC
  5
237
330
1F
100
AcDbEntity
  8
0
  6
SLD-Durchgehend
 62
     8
370
     0
100
AcDbCircle
 10
211.6856227999
 20
264.3159681786
 30
0.0
 40
0.4701443492788142
100
AcDbArc
 50
274.4028303406
 51
3.8104767863
  0
LINE
  5
238
330
1F
100
AcDbEntity
  8
0
  6
SLD-Durchgehend
 62
     8
370
     0
100
AcDbLine
 10
216.0518422406
 20
266.3472163099
 30
0.0
 11
216.0518422406
 21
264.3472122568
 31
0.0
  0
LINE
  5
239
330
1F
100
AcDbEntity
  8
0
  6
SLD-Durchgehend
 62
     8
370
     0
100
AcDbLine
 10
215.6188293975
 20
264.3472122568
 30
0.0
 11
215.6188293975
 21
266.3472163099
 31
0.0
  0
LINE
  5
23A
330
1F
100
AcDbEntity
  8
0
  6
SLD-Durchgehend
 62
     8
370
     0
100
AcDbLine
 10
216.0518422406
 20
266.3472163099
 30
0.0
 11
215.6188293975
 21
266.3472163099
 31
0.0
  0
ARC
  5
23B
330
1F
100
AcDbEntity
  8
0
  6
SLD-Durchgehend
 62
     8
370
     0
100
AcDbCircle
 10
216.0879347872
 20
266.3784600651
 30
0.0
 40
0.4701446999756368
100
AcDbArc
 50
94.4028726398
 51
183.810434487
  0
LINE
  5
23C
330
1F
100
AcDbEntity
  8
0
  6
SLD-Durchgehend
 62
     8
370
     0
100
AcDbLine
 10
216.0518422406
 20
266.3472163099
 30
0.0
 11
216.0518422406
 21
266.8472173232
 31
0.0
  0
LINE
  5
23D
330
1F
100
AcDbEntity
  8
0
  6
SLD-Durchgehend
 62
     8
370
     0
100
AcDbLine
 10
222.9800454024
 20
266.3472163099
 30
0.0
 11
216.0518422406
 21
266.3472163099
 31
0.0
  0
LINE
  5
23E
330
1F
100
AcDbEntity
  8
0
  6
SLD-Durchgehend
 62
     8
370
     0
100
AcDbLine
 10
222.9800454024
 20
266.3472163099
 30
0.0
 11
222.9800454024
 21
266.8472173232
 31
0.0
  0
LINE
  5
23F
330
1F
100
AcDbEntity
  8
0
  6
SLD-Durchgehend
 62
     8
370
     0
100
AcDbLine
 10
222.9800454024
 20
264.3472122568
 30
0.0
 11
222.9800454024
 21
266.3472163099
 31
0.0
  0
LINE
  5
240
330
1F
100
AcDbEntity
  8
0
  6
SLD-Durchgehend
 62
     8
370
     0
100
AcDbLine
 10
223.4130582456
 20
264.3472122568
 30
0.0
 11
226.8771598265
 21
264.3472122568
 31
0.0
  0
ARC
  5
241
330
1F
100
AcDbEntity
  8
0
  6
SLD-Durchgehend
 62
     8
370
     0
100
AcDbCircle
 10
227.3462648432
 20
264.3159681786
 30
0.0
 40
0.4701443492788356
100
AcDbArc
 50
176.1895232137
 51
265.5971696594
  0
ARC
  5
242
330
1F
100
AcDbEntity
  8
0
  6
SLD-Durchgehend
 62
     8
370
     0
100
AcDbCircle
 10
222.9439528558
 20
266.3784600651
 30
0.0
 40
0.4701446999756368
100
AcDbArc
 50
356.189565513
 51
85.5971273602
  0
LINE
  5
243
330
1F
100
AcDbEntity
  8
0
  6
SLD-Durchgehend
 62
     8
370
     0
100
AcDbLine
 10
222.9800454024
 20
266.3472163099
 30
0.0
 11
223.4130582456
 21
266.3472163099
 31
0.0
  0
LINE
  5
244
330
1F
100
AcDbEntity
  8
0
  6
SLD-Durchgehend
 62
     8
370
     0
100
AcDbLine
 10
223.4130582456
 20
266.3472163099
 30
0.0
 11
223.4130582456
 21
264.3472122568
 31
0.0
  0
LINE
  5
245
330
1F
100
AcDbEntity
  8
0
  6
SLD-Durchgehend
 62
     8
370
     0
100
AcDbLine
 10
215.6188293975
 20
266.3472163099
 30
0.0
 11
212.1547278166
 21
266.3472163099
 31
0.0
  0
ARC
  5
246
330
1F
100
AcDbEntity
  8
0
  6
SLD-Durchgehend
 62
     8
370
     0
100
AcDbCircle
 10
212.6238333662
 20
266.3784599267
 30
0.0
 40
0.4701448502668517
100
AcDbArc
 50
94.4028907672
 51
183.8104163597
  0
LINE
  5
247
330
1F
100
AcDbEntity
  8
0
  6
SLD-Durchgehend
 62
     8
370
     0
100
AcDbLine
 10
212.1547278166
 20
266.3472163099
 30
0.0
 11
212.1547278166
 21
264.3472122568
 31
0.0
  0
LINE
  5
248
330
1F
100
AcDbEntity
  8
0
  6
SLD-Durchgehend
 62
     8
370
     0
100
AcDbLine
 10
226.8771598265
 20
266.3472163099
 30
0.0
 11
223.4130582456
 21
266.3472163099
 31
0.0
  0
ARC
  5
249
330
1F
100
AcDbEntity
  8
0
  6
SLD-Durchgehend
 62
     8
370
     0
100
AcDbCircle
 10
226.4080542769
 20
266.3784599267
 30
0.0
 40
0.4701448502668083
100
AcDbArc
 50
356.1895836403
 51
85.5971092328
  0
LINE
  5
24A
330
1F
100
AcDbEntity
  8
0
  6
SLD-Durchgehend
 62
     8
370
     0
100
AcDbLine
 10
226.8771598265
 20
264.3472122568
 30
0.0
 11
226.8771598265
 21
266.3472163099
 31
0.0
  0
LINE
  5
24B
330
1F
100
AcDbEntity
  8
0
  6
SLD-Durchgehend
 62
     8
370
     0
100
AcDbLine
 10
212.1547278166
 20
264.3472122568
 30
0.0
 11
212.0877405778
 21
264.3472122568
 31
0.0
  0
LINE
  5
24C
330
1F
100
AcDbEntity
  8
0
  6
SLD-Durchgehend
 62
     8
370
     0
100
AcDbLine
 10
226.9441470653
 20
264.3472122568
 30
0.0
 11
226.8771598265
 21
264.3472122568
 31
0.0
  0
LINE
  5
24D
330
1F
100
AcDbEntity
  8
0
  6
SLD-Durchgehend
 62
     8
370
     0
100
AcDbLine
 10
212.0877405778
 20
266.3472163099
 30
0.0
 11
212.1547278166
 21
266.3472163099
 31
0.0
  0
LINE
  5
24E
330
1F
100
AcDbEntity
  8
0
  6
SLD-Durchgehend
 62
     8
370
     0
100
AcDbLine
 10
226.8771598265
 20
266.3472163099
 30
0.0
 11
226.9441470653
 21
266.3472163099
 31
0.0
  0
LINE
  5
24F
330
1F
100
AcDbEntity
  8
0
  6
SLD-Durchgehend
 62
     8
370
     0
100
AcDbLine
 10
206.5159435533
 20
185.3472142088
 30
0.0
 11
232.5159440898
 21
185.3472142088
 31
0.0
  0
LINE
  5
250
330
1F
100
AcDbEntity
  8
0
  6
SLD-Punktstrich
 62
     7
370
     0
100
AcDbLine
 10
219.5159438215
 20
164.847214641
 30
0.0
 11
219.5159438215
 21
184.847214641
 31
0.0
  0
LINE
  5
251
330
1F
100
AcDbEntity
  8
0
  6
SLD-Durchgehend
 62
     7
370
    15
100
AcDbLine
 10
336.7765684221
 20
257.847214641
 30
0.0
 11
336.7765684221
 21
263.347214641
 31
0.0
  0
LINE
  5
252
330
1F
100
AcDbEntity
  8
0
  6
SLD-Durchgehend
 62
     7
370
    15
100
AcDbLine
 10
336.7765684221
 20
249.847214641
 30
0.0
 11
336.7765684221
 21
255.847214641
 31
0.0
  0
LINE
  5
253
330
1F
100
AcDbEntity
  8
0
  6
SLD-Durchgehend
 62
     7
370
    15
100
AcDbLine
 10
336.7765684221
 20
241.847214641
 30
0.0
 11
336.7765684221
 21
247.847214641
 31
0.0
  0
LINE
  5
254
330
1F
100
AcDbEntity
  8
0
  6
SLD-Durchgehend
 62
     7
370
    15
100
AcDbLine
 10
336.7765684221
 20
232.347214641
 30
0.0
 11
336.7765684221
 21
239.847214641
 31
0.0
  0
LINE
  5
255
330
1F
100
AcDbEntity
  8
0
  6
SLD-Durchgehend
 62
     7
370
    15
100
AcDbLine
 10
317.2765684221
 20
263.347214641
 30
0.0
 11
317.2765684221
 21
232.347214641
 31
0.0
  0
ARC
  5
256
330
1F
100
AcDbEntity
  8
0
  6
SLD-Durchgehend
 62
     7
370
    15
100
AcDbCircle
 10
317.7765684221
 20
232.347214641
 30
0.0
 40
0.5
100
AcDbArc
 50
180.0
 51
270.0
  0
ARC
  5
257
330
1F
100
AcDbEntity
  8
0
  6
SLD-Durchgehend
 62
     7
370
    15
100
AcDbCircle
 10
336.2765684221
 20
232.347214641
 30
0.0
 40
0.5
100
AcDbArc
 50
270.0
 51
0.0
  0
ARC
  5
258
330
1F
100
AcDbEntity
  8
0
  6
SLD-Durchgehend
 62
     7
370
    15
100
AcDbCircle
 10
317.7765684221
 20
263.347214641
 30
0.0
 40
0.5
100
AcDbArc
 50
90.0
 51
180.0
  0
ARC
  5
259
330
1F
100
AcDbEntity
  8
0
  6
SLD-Durchgehend
 62
     7
370
    15
100
AcDbCircle
 10
336.2765684221
 20
263.347214641
 30
0.0
 40
0.5
100
AcDbArc
 50
0.0
 51
90.0
  0
LINE
  5
25A
330
1F
100
AcDbEntity
  8
0
  6
SLD-Durchgehend
 62
     7
370
    15
100
AcDbLine
 10
335.5265684221
 20
255.847214641
 30
0.0
 11
335.5265684221
 21
257.847214641
 31
0.0
  0
LINE
  5
25B
330
1F
100
AcDbEntity
  8
0
  6
SLD-Durchgehend
 62
     7
370
    15
100
AcDbLine
 10
335.5265684221
 20
247.847214641
 30
0.0
 11
335.5265684221
 21
249.847214641
 31
0.0
  0
LINE
  5
25C
330
1F
100
AcDbEntity
  8
0
  6
SLD-Durchgehend
 62
     7
370
    15
100
AcDbLine
 10
335.5265684221
 20
239.847214641
 30
0.0
 11
335.5265684221
 21
241.847214641
 31
0.0
  0
LINE
  5
25D
330
1F
100
AcDbEntity
  8
0
  6
SLD-Durchgehend
 62
     7
370
    15
100
AcDbLine
 10
289.0265684221
 20
230.847214641
 30
0.0
 11
289.0265684221
 21
205.847214641
 31
0.0
  0
LINE
  5
25E
330
1F
100
AcDbEntity
  8
0
  6
SLD-Durchgehend
 62
     7
370
    15
100
AcDbLine
 10
289.0265684221
 20
230.847214641
 30
0.0
 11
339.0265684221
 21
230.847214641
 31
0.0
  0
LINE
  5
25F
330
1F
100
AcDbEntity
  8
0
  6
SLD-Durchgehend
 62
     7
370
    15
100
AcDbLine
 10
339.0265684221
 20
230.847214641
 30
0.0
 11
339.0265684221
 21
205.847214641
 31
0.0
  0
LINE
  5
260
330
1F
100
AcDbEntity
  8
0
  6
SLD-Durchgehend
 62
     7
370
    15
100
AcDbLine
 10
289.0265684221
 20
205.847214641
 30
0.0
 11
339.0265684221
 21
205.847214641
 31
0.0
  0
LINE
  5
261
330
1F
100
AcDbEntity
  8
0
  6
SLD-Durchgehend
 62
     7
370
    15
100
AcDbLine
 10
327.0265684221
 20
241.847214641
 30
0.0
 11
336.7765684221
 21
241.847214641
 31
0.0
  0
LINE
  5
262
330
1F
100
AcDbEntity
  8
0
  6
SLD-Durchgehend
 62
     7
370
    15
100
AcDbLine
 10
327.0265684221
 20
239.847214641
 30
0.0
 11
327.0265684221
 21
241.847214641
 31
0.0
  0
LINE
  5
263
330
1F
100
AcDbEntity
  8
0
  6
SLD-Durchgehend
 62
     7
370
    15
100
AcDbLine
 10
327.0265684221
 20
239.847214641
 30
0.0
 11
336.7765684221
 21
239.847214641
 31
0.0
  0
LINE
  5
264
330
1F
100
AcDbEntity
  8
0
  6
SLD-Durchgehend
 62
     7
370
    15
100
AcDbLine
 10
327.0265684221
 20
247.847214641
 30
0.0
 11
336.7765684221
 21
247.847214641
 31
0.0
  0
LINE
  5
265
330
1F
100
AcDbEntity
  8
0
  6
SLD-Durchgehend
 62
     7
370
    15
100
AcDbLine
 10
327.0265684221
 20
249.847214641
 30
0.0
 11
336.7765684221
 21
249.847214641
 31
0.0
  0
LINE
  5
266
330
1F
100
AcDbEntity
  8
0
  6
SLD-Durchgehend
 62
     7
370
    15
100
AcDbLine
 10
327.0265684221
 20
249.847214641
 30
0.0
 11
327.0265684221
 21
247.847214641
 31
0.0
  0
LINE
  5
267
330
1F
100
AcDbEntity
  8
0
  6
SLD-Durchgehend
 62
     7
370
    15
100
AcDbLine
 10
327.0265684221
 20
255.847214641
 30
0.0
 11
336.7765684221
 21
255.847214641
 31
0.0
  0
LINE
  5
268
330
1F
100
AcDbEntity
  8
0
  6
SLD-Durchgehend
 62
     7
370
    15
100
AcDbLine
 10
327.0265684221
 20
257.847214641
 30
0.0
 11
336.7765684221
 21
257.847214641
 31
0.0
  0
LINE
  5
269
330
1F
100
AcDbEntity
  8
0
  6
SLD-Durchgehend
 62
     7
370
    15
100
AcDbLine
 10
327.0265684221
 20
257.847214641
 30
0.0
 11
327.0265684221
 21
255.847214641
 31
0.0
  0
LINE
  5
26A
330
1F
100
AcDbEntity
  8
0
  6
SLD-Durchgehend
 62
     7
370
    15
100
AcDbLine
 10
327.0265684221
 20
263.847214641
 30
0.0
 11
336.2765684221
 21
263.847214641
 31
0.0
  0
LINE
  5
26B
330
1F
100
AcDbEntity
  8
0
  6
SLD-Durchgehend
 62
     7
370
    15
100
AcDbLine
 10
317.7765684221
 20
263.847214641
 30
0.0
 11
327.0265684221
 21
263.847214641
 31
0.0
  0
LINE
  5
26C
330
1F
100
AcDbEntity
  8
0
  6
SLD-Durchgehend
 62
     7
370
    15
100
AcDbLine
 10
321.0265684221
 20
266.847214641
 30
0.0
 11
327.0265684221
 21
266.847214641
 31
0.0
  0
LINE
  5
26D
330
1F
100
AcDbEntity
  8
0
  6
SLD-Durchgehend
 62
     7
370
    15
100
AcDbLine
 10
327.0265684221
 20
266.847214641
 30
0.0
 11
333.0265684221
 21
266.847214641
 31
0.0
  0
ARC
  5
26E
330
1F
100
AcDbEntity
  8
0
  6
SLD-Durchgehend
 62
     7
370
    15
100
AcDbCircle
 10
320.0265684221
 20
264.347214641
 30
0.0
 40
0.5
100
AcDbArc
 50
270.0
 51
0.0
  0
ARC
  5
26F
330
1F
100
AcDbEntity
  8
0
  6
SLD-Durchgehend
 62
     7
370
    15
100
AcDbCircle
 10
334.0265684221
 20
264.347214641
 30
0.0
 40
0.5000000000000568
100
AcDbArc
 50
180.0
 51
270.0
  0
ARC
  5
270
330
1F
100
AcDbEntity
  8
0
  6
SLD-Durchgehend
 62
     7
370
    15
100
AcDbCircle
 10
321.0265684221
 20
266.347214641
 30
0.0
 40
0.5000000000000568
100
AcDbArc
 50
90.0
 51
180.0
  0
LINE
  5
271
330
1F
100
AcDbEntity
  8
0
  6
SLD-Durchgehend
 62
     7
370
    15
100
AcDbLine
 10
320.5265684221
 20
264.347214641
 30
0.0
 11
320.5265684221
 21
266.347214641
 31
0.0
  0
ARC
  5
272
330
1F
100
AcDbEntity
  8
0
  6
SLD-Durchgehend
 62
     7
370
    15
100
AcDbCircle
 10
333.0265684221
 20
266.347214641
 30
0.0
 40
0.5000000000000568
100
AcDbArc
 50
0.0
 51
90.0
  0
LINE
  5
273
330
1F
100
AcDbEntity
  8
0
  6
SLD-Durchgehend
 62
     7
370
    15
100
AcDbLine
 10
333.5265684221
 20
266.347214641
 30
0.0
 11
333.5265684221
 21
264.347214641
 31
0.0
  0
LINE
  5
274
330
1F
100
AcDbEntity
  8
0
  6
SLD-Durchgehend
 62
     7
370
    15
100
AcDbLine
 10
289.0265684221
 20
167.347214641
 30
0.0
 11
339.0265684221
 21
167.347214641
 31
0.0
  0
LINE
  5
275
330
1F
100
AcDbEntity
  8
0
  6
SLD-Durchgehend
 62
     7
370
    15
100
AcDbLine
 10
289.0265684221
 20
166.847214641
 30
0.0
 11
289.0265684221
 21
167.347214641
 31
0.0
  0
LINE
  5
276
330
1F
100
AcDbEntity
  8
0
  6
SLD-Durchgehend
 62
     7
370
    15
100
AcDbLine
 10
279.0265684221
 20
182.847214641
 30
0.0
 11
257.5265684221
 21
182.847214641
 31
0.0
  0
ARC
  5
277
330
1F
100
AcDbEntity
  8
0
  6
SLD-Durchgehend
 62
     7
370
    15
100
AcDbCircle
 10
279.0265684221
 20
185.347214641
 30
0.0
 40
2.500000000000057
100
AcDbArc
 50
270.0
 51
0.0
  0
LINE
  5
278
330
1F
100
AcDbEntity
  8
0
  6
SLD-Durchgehend
 62
     7
370
    15
100
AcDbLine
 10
281.5265684221
 20
231.847214641
 30
0.0
 11
281.5265684221
 21
185.347214641
 31
0.0
  0
LINE
  5
279
330
1F
100
AcDbEntity
  8
0
  6
SLD-Durchgehend
 62
     7
370
    15
100
AcDbLine
 10
281.5265684221
 20
231.847214641
 30
0.0
 11
346.5265684221
 21
231.847214641
 31
0.0
  0
LINE
  5
27A
330
1F
100
AcDbEntity
  8
0
  6
SLD-Durchgehend
 62
     7
370
    15
100
AcDbLine
 10
346.5265684221
 20
185.347214641
 30
0.0
 11
346.5265684221
 21
231.847214641
 31
0.0
  0
ARC
  5
27B
330
1F
100
AcDbEntity
  8
0
  6
SLD-Durchgehend
 62
     7
370
    15
100
AcDbCircle
 10
349.0265684221
 20
185.347214641
 30
0.0
 40
2.500000000000028
100
AcDbArc
 50
180.0
 51
270.0
  0
LINE
  5
27C
330
1F
100
AcDbEntity
  8
0
  6
SLD-Durchgehend
 62
     7
370
    15
100
AcDbLine
 10
370.5265684221
 20
182.847214641
 30
0.0
 11
349.0265684221
 21
182.847214641
 31
0.0
  0
LINE
  5
27D
330
1F
100
AcDbEntity
  8
0
  6
SLD-Durchgehend
 62
     7
370
    15
100
AcDbLine
 10
370.5265684221
 20
182.847214641
 30
0.0
 11
370.5265684221
 21
166.847214641
 31
0.0
  0
LINE
  5
27E
330
1F
100
AcDbEntity
  8
0
  6
SLD-Durchgehend
 62
     7
370
    15
100
AcDbLine
 10
370.5265684221
 20
166.847214641
 30
0.0
 11
339.0265684221
 21
166.847214641
 31
0.0
  0
LINE
  5
27F
330
1F
100
AcDbEntity
  8
0
  6
SLD-Durchgehend
 62
     7
370
    15
100
AcDbLine
 10
339.0265684221
 20
167.347214641
 30
0.0
 11
339.0265684221
 21
166.847214641
 31
0.0
  0
LINE
  5
280
330
1F
100
AcDbEntity
  8
0
  6
SLD-Durchgehend
 62
     7
370
    15
100
AcDbLine
 10
289.0265684221
 20
166.847214641
 30
0.0
 11
257.5265684221
 21
166.847214641
 31
0.0
  0
LINE
  5
281
330
1F
100
AcDbEntity
  8
0
  6
SLD-Durchgehend
 62
     7
370
    15
100
AcDbLine
 10
257.5265684221
 20
166.847214641
 30
0.0
 11
257.5265684221
 21
182.847214641
 31
0.0
  0
LINE
  5
282
330
1F
100
AcDbEntity
  8
0
  6
SLD-Durchgehend
 62
     8
370
     0
100
AcDbLine
 10
327.0265684221
 20
263.347214641
 30
0.0
 11
317.2765684221
 21
263.347214641
 31
0.0
  0
LINE
  5
283
330
1F
100
AcDbEntity
  8
0
  6
SLD-Durchgehend
 62
     8
370
     0
100
AcDbLine
 10
336.7765684221
 20
263.347214641
 30
0.0
 11
327.0265684221
 21
263.347214641
 31
0.0
  0
LINE
  5
284
330
1F
100
AcDbEntity
  8
0
  6
SLD-Durchgehend
 62
     8
370
     0
100
AcDbLine
 10
327.0265684221
 20
232.347214641
 30
0.0
 11
336.7765684221
 21
232.347214641
 31
0.0
  0
LINE
  5
285
330
1F
100
AcDbEntity
  8
0
  6
SLD-Durchgehend
 62
     8
370
     0
100
AcDbLine
 10
317.2765684221
 20
232.347214641
 30
0.0
 11
327.0265684221
 21
232.347214641
 31
0.0
  0
LINE
  5
286
330
1F
100
AcDbEntity
  8
0
  6
SLD-Durchgehend
 62
     8
370
     0
100
AcDbLine
 10
327.2765684221
 20
264.347214641
 30
0.0
 11
326.7765684221
 21
264.347214641
 31
0.0
  0
LWPOLYLINE
  5
287
330
1F
100
AcDbEntity
  8
0
  6
SLD-Durchgehend
 62
     8
370
     0
100
AcDbPolyline
 90
        9
 70
   128
 43
0.0
 10
327.2765684221
 20
264.347214641
 10
327.281372102
 20
264.24966948
 10
327.295598539
 20
264.1558729248
 10
327.3187010191
 20
264.0694295245
 10
327.3497917268
 20
263.9936612504
 10
327.3876758639
 20
263.9314798348
 10
327.430897564
 20
263.8852748747
 10
327.4777958416
 20
263.8568220008
 10
327.5265684221
 20
263.847214641
  0
LWPOLYLINE
  5
288
330
1F
100
AcDbEntity
  8
0
  6
SLD-Durchgehend
 62
     8
370
     0
100
AcDbPolyline
 90
        9
 70
   128
 43
0.0
 10
326.7765684221
 20
264.347214641
 10
326.7717647422
 20
264.24966948
 10
326.7575383053
 20
264.1558729248
 10
326.7344358252
 20
264.0694295245
 10
326.7033451174
 20
263.9936612504
 10
326.6654609804
 20
263.9314798348
 10
326.6222392802
 20
263.8852748747
 10
326.5753410026
 20
263.8568220008
 10
326.5265684221
 20
263.847214641
  0
LINE
  5
289
330
1F
100
AcDbEntity
  8
0
  6
SLD-Durchgehend
 62
     8
370
     0
100
AcDbLine
 10
320.7765684221
 20
264.347214641
 30
0.0
 11
326.7765684221
 21
264.347214641
 31
0.0
  0
LWPOLYLINE
  5
28A
330
1F
100
AcDbEntity
  8
0
  6
SLD-Durchgehend
 62
     8
370
     0
100
AcDbPolyline
 90
        9
 70
   128
 43
0.0
 10
320.7765684221
 20
264.347214641
 10
320.7717647422
 20
264.24966948
 10
320.7575383053
 20
264.1558729248
 10
320.7344358252
 20
264.0694295245
 10
320.7033451174
 20
263.9936612504
 10
320.6654609804
 20
263.9314798348
 10
320.6222392802
 20
263.8852748747
 10
320.5753410026
 20
263.8568220008
 10
320.5265684221
 20
263.847214641
  0
LINE
  5
28B
330
1F
100
AcDbEntity
  8
0
  6
SLD-Durchgehend
 62
     8
370
     0
100
AcDbLine
 10
327.2765684221
 20
264.347214641
 30
0.0
 11
333.2765684221
 21
264.347214641
 31
0.0
  0
LWPOLYLINE
  5
28C
330
1F
100
AcDbEntity
  8
0
  6
SLD-Durchgehend
 62
     8
370
     0
100
AcDbPolyline
 90
        9
 70
   128
 43
0.0
 10
333.2765684221
 20
264.347214641
 10
333.281372102
 20
264.24966948
 10
333.295598539
 20
264.1558729248
 10
333.3187010191
 20
264.0694295245
 10
333.3497917268
 20
263.9936612504
 10
333.3876758639
 20
263.9314798348
 10
333.430897564
 20
263.8852748747
 10
333.4777958416
 20
263.8568220008
 10
333.5265684221
 20
263.847214641
  0
LINE
  5
28D
330
1F
100
AcDbEntity
  8
0
  6
SLD-Durchgehend
 62
     8
370
     0
100
AcDbLine
 10
327.2765684221
 20
266.347214641
 30
0.0
 11
327.2765684221
 21
264.347214641
 31
0.0
  0
LINE
  5
28E
330
1F
100
AcDbEntity
  8
0
  6
SLD-Durchgehend
 62
     8
370
     0
100
AcDbLine
 10
326.7765684221
 20
264.347214641
 30
0.0
 11
326.7765684221
 21
266.347214641
 31
0.0
  0
LINE
  5
28F
330
1F
100
AcDbEntity
  8
0
  6
SLD-Durchgehend
 62
     8
370
     0
100
AcDbLine
 10
326.7765684221
 20
266.347214641
 30
0.0
 11
327.2765684221
 21
266.347214641
 31
0.0
  0
LWPOLYLINE
  5
290
330
1F
100
AcDbEntity
  8
0
  6
SLD-Durchgehend
 62
     8
370
     0
100
AcDbPolyline
 90
        9
 70
   128
 43
0.0
 10
327.0265684221
 20
266.847214641
 10
327.0753410026
 20
266.8376072812
 10
327.1222392802
 20
266.8091544072
 10
327.1654609804
 20
266.7629494471
 10
327.2033451174
 20
266.7007680316
 10
327.2344358252
 20
266.6249997575
 10
327.2575383053
 20
266.5385563572
 10
327.2717647422
 20
266.444759802
 10
327.2765684221
 20
266.347214641
  0
LWPOLYLINE
  5
291
330
1F
100
AcDbEntity
  8
0
  6
SLD-Durchgehend
 62
     8
370
     0
100
AcDbPolyline
 90
        9
 70
   128
 43
0.0
 10
327.0265684221
 20
266.847214641
 10
326.9777958416
 20
266.8376072812
 10
326.930897564
 20
266.8091544072
 10
326.8876758639
 20
266.7629494471
 10
326.8497917268
 20
266.7007680316
 10
326.8187010191
 20
266.6249997575
 10
326.795598539
 20
266.5385563572
 10
326.781372102
 20
266.444759802
 10
326.7765684221
 20
266.347214641
  0
LINE
  5
292
330
1F
100
AcDbEntity
  8
0
  6
SLD-Durchgehend
 62
     8
370
     0
100
AcDbLine
 10
326.7765684221
 20
266.347214641
 30
0.0
 11
320.7765684221
 21
266.347214641
 31
0.0
  0
LWPOLYLINE
  5
293
330
1F
100
AcDbEntity
  8
0
  6
SLD-Durchgehend
 62
     8
370
     0
100
AcDbPolyline
 90
        9
 70
   128
 43
0.0
 10
321.0265684221
 20
266.847214641
 10
320.9777958416
 20
266.8376072812
 10
320.930897564
 20
266.8091544072
 10
320.8876758639
 20
266.7629494471
 10
320.8497917268
 20
266.7007680316
 10
320.8187010191
 20
266.6249997575
 10
320.795598539
 20
266.5385563572
 10
320.781372102
 20
266.444759802
 10
320.7765684221
 20
266.347214641
  0
LINE
  5
294
330
1F
100
AcDbEntity
  8
0
  6
SLD-Durchgehend
 62
     8
370
     0
100
AcDbLine
 10
320.7765684221
 20
266.347214641
 30
0.0
 11
320.7765684221
 21
264.347214641
 31
0.0
  0
LWPOLYLINE
  5
295
330
1F
100
AcDbEntity
  8
0
  6
SLD-Durchgehend
 62
     8
370
     0
100
AcDbPolyline
 90
        9
 70
   128
 43
0.0
 10
333.0265684221
 20
266.847214641
 10
333.0753410026
 20
266.8376072812
 10
333.1222392802
 20
266.8091544072
 10
333.1654609804
 20
266.7629494471
 10
333.2033451174
 20
266.7007680316
 10
333.2344358252
 20
266.6249997575
 10
333.2575383053
 20
266.5385563572
 10
333.2717647422
 20
266.444759802
 10
333.2765684221
 20
266.347214641
  0
LINE
  5
296
330
1F
100
AcDbEntity
  8
0
  6
SLD-Durchgehend
 62
     8
370
     0
100
AcDbLine
 10
333.2765684221
 20
266.347214641
 30
0.0
 11
327.2765684221
 21
266.347214641
 31
0.0
  0
LINE
  5
297
330
1F
100
AcDbEntity
  8
0
  6
SLD-Durchgehend
 62
     8
370
     0
100
AcDbLine
 10
333.2765684221
 20
264.347214641
 30
0.0
 11
333.2765684221
 21
266.347214641
 31
0.0
  0
LINE
  5
298
330
1F
100
AcDbEntity
  8
0
  6
SLD-Durchgehend
 62
     8
370
     0
100
AcDbLine
 10
320.7765684221
 20
264.347214641
 30
0.0
 11
320.5265684221
 21
264.347214641
 31
0.0
  0
LINE
  5
299
330
1F
100
AcDbEntity
  8
0
  6
SLD-Durchgehend
 62
     8
370
     0
100
AcDbLine
 10
333.2765684221
 20
264.347214641
 30
0.0
 11
333.5265684221
 21
264.347214641
 31
0.0
  0
LINE
  5
29A
330
1F
100
AcDbEntity
  8
0
  6
SLD-Durchgehend
 62
     8
370
     0
100
AcDbLine
 10
320.5265684221
 20
266.347214641
 30
0.0
 11
320.7765684221
 21
266.347214641
 31
0.0
  0
LINE
  5
29B
330
1F
100
AcDbEntity
  8
0
  6
SLD-Durchgehend
 62
     8
370
     0
100
AcDbLine
 10
333.5265684221
 20
266.347214641
 30
0.0
 11
333.2765684221
 21
266.347214641
 31
0.0
  0
LINE
  5
29C
330
1F
100
AcDbEntity
  8
0
  6
SLD-Durchgehend
 62
     7
370
    15
100
AcDbLine
 10
289.0265680496
 20
105.920043175
 30
0.0
 11
289.0265680496
 21
106.1200428352
 31
0.0
  0
LINE
  5
29D
330
1F
100
AcDbEntity
  8
0
  6
SLD-Durchgehend
 62
     7
370
    15
100
AcDbLine
 10
339.0265687947
 20
106.1200428352
 30
0.0
 11
339.0265687947
 21
105.920043175
 31
0.0
  0
LINE
  5
29E
330
1F
100
AcDbEntity
  8
0
  6
SLD-Durchgehend
 62
     7
370
    15
100
AcDbLine
 10
289.0265680496
 20
105.920043175
 30
0.0
 11
339.0265687947
 21
105.920043175
 31
0.0
  0
ARC
  5
29F
330
1F
100
AcDbEntity
  8
0
  6
SLD-Durchgehend
 62
     7
370
    15
100
AcDbCircle
 10
327.0265684221
 20
126.0482463337
 30
0.0
 40
0.5000000000000041
100
AcDbArc
 50
60.0
 51
120.0
  0
LINE
  5
2A0
330
1F
100
AcDbEntity
  8
0
  6
SLD-Durchgehend
 62
     7
370
    15
100
AcDbLine
 10
320.7765685972
 20
123.0171575275
 30
0.0
 11
326.7765681837
 21
126.4812591084
 31
0.0
  0
LINE
  5
2A1
330
1F
100
AcDbEntity
  8
0
  6
SLD-Durchgehend
 62
     7
370
    15
100
AcDbLine
 10
327.2765682657
 20
126.4812591084
 30
0.0
 11
333.2765683178
 21
123.0171575275
 31
0.0
  0
ARC
  5
2A2
330
1F
100
AcDbEntity
  8
0
  6
SLD-Durchgehend
 62
     7
370
    15
100
AcDbCircle
 10
333.0265684221
 20
122.5841447186
 30
0.0
 40
0.5000000000000164
100
AcDbArc
 50
0.0
 51
60.0
  0
ARC
  5
2A3
330
1F
100
AcDbEntity
  8
0
  6
SLD-Durchgehend
 62
     7
370
    15
100
AcDbCircle
 10
321.0265684221
 20
122.5841447186
 30
0.0
 40
0.5000000000000041
100
AcDbArc
 50
120.0
 51
180.0
  0
LINE
  5
2A4
330
1F
100
AcDbEntity
  8
0
  6
SLD-Durchgehend
 62
     7
370
    15
100
AcDbLine
 10
320.5265685562
 20
115.6559415225
 30
0.0
 11
320.5265685562
 21
122.5841446844
 31
0.0
  0
LINE
  5
2A5
330
1F
100
AcDbEntity
  8
0
  6
SLD-Durchgehend
 62
     7
370
    15
100
AcDbLine
 10
333.5265688245
 20
122.5841446844
 30
0.0
 11
333.5265688245
 21
115.6559415225
 31
0.0
  0
LINE
  5
2A6
330
1F
100
AcDbEntity
  8
0
  6
SLD-Durchgehend
 62
     7
370
    15
100
AcDbLine
 10
333.2765683178
 20
115.2229286794
 30
0.0
 11
327.2765682657
 21
111.7588270985
 31
0.0
  0
LINE
  5
2A7
330
1F
100
AcDbEntity
  8
0
  6
SLD-Durchgehend
 62
     7
370
    15
100
AcDbLine
 10
326.7765681837
 20
111.7588270985
 30
0.0
 11
320.7765685972
 21
115.2229286794
 31
0.0
  0
ARC
  5
2A8
330
1F
100
AcDbEntity
  8
0
  6
SLD-Durchgehend
 62
     7
370
    15
100
AcDbCircle
 10
333.0265684221
 20
115.6559414883
 30
0.0
 40
0.5
100
AcDbArc
 50
300.0
 51
0.0
  0
ARC
  5
2A9
330
1F
100
AcDbEntity
  8
0
  6
SLD-Durchgehend
 62
     7
370
    15
100
AcDbCircle
 10
321.0265684221
 20
115.6559414883
 30
0.0
 40
0.5000000000000568
100
AcDbArc
 50
180.0
 51
240.0
  0
ARC
  5
2AA
330
1F
100
AcDbEntity
  8
0
  6
SLD-Durchgehend
 62
     7
370
    15
100
AcDbCircle
 10
327.0265684221
 20
112.1918398732
 30
0.0
 40
0.5000000000000572
100
AcDbArc
 50
240.0
 51
300.0
  0
CIRCLE
  5
2AB
330
1F
100
AcDbEntity
  8
0
  6
SLD-Durchgehend
 62
     7
370
    15
100
AcDbCircle
 10
327.0265684221
 20
119.1200431034
 30
0.0
 40
9.75
  0
LINE
  5
2AC
330
1F
100
AcDbEntity
  8
0
  6
SLD-Durchgehend
 62
     7
370
    15
100
AcDbLine
 10
346.52656723
 20
106.1200428352
 30
0.0
 11
346.52656723
 21
132.1200433717
 31
0.0
  0
LINE
  5
2AD
330
1F
100
AcDbEntity
  8
0
  6
SLD-Durchgehend
 62
     7
370
    15
100
AcDbLine
 10
281.5265696142
 20
106.1200428352
 30
0.0
 11
346.52656723
 21
106.1200428352
 31
0.0
  0
LINE
  5
2AE
330
1F
100
AcDbEntity
  8
0
  6
SLD-Durchgehend
 62
     7
370
    15
100
AcDbLine
 10
281.5265696142
 20
106.1200428352
 30
0.0
 11
281.5265696142
 21
132.1200433717
 31
0.0
  0
LINE
  5
2AF
330
1F
100
AcDbEntity
  8
0
  6
SLD-Durchgehend
 62
     7
370
    15
100
AcDbLine
 10
281.5265696142
 20
132.1200433717
 30
0.0
 11
346.52656723
 21
132.1200433717
 31
0.0
  0
CIRCLE
  5
2B0
330
1F
100
AcDbEntity
  8
0
  6
SLD-Durchgehend
 62
     7
370
    15
100
AcDbCircle
 10
300.0265684221
 20
119.1200431034
 30
0.0
 40
6.722499999999997
  0
CIRCLE
  5
2B1
330
1F
100
AcDbEntity
  8
0
  6
SLD-Durchgehend
 62
     7
370
    15
100
AcDbCircle
 10
300.0265684221
 20
119.1200431034
 30
0.0
 40
5.722499999999997
  0
CIRCLE
  5
2B2
330
1F
100
AcDbEntity
  8
0
  6
SLD-Durchgehend
 62
     7
370
    15
100
AcDbCircle
 10
300.0265684221
 20
119.1200431034
 30
0.0
 40
5.0
  0
CIRCLE
  5
2B3
330
1F
100
AcDbEntity
  8
0
  6
SLD-Durchgehend
 62
     7
370
    15
100
AcDbCircle
 10
300.0265684221
 20
119.1200431034
 30
0.0
 40
2.0
  0
CIRCLE
  5
2B4
330
1F
100
AcDbEntity
  8
0
  6
SLD-Durchgehend
 62
     7
370
    15
100
AcDbCircle
 10
300.0265684221
 20
119.1200431034
 30
0.0
 40
0.8000000000000114
  0
LINE
  5
2B5
330
1F
100
AcDbEntity
  8
0
  6
SLD-Durchgehend
 62
     7
370
    15
100
AcDbLine
 10
349.0265685711
 20
106.1200428352
 30
0.0
 11
346.52656723
 21
106.1200428352
 31
0.0
  0
LINE
  5
2B6
330
1F
100
AcDbEntity
  8
0
  6
SLD-Durchgehend
 62
     7
370
    15
100
AcDbLine
 10
346.52656723
 20
132.1200433717
 30
0.0
 11
349.0265685711
 21
132.1200433717
 31
0.0
  0
LINE
  5
2B7
330
1F
100
AcDbEntity
  8
0
  6
SLD-Durchgehend
 62
     7
370
    15
100
AcDbLine
 10
281.5265696142
 20
106.1200428352
 30
0.0
 11
279.0265682731
 21
106.1200428352
 31
0.0
  0
LINE
  5
2B8
330
1F
100
AcDbEntity
  8
0
  6
SLD-Durchgehend
 62
     7
370
    15
100
AcDbLine
 10
279.0265682731
 20
132.1200433717
 30
0.0
 11
281.5265696142
 21
132.1200433717
 31
0.0
  0
LINE
  5
2B9
330
1F
100
AcDbEntity
  8
0
  6
SLD-Durchgehend
 62
     7
370
    15
100
AcDbLine
 10
370.5265674386
 20
123.6200429097
 30
0.0
 11
359.0265702103
 21
123.6200429097
 31
0.0
  0
ARC
  5
2BA
330
1F
100
AcDbEntity
  8
0
  6
SLD-Durchgehend
 62
     7
370
    15
100
AcDbCircle
 10
359.0265684221
 20
119.1200431034
 30
0.0
 40
4.5
100
AcDbArc
 50
90.0
 51
270.0
  0
LINE
  5
2BB
330
1F
100
AcDbEntity
  8
0
  6
SLD-Durchgehend
 62
     7
370
    15
100
AcDbLine
 10
359.0265702103
 20
114.6200432972
 30
0.0
 11
370.5265674386
 21
114.6200432972
 31
0.0
  0
LINE
  5
2BC
330
1F
100
AcDbEntity
  8
0
  6
SLD-Durchgehend
 62
     7
370
    15
100
AcDbLine
 10
370.5265674386
 20
106.1200428352
 30
0.0
 11
370.5265674386
 21
114.6200432972
 31
0.0
  0
LINE
  5
2BD
330
1F
100
AcDbEntity
  8
0
  6
SLD-Durchgehend
 62
     7
370
    15
100
AcDbLine
 10
370.5265674386
 20
123.6200429097
 30
0.0
 11
370.5265674386
 21
132.1200433717
 31
0.0
  0
LINE
  5
2BE
330
1F
100
AcDbEntity
  8
0
  6
SLD-Durchgehend
 62
     7
370
    15
100
AcDbLine
 10
370.5265674386
 20
106.1200428352
 30
0.0
 11
349.0265685711
 21
106.1200428352
 31
0.0
  0
LINE
  5
2BF
330
1F
100
AcDbEntity
  8
0
  6
SLD-Durchgehend
 62
     7
370
    15
100
AcDbLine
 10
370.5265674386
 20
132.1200433717
 30
0.0
 11
349.0265685711
 21
132.1200433717
 31
0.0
  0
LINE
  5
2C0
330
1F
100
AcDbEntity
  8
0
  6
SLD-Durchgehend
 62
     7
370
    15
100
AcDbLine
 10
257.5265694056
 20
106.1200428352
 30
0.0
 11
257.5265694056
 21
114.6200432972
 31
0.0
  0
LINE
  5
2C1
330
1F
100
AcDbEntity
  8
0
  6
SLD-Durchgehend
 62
     7
370
    15
100
AcDbLine
 10
257.5265694056
 20
114.6200432972
 30
0.0
 11
269.026566634
 21
114.6200432972
 31
0.0
  0
ARC
  5
2C2
330
1F
100
AcDbEntity
  8
0
  6
SLD-Durchgehend
 62
     7
370
    15
100
AcDbCircle
 10
269.0265684221
 20
119.1200431034
 30
0.0
 40
4.5
100
AcDbArc
 50
270.0
 51
90.0
  0
LINE
  5
2C3
330
1F
100
AcDbEntity
  8
0
  6
SLD-Durchgehend
 62
     7
370
    15
100
AcDbLine
 10
269.026566634
 20
123.6200429097
 30
0.0
 11
257.5265694056
 21
123.6200429097
 31
0.0
  0
LINE
  5
2C4
330
1F
100
AcDbEntity
  8
0
  6
SLD-Durchgehend
 62
     7
370
    15
100
AcDbLine
 10
257.5265694056
 20
123.6200429097
 30
0.0
 11
257.5265694056
 21
132.1200433717
 31
0.0
  0
LINE
  5
2C5
330
1F
100
AcDbEntity
  8
0
  6
SLD-Durchgehend
 62
     7
370
    15
100
AcDbLine
 10
279.0265682731
 20
106.1200428352
 30
0.0
 11
257.5265694056
 21
106.1200428352
 31
0.0
  0
LINE
  5
2C6
330
1F
100
AcDbEntity
  8
0
  6
SLD-Durchgehend
 62
     7
370
    15
100
AcDbLine
 10
279.0265682731
 20
132.1200433717
 30
0.0
 11
257.5265694056
 21
132.1200433717
 31
0.0
  0
LWPOLYLINE
  5
2C7
330
1F
100
AcDbEntity
  8
0
  6
SLD-Durchgehend
 62
     8
370
     0
100
AcDbPolyline
 90
        9
 70
   128
 43
0.0
 10
327.2765682657
 20
126.4812591084
 10
327.2717645038
 20
126.4729386725
 10
327.2575385515
 20
126.4482977398
 10
327.2344361637
 20
126.4082834654
 10
327.2033448909
 20
126.3544325315
 10
327.1654605512
 20
126.2888152682
 10
327.1222397331
 20
126.2139532313
 10
327.0753411223
 20
126.1327228107
 10
327.0265686903
 20
126.0482462653
  0
LWPOLYLINE
  5
2C8
330
1F
100
AcDbEntity
  8
0
  6
SLD-Durchgehend
 62
     8
370
     0
100
AcDbPolyline
 90
        9
 70
   128
 43
0.0
 10
326.7765681837
 20
126.4812591084
 10
326.7813719455
 20
126.4729386725
 10
326.7955988292
 20
126.4482977398
 10
326.818701217
 20
126.4082834654
 10
326.8497915585
 20
126.3544325315
 10
326.8876758982
 20
126.2888152682
 10
326.9308976475
 20
126.2139532313
 10
326.9777962584
 20
126.1327228107
 10
327.0265686903
 20
126.0482462653
  0
LINE
  5
2C9
330
1F
100
AcDbEntity
  8
0
  6
SLD-Durchgehend
 62
     8
370
     0
100
AcDbLine
 10
333.0265678112
 20
122.5841446844
 30
0.0
 11
327.0265686903
 21
126.0482462653
 31
0.0
  0
LINE
  5
2CA
330
1F
100
AcDbEntity
  8
0
  6
SLD-Durchgehend
 62
     8
370
     0
100
AcDbLine
 10
333.0265678112
 20
115.6559415225
 30
0.0
 11
333.0265678112
 21
122.5841446844
 31
0.0
  0
LINE
  5
2CB
330
1F
100
AcDbEntity
  8
0
  6
SLD-Durchgehend
 62
     8
370
     0
100
AcDbLine
 10
327.0265686903
 20
112.1918399416
 30
0.0
 11
333.0265678112
 21
115.6559415225
 31
0.0
  0
LINE
  5
2CC
330
1F
100
AcDbEntity
  8
0
  6
SLD-Durchgehend
 62
     8
370
     0
100
AcDbLine
 10
321.0265686382
 20
115.6559415225
 30
0.0
 11
327.0265686903
 21
112.1918399416
 31
0.0
  0
LINE
  5
2CD
330
1F
100
AcDbEntity
  8
0
  6
SLD-Durchgehend
 62
     8
370
     0
100
AcDbLine
 10
321.0265686382
 20
122.5841446844
 30
0.0
 11
321.0265686382
 21
115.6559415225
 31
0.0
  0
LINE
  5
2CE
330
1F
100
AcDbEntity
  8
0
  6
SLD-Durchgehend
 62
     8
370
     0
100
AcDbLine
 10
327.0265686903
 20
126.0482462653
 30
0.0
 11
321.0265686382
 21
122.5841446844
 31
0.0
  0
LWPOLYLINE
  5
2CF
330
1F
100
AcDbEntity
  8
0
  6
SLD-Durchgehend
 62
     8
370
     0
100
AcDbPolyline
 90
        9
 70
   128
 43
0.0
 10
320.7765685972
 20
123.0171575275
 10
320.7813718934
 20
123.0088370916
 10
320.7955983114
 20
122.9841963918
 10
320.8187011648
 20
122.9441816517
 10
320.8497915063
 20
122.8903309506
 10
320.887675846
 20
122.8247136873
 10
320.9308975954
 20
122.7498514176
 10
320.9777957406
 20
122.6686212298
 10
321.0265686382
 20
122.5841446844
  0
LWPOLYLINE
  5
2D0
330
1F
100
AcDbEntity
  8
0
  6
SLD-Durchgehend
 62
     8
370
     0
100
AcDbPolyline
 90
        9
 70
   128
 43
0.0
 10
333.2765683178
 20
123.0171575275
 10
333.271764556
 20
123.0088370916
 10
333.2575376723
 20
122.9841963918
 10
333.2344352845
 20
122.9441816517
 10
333.2033458744
 20
122.8903309506
 10
333.1654615347
 20
122.8247136873
 10
333.122238854
 20
122.7498514176
 10
333.0753411744
 20
122.6686212298
 10
333.0265678112
 20
122.5841446844
  0
LINE
  5
2D1
330
1F
100
AcDbEntity
  8
0
  6
SLD-Durchgehend
 62
     8
370
     0
100
AcDbLine
 10
333.5265688245
 20
122.5841446844
 30
0.0
 11
333.0265678112
 21
122.5841446844
 31
0.0
  0
LINE
  5
2D2
330
1F
100
AcDbEntity
  8
0
  6
SLD-Durchgehend
 62
     8
370
     0
100
AcDbLine
 10
321.0265686382
 20
122.5841446844
 30
0.0
 11
320.5265685562
 21
122.5841446844
 31
0.0
  0
LINE
  5
2D3
330
1F
100
AcDbEntity
  8
0
  6
SLD-Durchgehend
 62
     8
370
     0
100
AcDbLine
 10
321.0265686382
 20
115.6559415225
 30
0.0
 11
320.5265685562
 21
115.6559415225
 31
0.0
  0
LINE
  5
2D4
330
1F
100
AcDbEntity
  8
0
  6
SLD-Durchgehend
 62
     8
370
     0
100
AcDbLine
 10
333.5265688245
 20
115.6559415225
 30
0.0
 11
333.0265678112
 21
115.6559415225
 31
0.0
  0
LWPOLYLINE
  5
2D5
330
1F
100
AcDbEntity
  8
0
  6
SLD-Durchgehend
 62
     8
370
     0
100
AcDbPolyline
 90
        9
 70
   128
 43
0.0
 10
333.0265678112
 20
115.6559415225
 10
333.0753411744
 20
115.5714649771
 10
333.122238854
 20
115.4902347893
 10
333.1654615347
 20
115.4153725196
 10
333.2033458744
 20
115.3497552563
 10
333.2344352845
 20
115.2959045552
 10
333.2575376723
 20
115.2558898151
 10
333.271764556
 20
115.2312491153
 10
333.2765683178
 20
115.2229286794
  0
LWPOLYLINE
  5
2D6
330
1F
100
AcDbEntity
  8
0
  6
SLD-Durchgehend
 62
     8
370
     0
100
AcDbPolyline
 90
        9
 70
   128
 43
0.0
 10
327.0265686903
 20
112.1918399416
 10
327.0753411223
 20
112.1073633962
 10
327.1222397331
 20
112.0261329756
 10
327.1654605512
 20
111.9512709387
 10
327.2033448909
 20
111.8856536754
 10
327.2344361637
 20
111.8318027415
 10
327.2575385515
 20
111.7917884671
 10
327.2717645038
 20
111.7671475344
 10
327.2765682657
 20
111.7588270985
  0
LWPOLYLINE
  5
2D7
330
1F
100
AcDbEntity
  8
0
  6
SLD-Durchgehend
 62
     8
370
     0
100
AcDbPolyline
 90
        9
 70
   128
 43
0.0
 10
327.0265686903
 20
112.1918399416
 10
326.9777962584
 20
112.1073633962
 10
326.9308976475
 20
112.0261329756
 10
326.8876758982
 20
111.9512709387
 10
326.8497915585
 20
111.8856536754
 10
326.818701217
 20
111.8318027415
 10
326.7955988292
 20
111.7917884671
 10
326.7813719455
 20
111.7671475344
 10
326.7765681837
 20
111.7588270985
  0
LWPOLYLINE
  5
2D8
330
1F
100
AcDbEntity
  8
0
  6
SLD-Durchgehend
 62
     8
370
     0
100
AcDbPolyline
 90
        9
 70
   128
 43
0.0
 10
321.0265686382
 20
115.6559415225
 10
320.9777957406
 20
115.5714649771
 10
320.9308975954
 20
115.4902347893
 10
320.887675846
 20
115.4153725196
 10
320.8497915063
 20
115.3497552563
 10
320.8187011648
 20
115.2959045552
 10
320.7955983114
 20
115.2558898151
 10
320.7813718934
 20
115.2312491153
 10
320.7765685972
 20
115.2229286794
  0
ARC
  5
2D9
330
1F
100
AcDbEntity
  8
0
  6
SLD-Durchgehend
 62
     8
370
     0
100
AcDbCircle
 10
327.0265684221
 20
126.0482463337
 30
0.0
 40
1.000000000000037
100
AcDbArc
 50
60.0
 51
120.0
  0
LWPOLYLINE
  5
2DA
330
1F
100
AcDbEntity
  8
0
  6
SLD-Durchgehend
 62
     8
370
     0
100
AcDbPolyline
 90
        9
 70
   128
 43
0.0
 10
327.5265687723
 20
126.9142719515
 10
327.4777954091
 20
126.8297949404
 10
327.4308977295
 20
126.7485649854
 10
327.3876759801
 20
126.6737029486
 10
327.3497916404
 20
126.6080856853
 10
327.3187012989
 20
126.5542347514
 10
327.2955989112
 20
126.5142200113
 10
327.2813720275
 20
126.4895790786
 10
327.2765682657
 20
126.4812591084
  0
LWPOLYLINE
  5
2DB
330
1F
100
AcDbEntity
  8
0
  6
SLD-Durchgehend
 62
     8
370
     0
100
AcDbPolyline
 90
        9
 70
   128
 43
0.0
 10
326.5265686084
 20
126.9142719515
 10
326.5753410403
 20
126.8297949404
 10
326.6222396512
 20
126.7485649854
 10
326.6654614006
 20
126.6737029486
 10
326.7033448089
 20
126.6080856853
 10
326.7344360818
 20
126.5542347514
 10
326.7575384695
 20
126.5142200113
 10
326.7717644219
 20
126.4895790786
 10
326.7765681837
 20
126.4812591084
  0
LINE
  5
2DC
330
1F
100
AcDbEntity
  8
0
  6
SLD-Durchgehend
 62
     8
370
     0
100
AcDbLine
 10
320.5265685562
 20
123.4501701378
 30
0.0
 11
326.5265686084
 21
126.9142719515
 31
0.0
  0
LWPOLYLINE
  5
2DD
330
1F
100
AcDbEntity
  8
0
  6
SLD-Durchgehend
 62
     8
370
     0
100
AcDbPolyline
 90
        9
 70
   128
 43
0.0
 10
320.5265685562
 20
123.4501701378
 10
320.5753409881
 20
123.3656935923
 10
320.6222391334
 20
123.2844631717
 10
320.6654608827
 20
123.2096011349
 10
320.7033452224
 20
123.1439838715
 10
320.7344360296
 20
123.0901334033
 10
320.7575384174
 20
123.0501186632
 10
320.7717648354
 20
123.0254777305
 10
320.7765685972
 20
123.0171575275
  0
LINE
  5
2DE
330
1F
100
AcDbEntity
  8
0
  6
SLD-Durchgehend
 62
     8
370
     0
100
AcDbLine
 10
327.5265687723
 20
126.9142719515
 30
0.0
 11
333.5265688245
 21
123.4501701378
 31
0.0
  0
LWPOLYLINE
  5
2DF
330
1F
100
AcDbEntity
  8
0
  6
SLD-Durchgehend
 62
     8
370
     0
100
AcDbPolyline
 90
        9
 70
   128
 43
0.0
 10
333.5265688245
 20
123.4501701378
 10
333.4777954612
 20
123.3656935923
 10
333.4308977817
 20
123.2844631717
 10
333.387675101
 20
123.2096011349
 10
333.3497926239
 20
123.1439838715
 10
333.3187013511
 20
123.0901334033
 10
333.2955989633
 20
123.0501186632
 10
333.2813720797
 20
123.0254777305
 10
333.2765683178
 20
123.0171575275
  0
LINE
  5
2E0
330
1F
100
AcDbEntity
  8
0
  6
SLD-Durchgehend
 62
     8
370
     0
100
AcDbLine
 10
334.0265679751
 20
122.5841446844
 30
0.0
 11
334.0265679751
 21
115.6559415225
 31
0.0
  0
LINE
  5
2E1
330
1F
100
AcDbEntity
  8
0
  6
SLD-Durchgehend
 62
     8
370
     0
100
AcDbLine
 10
334.0265679751
 20
115.6559415225
 30
0.0
 11
333.5265688245
 21
115.6559415225
 31
0.0
  0
LINE
  5
2E2
330
1F
100
AcDbEntity
  8
0
  6
SLD-Durchgehend
 62
     8
370
     0
100
AcDbLine
 10
334.0265679751
 20
122.5841446844
 30
0.0
 11
333.5265688245
 21
122.5841446844
 31
0.0
  0
LINE
  5
2E3
330
1F
100
AcDbEntity
  8
0
  6
SLD-Durchgehend
 62
     8
370
     0
100
AcDbLine
 10
320.5265685562
 20
115.6559415225
 30
0.0
 11
320.0265684743
 21
115.6559415225
 31
0.0
  0
LINE
  5
2E4
330
1F
100
AcDbEntity
  8
0
  6
SLD-Durchgehend
 62
     8
370
     0
100
AcDbLine
 10
320.0265684743
 20
115.6559415225
 30
0.0
 11
320.0265684743
 21
122.5841446844
 31
0.0
  0
LINE
  5
2E5
330
1F
100
AcDbEntity
  8
0
  6
SLD-Durchgehend
 62
     8
370
     0
100
AcDbLine
 10
320.5265685562
 20
122.5841446844
 30
0.0
 11
320.0265684743
 21
122.5841446844
 31
0.0
  0
ARC
  5
2E6
330
1F
100
AcDbEntity
  8
0
  6
SLD-Durchgehend
 62
     8
370
     0
100
AcDbCircle
 10
333.0265684221
 20
122.5841447186
 30
0.0
 40
1.0
100
AcDbArc
 50
0.0
 51
60.0
  0
ARC
  5
2E7
330
1F
100
AcDbEntity
  8
0
  6
SLD-Durchgehend
 62
     8
370
     0
100
AcDbCircle
 10
321.0265684221
 20
122.5841447186
 30
0.0
 40
1.000000000000008
100
AcDbArc
 50
120.0
 51
180.0
  0
LWPOLYLINE
  5
2E8
330
1F
100
AcDbEntity
  8
0
  6
SLD-Durchgehend
 62
     8
370
     0
100
AcDbPolyline
 90
        9
 70
   128
 43
0.0
 10
320.7765685972
 20
115.2229286794
 10
320.7717648354
 20
115.2146084764
 10
320.7575384174
 20
115.1899675437
 10
320.7344360296
 20
115.1499528036
 10
320.7033452224
 20
115.0961023354
 10
320.6654608827
 20
115.030485072
 10
320.6222391334
 20
114.9556230352
 10
320.5753409881
 20
114.8743926146
 10
320.5265685562
 20
114.7899160691
  0
ARC
  5
2E9
330
1F
100
AcDbEntity
  8
0
  6
SLD-Durchgehend
 62
     8
370
     0
100
AcDbCircle
 10
321.0265684221
 20
115.6559414883
 30
0.0
 40
1.000000000000008
100
AcDbArc
 50
180.0
 51
240.0
  0
LWPOLYLINE
  5
2EA
330
1F
100
AcDbEntity
  8
0
  6
SLD-Durchgehend
 62
     8
370
     0
100
AcDbPolyline
 90
        9
 70
   128
 43
0.0
 10
333.2765683178
 20
115.2229286794
 10
333.2813720797
 20
115.2146084764
 10
333.2955989633
 20
115.1899675437
 10
333.3187013511
 20
115.1499528036
 10
333.3497926239
 20
115.0961023354
 10
333.387675101
 20
115.030485072
 10
333.4308977817
 20
114.9556230352
 10
333.4777954612
 20
114.8743926146
 10
333.5265688245
 20
114.7899160691
  0
LINE
  5
2EB
330
1F
100
AcDbEntity
  8
0
  6
SLD-Durchgehend
 62
     8
370
     0
100
AcDbLine
 10
333.5265688245
 20
114.7899160691
 30
0.0
 11
327.5265687723
 21
111.3258142554
 31
0.0
  0
LWPOLYLINE
  5
2EC
330
1F
100
AcDbEntity
  8
0
  6
SLD-Durchgehend
 62
     8
370
     0
100
AcDbPolyline
 90
        9
 70
   128
 43
0.0
 10
327.2765682657
 20
111.7588270985
 10
327.2813720275
 20
111.7505071283
 10
327.2955989112
 20
111.7258661956
 10
327.3187012989
 20
111.6858514555
 10
327.3497916404
 20
111.6320005216
 10
327.3876759801
 20
111.5663832583
 10
327.4308977295
 20
111.4915212215
 10
327.4777954091
 20
111.4102912665
 10
327.5265687723
 20
111.3258142554
  0
LWPOLYLINE
  5
2ED
330
1F
100
AcDbEntity
  8
0
  6
SLD-Durchgehend
 62
     8
370
     0
100
AcDbPolyline
 90
        9
 70
   128
 43
0.0
 10
326.7765681837
 20
111.7588270985
 10
326.7717644219
 20
111.7505071283
 10
326.7575384695
 20
111.7258661956
 10
326.7344360818
 20
111.6858514555
 10
326.7033448089
 20
111.6320005216
 10
326.6654614006
 20
111.5663832583
 10
326.6222396512
 20
111.4915212215
 10
326.5753410403
 20
111.4102912665
 10
326.5265686084
 20
111.3258142554
  0
LINE
  5
2EE
330
1F
100
AcDbEntity
  8
0
  6
SLD-Durchgehend
 62
     8
370
     0
100
AcDbLine
 10
326.5265686084
 20
111.3258142554
 30
0.0
 11
320.5265685562
 21
114.7899160691
 31
0.0
  0
ARC
  5
2EF
330
1F
100
AcDbEntity
  8
0
  6
SLD-Durchgehend
 62
     8
370
     0
100
AcDbCircle
 10
333.0265684221
 20
115.6559414883
 30
0.0
 40
1.000000000000057
100
AcDbArc
 50
300.0
 51
360.0
  0
ARC
  5
2F0
330
1F
100
AcDbEntity
  8
0
  6
SLD-Durchgehend
 62
     8
370
     0
100
AcDbCircle
 10
327.0265684221
 20
112.1918398732
 30
0.0
 40
1.000000000000008
100
AcDbArc
 50
240.0
 51
300.0
  0
CIRCLE
  5
2F1
330
1F
100
AcDbEntity
  8
0
  6
SLD-Durchgehend
 62
     8
370
     0
100
AcDbCircle
 10
327.0265684221
 20
119.1200431034
 30
0.0
 40
9.25
  0
LINE
  5
2F2
330
1F
100
AcDbEntity
  8
0
  6
SLD-Durchgehend
 62
     8
370
     0
100
AcDbLine
 10
349.0265685711
 20
132.1200433717
 30
0.0
 11
349.0265685711
 21
106.1200428352
 31
0.0
  0
LINE
  5
2F3
330
1F
100
AcDbEntity
  8
0
  6
SLD-Durchgehend
 62
     8
370
     0
100
AcDbLine
 10
279.0265682731
 20
106.1200428352
 30
0.0
 11
279.0265682731
 21
132.1200433717
 31
0.0
  0
DIMENSION
  5
2F4
330
1F
100
AcDbEntity
  8
0
  6
SLD-Durchgehend
 62
     7
370
     0
100
AcDbDimension
  2
_D_7
 10
359.0265684221
 20
96.1200431034
 30
0.0
 11
314.0265684221
 21
96.1200431034
 31
0.0
 70
   160
  1
<>
 71
     2
 42
-1.0
  3
SLDDIMSTYLE1
100
AcDbAlignedDimension
 13
269.0265684221
 23
113.6200431034
 33
0.0
 14
359.0265684221
 24
113.6200431034
 34
0.0
 50
0.0
100
AcDbRotatedDimension
  0
DIMENSION
  5
2FE
330
1F
100
AcDbEntity
  8
0
  6
SLD-Durchgehend
 62
     7
370
     0
100
AcDbDimension
  2
_D_8
 10
247.4024945303
 20
114.6200431034
 30
0.0
 11
247.4024945303
 21
119.1200431034
 31
0.0
 70
   160
  1
<>
 71
     2
 42
-1.0
  3
SLDDIMSTYLE2
100
AcDbAlignedDimension
 13
257.5265684221
 23
123.6200431034
 33
0.0
 14
257.5265684221
 24
114.6200431034
 34
0.0
 50
90.0
100
AcDbRotatedDimension
  0
DIMENSION
  5
30B
330
1F
100
AcDbEntity
  8
0
  6
SLD-Durchgehend
 62
     7
370
     0
100
AcDbDimension
  2
_D_9
 10
235.6600408005
 20
106.1200431034
 30
0.0
 11
235.6600408005
 21
119.1200431034
 31
0.0
 70
   160
  1
<>
 71
     2
 42
-1.0
  3
SLDDIMSTYLE1
100
AcDbAlignedDimension
 13
257.5265684221
 23
132.1200431034
 33
0.0
 14
257.5265684221
 24
106.1200431034
 34
0.0
 50
90.0
100
AcDbRotatedDimension
  0
INSERT
  5
320
330
1F
100
AcDbEntity
  8
0
  6
SLD-Durchgehend
 62
     7
370
     0
100
AcDbBlockReference
  2
SW_CENTERMARKSYMBOL_1
 10
269.0265684221
 20
119.1200431034
 30
0.0
  0
INSERT
  5
32C
330
1F
100
AcDbEntity
  8
0
  6
SLD-Durchgehend
 62
     7
370
     0
100
AcDbBlockReference
  2
SW_CENTERMARKSYMBOL_2
 10
359.0265684221
 20
119.1200431034
 30
0.0
  0
INSERT
  5
338
330
1F
100
AcDbEntity
  8
0
  6
SLD-Durchgehend
 62
     7
370
     0
100
AcDbBlockReference
  2
SW_CENTERMARKSYMBOL_3
 10
327.0265684221
 20
119.1200431034
 30
0.0
  0
INSERT
  5
344
330
1F
100
AcDbEntity
  8
0
  6
SLD-Durchgehend
 62
     7
370
     0
100
AcDbBlockReference
  2
SW_CENTERMARKSYMBOL_4
 10
300.0265684221
 20
119.1200431034
 30
0.0
  0
SPLINE
  5
345
330
1F
100
AcDbEntity
  8
0
  6
SLD-Durchgehend
 62
     7
370
    15
100
AcDbSpline
210
0.0
220
0.0
230
1.0
 70
     8
 71
     3
 72
    14
 73
    10
 74
     0
 42
0.000000001
 43
0.00000001
 40
0.0
 40
0.0
 40
0.0
 40
0.0
 40
0.0678600824359307
 40
0.2279709019399466
 40
0.3895871248047061
 40
0.5552887809461191
 40
0.724715814676541
 40
0.8960087274222988
 40
1.0
 40
1.0
 40
1.0
 40
1.0
 10
115.8621430698325
 20
122.0459277954533
 30
0.0
 10
115.8615632636375
 20
122.1577333529572
 30
0.0
 10
115.8596154478304
 20
122.5333358112971
 30
0.0
 10
115.6325991192243
 20
123.159583963831
 30
0.0
 10
115.2001837688606
 20
123.8975491568343
 30
0.0
 10
114.5636651495634
 20
124.5897860191525
 30
0.0
 10
113.7386766196548
 20
125.2214498430359
 30
0.0
 10
112.891561850123
 20
125.7203240117855
 30
0.0
 10
112.2721985098269
 20
125.967093414893
 30
0.0
 10
112.0382279972466
 20
126.060312951759
 30
0.0
  0
SPLINE
  5
346
330
1F
100
AcDbEntity
  8
0
  6
SLD-Durchgehend
 62
     7
370
    15
100
AcDbSpline
210
0.0
220
0.0
230
1.0
 70
     8
 71
     3
 72
    15
 73
    11
 74
     0
 42
0.000000001
 43
0.00000001
 40
0.0
 40
0.0
 40
0.0
 40
0.0
 40
0.0026651656224663
 40
0.1606784740427786
 40
0.3193220534274532
 40
0.4785203991638266
 40
0.6373429948106738
 40
0.793848946090709
 40
0.9460595899542319
 40
1.0
 40
1.0
 40
1.0
 40
1.0
 10
100.3757581387939
 20
126.1265082134134
 30
0.0
 10
100.3688777726755
 20
126.1242142582921
 30
0.0
 10
99.95407175857655
 20
125.9859154579084
 30
0.0
 10
99.24063000786845
 20
125.6235097792986
 30
0.0
 10
98.27409766865995
 20
125.0404918495562
 30
0.0
 10
97.49202362360157
 20
124.3658871186867
 30
0.0
 10
96.89403847322927
 20
123.6258115758204
 30
0.0
 10
96.52542392893183
 20
122.8352819345129
 30
0.0
 10
96.36843803573595
 20
122.1885040981559
 30
0.0
 10
96.41092814720231
 20
121.8211073328344
 30
0.0
 10
96.42204588825638
 20
121.7249762105571
 30
0.0
  0
LINE
  5
347
330
1F
100
AcDbEntity
  8
0
  6
SLD-Durchgehend
 62
     7
370
    15
100
AcDbLine
 10
115.8939711071
 20
95.2925783778
 30
0.0
 11
115.8939711071
 21
121.8647646996
 31
0.0
  0
LINE
  5
348
330
1F
100
AcDbEntity
  8
0
  6
SLD-Durchgehend
 62
     7
370
    15
100
AcDbLine
 10
96.3939711071
 20
101.7213331331
 30
0.0
 11
96.3939711071
 21
95.2925783778
 31
0.0
  0
LINE
  5
349
330
1F
100
AcDbEntity
  8
0
  6
SLD-Durchgehend
 62
     7
370
    15
100
AcDbLine
 10
96.3939711071
 20
108.5786715387
 30
0.0
 11
96.3939711071
 21
103.4356677345
 31
0.0
  0
LINE
  5
34A
330
1F
100
AcDbEntity
  8
0
  6
SLD-Durchgehend
 62
     7
370
    15
100
AcDbLine
 10
96.3939711071
 20
115.4360099443
 30
0.0
 11
96.3939711071
 21
110.2930061401
 31
0.0
  0
LINE
  5
34B
330
1F
100
AcDbEntity
  8
0
  6
SLD-Durchgehend
 62
     7
370
    15
100
AcDbLine
 10
96.3939711071
 20
121.8647646996
 30
0.0
 11
96.3939711071
 21
117.1503445458
 31
0.0
  0
ARC
  5
34C
330
1F
100
AcDbEntity
  8
0
  6
SLD-Durchgehend
 62
     7
370
    15
100
AcDbCircle
 10
99.2207821264
 20
124.3005324836
 30
0.0
 40
0.5000000000000043
100
AcDbArc
 50
134.305033619
 51
180.0
  0
LINE
  5
34D
330
1F
100
AcDbEntity
  8
0
  6
SLD-Durchgehend
 62
     7
370
    15
100
AcDbLine
 10
102.1049035483
 20
127.8142071425
 30
0.0
 11
98.8715430471
 21
124.6583481701
 31
0.0
  0
LINE
  5
34E
330
1F
100
AcDbEntity
  8
0
  6
SLD-Durchgehend
 62
     7
370
    15
100
AcDbLine
 10
98.7207821264
 20
124.3005324836
 30
0.0
 11
98.7207821264
 21
122.5861978822
 31
0.0
  0
ARC
  5
34F
330
1F
100
AcDbEntity
  8
0
  6
SLD-Durchgehend
 62
     7
370
    15
100
AcDbCircle
 10
113.0671600877
 20
124.5720007198
 30
0.0
 40
0.5
100
AcDbArc
 50
0.0
 51
50.6996723379
  0
LINE
  5
350
330
1F
100
AcDbEntity
  8
0
  6
SLD-Durchgehend
 62
     7
370
    15
100
AcDbLine
 10
113.3838527367
 20
124.9589190136
 30
0.0
 11
109.6940242572
 21
127.9790438679
 31
0.0
  0
LINE
  5
351
330
1F
100
AcDbEntity
  8
0
  6
SLD-Durchgehend
 62
     7
370
    15
100
AcDbLine
 10
113.5671600877
 20
122.8576661184
 30
0.0
 11
113.5671600877
 21
124.5720007198
 31
0.0
  0
SPLINE
  5
352
330
1F
100
AcDbEntity
  8
0
  6
SLD-Durchgehend
 62
     7
370
    15
100
AcDbSpline
210
0.0
220
0.0
230
1.0
 70
     8
 71
     3
 72
    10
 73
     6
 74
     0
 42
0.000000001
 43
0.00000001
 40
0.0
 40
0.0
 40
0.0
 40
0.0
 40
0.3608205618465655
 40
0.900454830867166
 40
0.9999999999999999
 40
0.9999999999999999
 40
0.9999999999999999
 40
0.9999999999999999
 10
98.71275438841079
 20
122.5867259120222
 30
0.0
 10
98.71419547287303
 20
122.5642155770096
 30
0.0
 10
98.71779180745848
 20
122.5080393441397
 30
0.0
 10
98.6854476831366
 20
122.4686761298888
 30
0.0
 10
98.68578837161616
 20
122.4690103341848
 30
0.0
 10
98.68584143010067
 20
122.469062382829
 30
0.0
  0
SPLINE
  5
353
330
1F
100
AcDbEntity
  8
0
  6
SLD-Durchgehend
 62
     7
370
    15
100
AcDbSpline
210
0.0
220
0.0
230
1.0
 70
     8
 71
     3
 72
    10
 73
     6
 74
     0
 42
0.000000001
 43
0.00000001
 40
0.0
 40
0.0
 40
0.0
 40
0.0
 40
0.1939022471304612
 40
0.6788874462913991
 40
1.0
 40
1.0
 40
1.0
 40
1.0
 10
113.5978233417478
 20
122.7450266071904
 30
0.0
 10
113.5988458603539
 20
122.7440345123093
 30
0.0
 10
113.6024258861428
 20
122.7405610055796
 30
0.0
 10
113.5681636841698
 20
122.788850614341
 30
0.0
 10
113.5731868326564
 20
122.8376847841805
 30
0.0
 10
113.5751878257524
 20
122.8571380886087
 30
0.0
  0
LINE
  5
354
330
1F
100
AcDbEntity
  8
0
  6
SLD-Durchgehend
 62
     7
370
    15
100
AcDbLine
 10
109.3675306307
 20
128.0920295057
 30
0.0
 11
102.4443416501
 21
127.9562953876
 31
0.0
  0
ARC
  5
355
330
1F
100
AcDbEntity
  8
0
  6
SLD-Durchgehend
 62
     7
370
    15
100
AcDbCircle
 10
102.4541426276
 20
127.456391456
 30
0.0
 40
0.4999999999999942
100
AcDbArc
 50
91.123181225
 51
134.305033619
  0
ARC
  5
356
330
1F
100
AcDbEntity
  8
0
  6
SLD-Durchgehend
 62
     7
370
    15
100
AcDbCircle
 10
109.3773316082
 20
127.5921255741
 30
0.0
 40
0.5000000000000073
100
AcDbArc
 50
50.6996723379
 51
74.7954868413
  0
ARC
  5
357
330
1F
100
AcDbEntity
  8
0
  6
SLD-Durchgehend
 62
     7
370
    15
100
AcDbCircle
 10
109.3773316082
 20
127.5921255741
 30
0.0
 40
0.5000000000000172
100
AcDbArc
 50
74.7954868413
 51
91.123181225
  0
SPLINE
  5
358
330
1F
100
AcDbEntity
  8
0
  6
SLD-Durchgehend
 62
     7
370
    15
100
AcDbSpline
210
0.0
220
0.0
230
1.0
 70
     8
 71
     3
 72
    29
 73
    25
 74
     0
 42
0.000000001
 43
0.00000001
 40
0.0
 40
0.0
 40
0.0
 40
0.0
 40
0.0178807297541193
 40
0.0628307745717167
 40
0.1083737585509531
 40
0.1551007379294007
 40
0.2027999020055659
 40
0.2509382902733525
 40
0.2990985491085637
 40
0.3471498963094447
 40
0.3950901309487049
 40
0.4429493044066779
 40
0.4907652881660773
 40
0.5385769380069154
 40
0.5864152737382962
 40
0.6343168260610577
 40
0.6823255596862736
 40
0.7304869205733907
 40
0.7788372635320792
 40
0.8273678142877983
 40
0.8758576466565013
 40
0.9237541435203158
 40
0.9704093996601653
 40
1.0
 40
1.0
 40
1.0
 40
1.0
 10
96.43819110955347
 20
94.96143900115506
 30
0.0
 10
96.44356406838817
 20
94.85661702631641
 30
0.0
 10
96.46244401176673
 20
94.48828497489488
 30
0.0
 10
96.71503896669321
 20
93.87388087158628
 30
0.0
 10
97.17856442235207
 20
93.1426199820481
 30
0.0
 10
97.84758602457327
 20
92.45969580330714
 30
0.0
 10
98.69761971702646
 20
91.83560448725311
 30
0.0
 10
99.7158488364271
 20
91.28605806473972
 30
0.0
 10
100.8752396781047
 20
90.82456384937474
 30
0.0
 10
102.1477454267037
 20
90.46082241139966
 30
0.0
 10
103.5047787907745
 20
90.20135615846884
 30
0.0
 10
104.9172793676427
 20
90.0505834350119
 30
0.0
 10
106.3553436502182
 20
90.01104128706187
 30
0.0
 10
107.788572493451
 20
90.08334227953138
 30
0.0
 10
109.1866945057384
 20
90.26613121208649
 30
0.0
 10
110.5202885935814
 20
90.55617150922346
 30
0.0
 10
111.7615093468433
 20
90.9486136071608
 30
0.0
 10
112.8843825557536
 20
91.43737794130224
 30
0.0
 10
113.8651882262695
 20
92.01557945428917
 30
0.0
 10
114.6800358989733
 20
92.67521648478555
 30
0.0
 10
115.3090943670274
 20
93.40564154618966
 30
0.0
 10
115.718867205071
 20
94.18955908013848
 30
0.0
 10
115.912789026043
 20
94.91080536223973
 30
0.0
 10
115.8746594375042
 20
95.35758609419143
 30
0.0
 10
115.8598615525087
 20
95.53097925532987
 30
0.0
  0
ARC
  5
359
330
1F
100
AcDbEntity
  8
0
  6
SLD-Durchgehend
 62
     7
370
    15
100
AcDbCircle
 10
106.1274764898
 20
133.609425485
 30
0.0
 40
16.10474212420145
100
AcDbArc
 50
249.3870287843
 51
292.2661108549
  0
LINE
  5
35A
330
1F
100
AcDbEntity
  8
0
  6
SLD-Durchgehend
 62
     7
370
    15
100
AcDbLine
 10
115.8890481769
 20
122.0243208878
 30
0.0
 11
115.8939711071
 21
121.8647646996
 31
0.0
  0
LINE
  5
35B
330
1F
100
AcDbEntity
  8
0
  6
SLD-Durchgehend
 62
     7
370
    15
100
AcDbLine
 10
96.3969000371
 20
121.7416872413
 30
0.0
 11
96.3939711071
 21
121.8647646996
 31
0.0
  0
LINE
  5
35C
330
1F
100
AcDbEntity
  8
0
  6
SLD-Durchgehend
 62
     7
370
    15
100
AcDbLine
 10
101.593691065
 20
98.9944549182
 30
0.0
 11
101.593691065
 21
97.2801203168
 31
0.0
  0
LWPOLYLINE
  5
35D
330
1F
100
AcDbEntity
  8
0
  6
SLD-Durchgehend
 62
     7
370
    15
100
AcDbPolyline
 90
        8
 70
   128
 43
0.0
 10
96.3939711071
 20
103.4356677345
 10
96.4931680215
 20
102.721174252
 10
96.8290012334
 20
101.9524084878
 10
97.3941999183
 20
101.2201654889
 10
98.1748470086
 20
100.5424755082
 10
99.1517203822
 20
99.936025522
 10
100.3007661747
 20
99.4157483417
 10
101.593691065
 20
98.9944549182
  0
LWPOLYLINE
  5
35E
330
1F
100
AcDbEntity
  8
0
  6
SLD-Durchgehend
 62
     7
370
    15
100
AcDbPolyline
 90
       10
 70
   128
 43
0.0
 10
96.5370634982
 20
102.5785004338
 10
96.5368239718
 20
102.577788014
 10
96.3949696107
 20
101.7931986156
 10
96.4931680215
 20
101.0068396506
 10
96.8290012334
 20
100.2380738864
 10
97.3941999183
 20
99.5058308875
 10
98.1748470086
 20
98.8281409068
 10
99.1517203822
 20
98.2216909206
 10
100.3007661747
 20
97.7014137403
 10
101.593691065
 20
97.2801203168
  0
LINE
  5
35F
330
1F
100
AcDbEntity
  8
0
  6
SLD-Durchgehend
 62
     7
370
    15
100
AcDbLine
 10
96.3939711071
 20
95.2925783778
 30
0.0
 11
96.4103921887
 21
95.0012555054
 31
0.0
  0
LWPOLYLINE
  5
360
330
1F
100
AcDbEntity
  8
0
  6
SLD-Durchgehend
 62
     7
370
    15
100
AcDbPolyline
 90
       10
 70
   128
 43
0.0
 10
96.5370634982
 20
109.4358388394
 10
96.5368239718
 20
109.4351264196
 10
96.3949696107
 20
108.6505370213
 10
96.4931680215
 20
107.8641780562
 10
96.8290012334
 20
107.095412292
 10
97.3941999183
 20
106.3631692932
 10
98.1748470086
 20
105.6854793124
 10
99.1517203822
 20
105.0790293262
 10
100.3007661747
 20
104.5587521459
 10
101.593691065
 20
104.1374587224
  0
LINE
  5
361
330
1F
100
AcDbEntity
  8
0
  6
SLD-Durchgehend
 62
     7
370
    15
100
AcDbLine
 10
101.593691065
 20
104.1374587224
 30
0.0
 11
101.593691065
 21
105.8517933238
 31
0.0
  0
LWPOLYLINE
  5
362
330
1F
100
AcDbEntity
  8
0
  6
SLD-Durchgehend
 62
     7
370
    15
100
AcDbPolyline
 90
        8
 70
   128
 43
0.0
 10
96.3939711071
 20
110.2930061401
 10
96.4931680215
 20
109.5785126577
 10
96.8290012334
 20
108.8097468935
 10
97.3941999183
 20
108.0775038946
 10
98.1748470086
 20
107.3998139138
 10
99.1517203822
 20
106.7933639276
 10
100.3007661747
 20
106.2730867473
 10
101.593691065
 20
105.8517933238
  0
LWPOLYLINE
  5
363
330
1F
100
AcDbEntity
  8
0
  6
SLD-Durchgehend
 62
     7
370
    15
100
AcDbPolyline
 90
       10
 70
   128
 43
0.0
 10
96.5370634983
 20
116.293177245
 10
96.5368239718
 20
116.2924648252
 10
96.3949696107
 20
115.5078754269
 10
96.4931680215
 20
114.7215164619
 10
96.8290012334
 20
113.9527506977
 10
97.3941999183
 20
113.2205076988
 10
98.1748470086
 20
112.542817718
 10
99.1517203822
 20
111.9363677318
 10
100.3007661747
 20
111.4160905515
 10
101.593691065
 20
110.994797128
  0
LINE
  5
364
330
1F
100
AcDbEntity
  8
0
  6
SLD-Durchgehend
 62
     7
370
    15
100
AcDbLine
 10
101.593691065
 20
110.994797128
 30
0.0
 11
101.593691065
 21
112.7091317294
 31
0.0
  0
LWPOLYLINE
  5
365
330
1F
100
AcDbEntity
  8
0
  6
SLD-Durchgehend
 62
     7
370
    15
100
AcDbPolyline
 90
        8
 70
   128
 43
0.0
 10
96.3939711071
 20
117.1503445458
 10
96.4931680215
 20
116.4358510633
 10
96.8290012334
 20
115.6670852991
 10
97.3941999183
 20
114.9348423002
 10
98.1748470086
 20
114.2571523194
 10
99.1517203822
 20
113.6507023332
 10
100.3007661747
 20
113.1304251529
 10
101.593691065
 20
112.7091317294
  0
ARC
  5
366
330
1F
100
AcDbEntity
  8
0
  6
SLD-Durchgehend
 62
     7
370
    15
100
AcDbCircle
 10
102.8184082361
 20
117.3263943816
 30
0.0
 40
5.720724547548452
100
AcDbArc
 50
209.2829898216
 51
257.6381906734
  0
ARC
  5
367
330
1F
100
AcDbEntity
  8
0
  6
SLD-Durchgehend
 62
     7
370
    15
100
AcDbCircle
 10
102.8184082361
 20
110.469055976
 30
0.0
 40
5.720724547546357
100
AcDbArc
 50
209.2829898216
 51
257.6381906734
  0
ARC
  5
368
330
1F
100
AcDbEntity
  8
0
  6
SLD-Durchgehend
 62
     7
370
    15
100
AcDbCircle
 10
102.8184082361
 20
103.6117175704
 30
0.0
 40
5.720724547534415
100
AcDbArc
 50
209.2829898214
 51
257.6381906735
  0
LWPOLYLINE
  5
369
330
1F
100
AcDbEntity
  8
0
  6
SLD-Durchgehend
 62
     7
370
    15
100
AcDbPolyline
 90
       32
 70
   128
 43
0.0
 10
96.4945097943
 20
74.3110510638
 10
95.4346836698
 20
73.0625276712
 10
94.4829168329
 20
71.5887309514
 10
93.7199916009
 20
69.9779471293
 10
93.1539951711
 20
68.247250914
 10
92.7909272464
 20
66.414988116
 10
92.6346364372
 20
64.5005811768
 10
92.6867794649
 20
62.5243232861
 10
92.9468036005
 20
60.5071632693
 10
93.4119525234
 20
58.4704835242
 10
94.0772955393
 20
56.435873363
 10
94.9357798468
 20
54.4249001594
 10
95.9783052986
 20
52.4588807297
 10
97.1938208656
 20
50.558655369
 10
98.5694417804
 20
48.7443669387
 10
100.090586119
 20
47.0352473475
 10
101.7411293732
 20
45.4494136884
 10
103.5035753737
 20
44.0036761926
 10
105.3592417545
 20
42.7133600372
 10
107.2884579903
 20
41.5921428945
 10
109.2707739092
 20
40.6519099451
 10
111.2851764692
 20
39.9026278921
 10
113.3103125021
 20
39.3522393118
 10
115.3247150621
 20
39.00657846
 10
117.307030981
 20
38.8693094277
 10
119.2362472168
 20
38.9418873008
 10
121.0919135976
 20
39.2235427358
 10
122.8543595981
 20
39.7112901151
 10
124.5049028522
 20
40.399959195
 10
126.0260471909
 20
41.282249912
 10
127.4016681057
 20
42.348809765
 10
127.5551379474
 20
42.4876365543
  0
ARC
  5
36A
330
1F
100
AcDbEntity
  8
0
  6
SLD-Durchgehend
 62
     7
370
    15
100
AcDbCircle
 10
108.8275499206
 20
65.4290318577
 30
0.0
 40
12.74544010655504
100
AcDbArc
 50
104.7493420784
 51
116.1611363838
  0
LWPOLYLINE
  5
36B
330
1F
100
AcDbEntity
  8
0
  6
SLD-Durchgehend
 62
     7
370
    15
100
AcDbPolyline
 90
        3
 70
   128
 43
0.0
 10
130.361326943
 20
49.3053844969
 10
130.989001139
 20
50.7788892472
 10
131.218016281
 20
51.4896043091
  0
LWPOLYLINE
  5
36C
330
1F
100
AcDbEntity
  8
0
  6
SLD-Durchgehend
 62
     7
370
    15
100
AcDbPolyline
 90
       21
 70
   128
 43
0.0
 10
101.3062928934
 20
67.3190257982
 10
101.097584284
 20
66.4870162501
 10
100.8878498868
 20
64.9349537619
 10
100.8878498868
 20
63.3131011665
 10
101.097584284
 20
61.6470360481
 10
101.5137454417
 20
59.9630332489
 10
102.1297702497
 20
58.287650499
 10
102.9359436289
 20
56.6473095853
 10
103.9195517435
 20
55.0678796639
 10
105.0650825059
 20
53.574269288
 10
106.3544702118
 20
52.1900335856
 10
107.7673804467
 20
50.9370027806
 10
109.2815307723
 20
49.8349379173
 10
110.8730421333
 20
48.901219217
 10
112.5168154449
 20
48.1505719813
 10
114.18692742
 20
47.5948343656
 10
115.8570393952
 20
47.242770684
 10
117.5008127068
 20
47.0999331911
 10
119.0923240678
 20
47.1685745195
 10
120.6064743933
 20
47.4476121544
 10
120.7861585877
 20
47.4962762117
  0
LINE
  5
36D
330
1F
100
AcDbEntity
  8
0
  6
SLD-Durchgehend
 62
     7
370
    15
100
AcDbLine
 10
132.3581924922
 20
76.7403532803
 30
0.0
 11
134.1270287356
 21
76.2596214909
 31
0.0
  0
LINE
  5
36E
330
1F
100
AcDbEntity
  8
0
  6
SLD-Durchgehend
 62
     7
370
    15
100
AcDbLine
 10
132.3581924922
 20
69.8830148747
 30
0.0
 11
132.3581924922
 21
76.7403532803
 31
0.0
  0
LINE
  5
36F
330
1F
100
AcDbEntity
  8
0
  6
SLD-Durchgehend
 62
     7
370
    15
100
AcDbLine
 10
130.5893562489
 20
70.363746664
 30
0.0
 11
132.3581924922
 21
69.8830148747
 31
0.0
  0
LINE
  5
370
330
1F
100
AcDbEntity
  8
0
  6
SLD-Durchgehend
 62
     7
370
    15
100
AcDbLine
 10
133.2426106139
 20
64.4996451758
 30
0.0
 11
130.5893562489
 21
70.363746664
 31
0.0
  0
LINE
  5
371
330
1F
100
AcDbEntity
  8
0
  6
SLD-Durchgehend
 62
     7
370
    15
100
AcDbLine
 10
135.8958649789
 20
68.9215512959
 30
0.0
 11
133.2426106139
 21
64.4996451758
 31
0.0
  0
LINE
  5
372
330
1F
100
AcDbEntity
  8
0
  6
SLD-Durchgehend
 62
     7
370
    15
100
AcDbLine
 10
134.1270287356
 20
69.4022830853
 30
0.0
 11
135.8958649789
 21
68.9215512959
 31
0.0
  0
LINE
  5
373
330
1F
100
AcDbEntity
  8
0
  6
SLD-Durchgehend
 62
     7
370
    15
100
AcDbLine
 10
134.1270287356
 20
76.2596214909
 30
0.0
 11
134.1270287356
 21
69.4022830853
 31
0.0
  0
LINE
  5
374
330
1F
100
AcDbEntity
  8
0
  6
SLD-Durchgehend
 62
     7
370
    15
100
AcDbLine
 10
90.7905407734
 20
76.0372081206
 30
0.0
 11
90.7905407734
 21
82.8945465262
 31
0.0
  0
LINE
  5
375
330
1F
100
AcDbEntity
  8
0
  6
SLD-Durchgehend
 62
     7
370
    15
100
AcDbLine
 10
90.7905407734
 20
82.8945465262
 30
0.0
 11
92.5593770167
 21
82.4138147368
 31
0.0
  0
LINE
  5
376
330
1F
100
AcDbEntity
  8
0
  6
SLD-Durchgehend
 62
     7
370
    15
100
AcDbLine
 10
92.5593770167
 20
82.4138147368
 30
0.0
 11
89.9061226517
 21
88.2779162251
 31
0.0
  0
LINE
  5
377
330
1F
100
AcDbEntity
  8
0
  6
SLD-Durchgehend
 62
     7
370
    15
100
AcDbLine
 10
89.9061226517
 20
88.2779162251
 30
0.0
 11
87.2528682867
 21
83.8560101049
 31
0.0
  0
LINE
  5
378
330
1F
100
AcDbEntity
  8
0
  6
SLD-Durchgehend
 62
     7
370
    15
100
AcDbLine
 10
87.2528682867
 20
83.8560101049
 30
0.0
 11
89.02170453
 21
83.3752783156
 31
0.0
  0
LINE
  5
379
330
1F
100
AcDbEntity
  8
0
  6
SLD-Durchgehend
 62
     7
370
    15
100
AcDbLine
 10
89.02170453
 20
83.3752783156
 30
0.0
 11
89.02170453
 21
76.51793991
 31
0.0
  0
LINE
  5
37A
330
1F
100
AcDbEntity
  8
0
  6
SLD-Durchgehend
 62
     7
370
    15
100
AcDbLine
 10
89.02170453
 20
76.51793991
 30
0.0
 11
90.7905407734
 21
76.0372081206
 31
0.0
  0
LWPOLYLINE
  5
37B
330
1F
100
AcDbEntity
  8
0
  6
SLD-Durchgehend
 62
     7
370
    15
100
AcDbPolyline
 90
       17
 70
   128
 43
0.0
 10
90.3483317125
 20
43.5850336412
 10
90.2810093917
 20
43.9313541303
 10
90.0892916421
 20
44.2615439928
 10
89.8023657533
 20
44.5253348154
 10
89.4639135909
 20
44.6825668366
 10
89.1254614284
 20
44.7093029066
 10
88.8385355396
 20
44.601472701
 10
88.6468177901
 20
44.3754923911
 10
88.5794954692
 20
44.0657654306
 10
88.6468177901
 20
43.7194449416
 10
88.8385355396
 20
43.3892550791
 10
89.1254614284
 20
43.1254642565
 10
89.4639135909
 20
42.9682322352
 10
89.8023657533
 20
42.9414961653
 10
90.0892916421
 20
43.0493263709
 10
90.2810093917
 20
43.2753066808
 10
90.3483317125
 20
43.5850336412
  0
LWPOLYLINE
  5
37C
330
1F
100
AcDbEntity
  8
0
  6
SLD-Durchgehend
 62
     7
370
    15
100
AcDbPolyline
 90
       17
 70
   128
 43
0.0
 10
134.5692377964
 20
31.566738907
 10
134.5019154755
 20
31.9130593961
 10
134.310197726
 20
32.2432492586
 10
134.0232718372
 20
32.5070400812
 10
133.6848196747
 20
32.6642721024
 10
133.3463675123
 20
32.6910081724
 10
133.0594416235
 20
32.5831779668
 10
132.8677238739
 20
32.3571976569
 10
132.8004015531
 20
32.0474706964
 10
132.8677238739
 20
31.7011502074
 10
133.0594416235
 20
31.3709603449
 10
133.3463675123
 20
31.1071695223
 10
133.6848196747
 20
30.949937501
 10
134.0232718372
 20
30.9232014311
 10
134.310197726
 20
31.0310316367
 10
134.5019154755
 20
31.2570119466
 10
134.5692377964
 20
31.566738907
  0
LWPOLYLINE
  5
37D
330
1F
100
AcDbEntity
  8
0
  6
SLD-Durchgehend
 62
     7
370
    15
100
AcDbPolyline
 90
       62
 70
   128
 43
0.0
 10
91.8960634255
 20
63.307824892
 10
92.0003608802
 20
65.2404783024
 10
92.3121476653
 20
67.0959534791
 10
92.8281187633
 20
68.8545819237
 10
93.5428047523
 20
70.4977217371
 10
94.4486297829
 20
72.0079552287
 10
95.5359918846
 20
73.3692735476
 10
96.7933647484
 20
74.567246381
 10
98.2074199093
 20
75.5891749189
 10
99.7631680308
 20
76.4242264646
 10
101.4441177957
 20
77.0635492639
 10
103.2324507185
 20
77.5003663361
 10
105.1092100251
 20
77.7300473116
 10
107.0545016001
 20
77.7501575149
 10
109.0477048689
 20
77.5604837728
 10
111.0676913809
 20
77.1630366742
 10
113.0930487767
 20
76.5620292573
 10
115.1023077639
 20
75.7638323501
 10
117.0741696975
 20
74.7769070384
 10
118.9877323504
 20
73.6117149761
 10
120.8227114825
 20
72.2806074888
 10
122.5596558584
 20
70.7976946472
 10
124.1801534358
 20
69.1786956961
 10
125.667026537
 20
67.4407724273
 10
127.0045139375
 20
65.6023472598
 10
128.1784379379
 20
63.6829079576
 10
129.1763546519
 20
61.7028010549
 10
129.9876859141
 20
59.6830161774
 10
130.6038314111
 20
57.6449635474
 10
131.0182598476
 20
55.6102470296
 10
131.2265781788
 20
53.6004351253
 10
131.2265781788
 20
51.6368323408
 10
131.0182598476
 20
49.740253354
 10
130.6038314111
 20
47.930802374
 10
129.9876859141
 20
46.2276600314
 10
129.1763546519
 20
44.6488800585
 10
128.1784379379
 20
43.211197916
 10
127.0045139375
 20
41.9298533922
 10
125.667026537
 20
40.8184290577
 10
124.1801534358
 20
39.8887062871
 10
122.5596558584
 20
39.150540373
 10
120.8227114825
 20
38.6117560577
 10
118.9877323504
 20
38.2780645889
 10
117.0741696975
 20
38.1530031793
 10
115.1023077639
 20
38.237897511
 10
113.0930487767
 20
38.5318476828
 10
111.0676913809
 20
39.0317377499
 10
109.0477048689
 20
39.7322687531
 10
107.0545016001
 20
40.6260148896
 10
105.1092100251
 20
41.7035022279
 10
103.2324507185
 20
42.9533091343
 10
101.4441177957
 20
44.3621873447
 10
99.7631680308
 20
45.9152023994
 10
98.2074199093
 20
47.5958919526
 10
96.7933647484
 20
49.3864402769
 10
95.5359918846
 20
51.2678671146
 10
94.4486297829
 20
53.2202288733
 10
93.5428047523
 20
55.2228300325
 10
92.8281187633
 20
57.2544425218
 10
92.3121476653
 20
59.2935307434
 10
92.0003608802
 20
61.318479855
 10
91.8960634255
 20
63.307824892
  0
LINE
  5
37E
330
1F
100
AcDbEntity
  8
0
  6
SLD-Durchgehend
 62
     7
370
    15
100
AcDbLine
 10
61.604742758
 20
57.3970963234
 30
0.0
 11
61.604742758
 21
43.6824195122
 31
0.0
  0
LINE
  5
37F
330
1F
100
AcDbEntity
  8
0
  6
SLD-Durchgehend
 62
     7
370
    15
100
AcDbLine
 10
61.604742758
 20
57.3970963234
 30
0.0
 11
80.6197323741
 21
52.2292295877
 31
0.0
  0
ARC
  5
380
330
1F
100
AcDbEntity
  8
0
  6
SLD-Durchgehend
 62
     7
370
    15
100
AcDbCircle
 10
81.2057945086
 20
53.745074484
 30
0.0
 40
1.625193703861125
100
AcDbArc
 50
248.862298024
 51
0.9222550965
  0
LINE
  5
381
330
1F
100
AcDbEntity
  8
0
  6
SLD-Durchgehend
 62
     7
370
    15
100
AcDbLine
 10
82.8307776783
 20
53.7712331027
 30
0.0
 11
82.8307776783
 21
93.6295125854
 31
0.0
  0
LINE
  5
382
330
1F
100
AcDbEntity
  8
0
  6
SLD-Durchgehend
 62
     7
370
    15
100
AcDbLine
 10
140.3179555873
 20
78.0057294309
 30
0.0
 11
82.8307776783
 21
93.6295125854
 31
0.0
  0
LINE
  5
383
330
1F
100
AcDbEntity
  8
0
  6
SLD-Durchgehend
 62
     7
370
    15
100
AcDbLine
 10
140.3179555873
 20
78.0057294309
 30
0.0
 11
140.3179555873
 21
38.1474499483
 31
0.0
  0
ARC
  5
384
330
1F
100
AcDbEntity
  8
0
  6
SLD-Durchgehend
 62
     7
370
    15
100
AcDbCircle
 10
143.3488860744
 20
38.3270724763
 30
0.0
 40
3.036248321541283
100
AcDbArc
 50
183.391562315
 51
254.3338098233
  0
LINE
  5
385
330
1F
100
AcDbEntity
  8
0
  6
SLD-Durchgehend
 62
     7
370
    15
100
AcDbLine
 10
142.5290008915
 20
35.4036169598
 30
0.0
 11
161.5439905076
 21
30.2357502241
 31
0.0
  0
LINE
  5
386
330
1F
100
AcDbEntity
  8
0
  6
SLD-Durchgehend
 62
     7
370
    15
100
AcDbLine
 10
161.5439905076
 20
16.5210734129
 30
0.0
 11
161.5439905076
 21
30.2357502241
 31
0.0
  0
LINE
  5
387
330
1F
100
AcDbEntity
  8
0
  6
SLD-Durchgehend
 62
     7
370
    15
100
AcDbLine
 10
133.6848196747
 20
24.0925990954
 30
0.0
 11
161.5439905076
 21
16.5210734129
 31
0.0
  0
LINE
  5
388
330
1F
100
AcDbEntity
  8
0
  6
SLD-Durchgehend
 62
     7
370
    15
100
AcDbLine
 10
133.6848196747
 20
24.0925990954
 30
0.0
 11
133.6848196747
 21
24.5211827458
 31
0.0
  0
LINE
  5
389
330
1F
100
AcDbEntity
  8
0
  6
SLD-Durchgehend
 62
     7
370
    15
100
AcDbLine
 10
133.6848196747
 20
24.5211827458
 30
0.0
 11
89.4639135909
 21
36.53947748
 31
0.0
  0
LINE
  5
38A
330
1F
100
AcDbEntity
  8
0
  6
SLD-Durchgehend
 62
     7
370
    15
100
AcDbLine
 10
89.4639135909
 20
36.53947748
 30
0.0
 11
89.4639135909
 21
36.1108938296
 31
0.0
  0
LINE
  5
38B
330
1F
100
AcDbEntity
  8
0
  6
SLD-Durchgehend
 62
     7
370
    15
100
AcDbLine
 10
61.604742758
 20
43.6824195122
 30
0.0
 11
89.4639135909
 21
36.1108938296
 31
0.0
  0
LINE
  5
38C
330
1F
100
AcDbEntity
  8
0
  6
SLD-Durchgehend
 62
     7
370
    15
100
AcDbLine
 10
152.4520356995
 20
89.8489636078
 30
0.0
 11
140.3179555873
 21
78.0057294309
 31
0.0
  0
LINE
  5
38D
330
1F
100
AcDbEntity
  8
0
  6
SLD-Durchgehend
 62
     7
370
    15
100
AcDbLine
 10
152.4520356995
 20
89.8489636078
 30
0.0
 11
152.4520356995
 21
49.9906841252
 31
0.0
  0
LINE
  5
38E
330
1F
100
AcDbEntity
  8
0
  6
SLD-Durchgehend
 62
     7
370
    15
100
AcDbLine
 10
94.9648577905
 20
105.4727467623
 30
0.0
 11
82.8307776783
 21
93.6295125854
 31
0.0
  0
LINE
  5
38F
330
1F
100
AcDbEntity
  8
0
  6
SLD-Durchgehend
 62
     7
370
    15
100
AcDbLine
 10
152.4520356995
 20
89.8489636078
 30
0.0
 11
115.8939711071
 21
99.7846622195
 31
0.0
  0
LINE
  5
390
330
1F
100
AcDbEntity
  8
0
  6
SLD-Durchgehend
 62
     7
370
    15
100
AcDbLine
 10
96.3939711071
 20
105.084344385
 30
0.0
 11
94.9648577905
 21
105.4727467623
 31
0.0
  0
LWPOLYLINE
  5
391
330
1F
100
AcDbEntity
  8
0
  6
SLD-Durchgehend
 62
     7
370
    15
100
AcDbPolyline
 90
       34
 70
   128
 43
0.0
 10
133.1606201445
 20
91.4362748693
 10
134.2291173957
 20
91.0751341975
 10
135.1456040165
 20
90.6163716752
 10
135.8769557927
 20
90.0765681751
 10
136.3967397654
 20
89.4752336022
 10
136.6861695877
 20
88.8341017547
 10
136.7347845116
 20
88.176344808
 10
136.5408274671
 20
87.525735812
 10
136.1113085672
 20
86.905789471
 10
135.461751744
 20
86.3389122609
 10
134.6156336734
 20
85.845592601
 10
133.6035352672
 20
85.4436603494
 10
132.4620363988
 20
85.1476423846
 10
131.2323938112
 20
84.9682375673
 10
129.9590499916
 20
84.911930055
 10
128.6880269031
 20
84.9807549479
 10
127.4652626319
 20
85.172224735
 10
126.3349510645
 20
85.4794191994
 10
125.337944606
 20
85.8912355327
 10
124.5102776675
 20
86.3927896196
 10
123.8818642886
 20
86.9659539888
 10
123.4754169662
 20
87.5900129864
 10
123.3056257654
 20
88.2424114945
 10
123.3786273827
 20
88.899570131
 10
123.6917833493
 20
89.5377374706
 10
124.2337753928
 20
90.133848483
 10
124.9850145086
 20
90.666358163
 10
125.9183489576
 20
91.1160202234
 10
127.0000456011
 20
91.4665827057
 10
128.191009104
 20
91.7053753684
 10
129.4481949425
 20
91.8237676225
 10
130.7261651445
 20
91.8174804634
 10
131.9787305375
 20
91.6867411256
 10
133.1606201445
 20
91.4362748693
  0
LINE
  5
392
330
1F
100
AcDbEntity
  8
0
  6
SLD-Durchgehend
 62
     7
370
    15
100
AcDbLine
 10
133.2809668988
 20
64.5635696503
 30
0.0
 11
130.6660688187
 21
70.3428978313
 31
0.0
  0
LINE
  5
393
330
1F
100
AcDbEntity
  8
0
  6
SLD-Durchgehend
 62
     7
370
    15
100
AcDbLine
 10
132.4048620311
 20
69.9285657753
 30
0.0
 11
132.4048620311
 21
76.7276694996
 31
0.0
  0
LINE
  5
394
330
1F
100
AcDbEntity
  8
0
  6
SLD-Durchgehend
 62
     7
370
    15
100
AcDbLine
 10
132.4048620311
 20
69.9285657753
 30
0.0
 11
132.3581924922
 21
69.8830148747
 31
0.0
  0
ARC
  5
395
330
1F
100
AcDbEntity
  8
0
  6
SLD-Durchgehend
 62
     7
370
    15
100
AcDbCircle
 10
107.0778575405
 20
64.562743229
 30
0.0
 40
14.39643461985906
100
AcDbArc
 50
137.6497225501
 51
181.912888614
  0
LWPOLYLINE
  5
396
330
1F
100
AcDbEntity
  8
0
  6
SLD-Durchgehend
 62
     7
370
    15
100
AcDbPolyline
 90
       25
 70
   128
 43
0.0
 10
127.5038023407
 20
42.4326688962
 10
126.4604086982
 20
41.5927943693
 10
124.9735355969
 20
40.6630715987
 10
123.3530380196
 20
39.9249056846
 10
121.6160936437
 20
39.3861213692
 10
119.7811145116
 20
39.0524299005
 10
117.8675518587
 20
38.9273684909
 10
115.8956899251
 20
39.0122628225
 10
113.8864309379
 20
39.3062129944
 10
111.8610735421
 20
39.8061030614
 10
109.8410870301
 20
40.5066340646
 10
107.8478837613
 20
41.4003802011
 10
105.9025921863
 20
42.4778675395
 10
104.0258328796
 20
43.7276744459
 10
102.2374999569
 20
45.1365526562
 10
100.556550192
 20
46.6895677109
 10
99.0008020705
 20
48.3702572641
 10
97.5867469096
 20
50.1608055885
 10
96.3293740458
 20
52.0422324262
 10
95.2420119441
 20
53.9945941848
 10
94.3361869135
 20
55.9971953441
 10
93.6215009245
 20
58.0288078334
 10
93.1055298265
 20
60.067896055
 10
92.7937430413
 20
62.0928451665
 10
92.6894455867
 20
64.0821902036
  0
LWPOLYLINE
  5
397
330
1F
100
AcDbEntity
  8
0
  6
SLD-Durchgehend
 62
     7
370
    15
100
AcDbPolyline
 90
       14
 70
   128
 43
0.0
 10
132.6939247555
 20
90.1235985618
 10
131.5833060698
 20
90.3526182472
 10
130.404505902
 20
90.4577055477
 10
129.209043476
 20
90.4342676438
 10
128.0491662363
 20
90.2833288844
 10
126.975566384
 20
90.0114860176
 10
126.0351653843
 20
89.6306198811
 10
125.2690632734
 20
89.1573761528
 10
124.7107423899
 20
88.6124378543
 10
124.3846040353
 20
88.0196214042
 10
124.3049020208
 20
87.4048357262
 10
124.4751197069
 20
86.7949499042
 10
124.8878177639
 20
86.2166188754
 10
125.0939590747
 20
86.0198791351
  0
LWPOLYLINE
  5
398
330
1F
100
AcDbEntity
  8
0
  6
SLD-Durchgehend
 62
     7
370
    15
100
AcDbPolyline
 90
        9
 70
   128
 43
0.0
 10
134.95256171
 20
86.0198791351
 10
135.3357783949
 20
86.4214586864
 10
135.6619167494
 20
87.0142751364
 10
135.7416187639
 20
87.6290608145
 10
135.5714010779
 20
88.2389466364
 10
135.1587030209
 20
88.8172776652
 10
134.5215614785
 20
89.3387780598
 10
133.6878225934
 20
89.7806557505
 10
132.6939247555
 20
90.1235985618
  0
LINE
  5
399
330
1F
100
AcDbEntity
  8
0
  6
SLD-Durchgehend
 62
     7
370
    15
100
AcDbLine
 10
173.6780706198
 20
42.078984401
 30
0.0
 11
169.7111598138
 21
38.2071578432
 31
0.0
  0
LINE
  5
39A
330
1F
100
AcDbEntity
  8
0
  6
SLD-Durchgehend
 62
     7
370
    15
100
AcDbLine
 10
169.7111598138
 20
38.2071578432
 30
0.0
 11
159.5403514146
 21
40.971365632
 31
0.0
  0
LWPOLYLINE
  5
39B
330
1F
100
AcDbEntity
  8
0
  6
SLD-Durchgehend
 62
     7
370
    15
100
AcDbPolyline
 90
       14
 70
   128
 43
0.0
 10
159.5403514146
 20
40.971365632
 10
158.526877479
 20
41.1706574015
 10
157.4502510865
 20
41.2392406827
 10
156.3730418494
 20
41.1731296647
 10
155.3578532532
 20
40.9761664796
 10
154.463684369
 20
40.6597979117
 10
153.7425010422
 20
40.2424101523
 10
153.2362158263
 20
39.7482602607
 10
152.9742521779
 20
39.2060664326
 10
152.971834472
 20
38.6473390024
 10
153.2291032168
 20
38.1045491774
 10
153.731106888
 20
37.6092419294
 10
154.448670857
 20
37.1902027152
 10
155.3400929142
 20
36.8717845708
  0
LINE
  5
39C
330
1F
100
AcDbEntity
  8
0
  6
SLD-Durchgehend
 62
     7
370
    15
100
AcDbLine
 10
155.3400929142
 20
36.8717845708
 30
0.0
 11
165.5109013135
 21
34.1075767819
 31
0.0
  0
LINE
  5
39D
330
1F
100
AcDbEntity
  8
0
  6
SLD-Durchgehend
 62
     7
370
    15
100
AcDbLine
 10
165.5109013135
 20
34.1075767819
 30
0.0
 11
161.5439905076
 21
30.2357502241
 31
0.0
  0
LINE
  5
39E
330
1F
100
AcDbEntity
  8
0
  6
SLD-Durchgehend
 62
     7
370
    15
100
AcDbLine
 10
154.6630810037
 20
47.2468511367
 30
0.0
 11
173.6780706198
 21
42.078984401
 31
0.0
  0
LINE
  5
39F
330
1F
100
AcDbEntity
  8
0
  6
SLD-Durchgehend
 62
     7
370
    15
100
AcDbLine
 10
165.5109013135
 20
20.3928999707
 30
0.0
 11
165.5109013135
 21
34.1075767819
 31
0.0
  0
LINE
  5
3A0
330
1F
100
AcDbEntity
  8
0
  6
SLD-Durchgehend
 62
     7
370
    15
100
AcDbLine
 10
161.5439905076
 20
16.5210734129
 30
0.0
 11
165.5109013135
 21
20.3928999707
 31
0.0
  0
ARC
  5
3A1
330
1F
100
AcDbEntity
  8
0
  6
SLD-Durchgehend
 62
     7
370
    15
100
AcDbCircle
 10
155.4829661866
 20
50.1703066532
 30
0.0
 40
3.036248321541201
100
AcDbArc
 50
183.391562315
 51
254.3338098233
  0
LINE
  5
3A2
330
1F
100
AcDbEntity
  8
0
  6
SLD-Durchgehend
 62
     7
370
    15
100
AcDbLine
 10
87.2995378256
 20
83.9015610056
 30
0.0
 11
89.0683740689
 21
83.4208292162
 31
0.0
  0
LINE
  5
3A3
330
1F
100
AcDbEntity
  8
0
  6
SLD-Durchgehend
 62
     7
370
    15
100
AcDbLine
 10
89.9144359057
 20
88.2595426513
 30
0.0
 11
87.2995378256
 21
83.9015610056
 31
0.0
  0
LINE
  5
3A4
330
1F
100
AcDbEntity
  8
0
  6
SLD-Durchgehend
 62
     7
370
    15
100
AcDbLine
 10
90.8372103123
 20
82.9400974269
 30
0.0
 11
92.5293339858
 21
82.4802144702
 31
0.0
  0
LINE
  5
3A5
330
1F
100
AcDbEntity
  8
0
  6
SLD-Durchgehend
 62
     7
370
    15
100
AcDbLine
 10
89.0683740689
 20
76.5634908106
 30
0.0
 11
90.7905407734
 21
76.0954428019
 31
0.0
  0
LINE
  5
3A6
330
1F
100
AcDbEntity
  8
0
  6
SLD-Durchgehend
 62
     7
370
    15
100
AcDbLine
 10
89.0683740689
 20
83.4208292162
 30
0.0
 11
89.0683740689
 21
76.5634908106
 31
0.0
  0
LINE
  5
3A7
330
1F
100
AcDbEntity
  8
0
  6
SLD-Durchgehend
 62
     7
370
    15
100
AcDbLine
 10
87.2995378256
 20
83.9015610056
 30
0.0
 11
87.2528682867
 21
83.8560101049
 31
0.0
  0
LINE
  5
3A8
330
1F
100
AcDbEntity
  8
0
  6
SLD-Durchgehend
 62
     7
370
    15
100
AcDbLine
 10
90.8372103123
 20
82.9400974269
 30
0.0
 11
90.7905407734
 21
82.8945465262
 31
0.0
  0
LINE
  5
3A9
330
1F
100
AcDbEntity
  8
0
  6
SLD-Durchgehend
 62
     7
370
    15
100
AcDbLine
 10
89.0683740689
 20
83.4208292162
 30
0.0
 11
89.02170453
 21
83.3752783156
 31
0.0
  0
LINE
  5
3AA
330
1F
100
AcDbEntity
  8
0
  6
SLD-Durchgehend
 62
     7
370
    15
100
AcDbLine
 10
89.0683740689
 20
76.5634908106
 30
0.0
 11
89.02170453
 21
76.51793991
 31
0.0
  0
LINE
  5
3AB
330
1F
100
AcDbEntity
  8
0
  6
SLD-Durchgehend
 62
     7
370
    15
100
AcDbLine
 10
169.7111598138
 20
24.4924810319
 30
0.0
 11
169.7111598138
 21
38.2071578432
 31
0.0
  0
LINE
  5
3AC
330
1F
100
AcDbEntity
  8
0
  6
SLD-Durchgehend
 62
     7
370
    15
100
AcDbLine
 10
169.7111598138
 20
24.4924810319
 30
0.0
 11
165.5109013135
 21
25.6340212917
 31
0.0
  0
LINE
  5
3AD
330
1F
100
AcDbEntity
  8
0
  6
SLD-Durchgehend
 62
     7
370
    15
100
AcDbLine
 10
169.7111598138
 20
24.4924810319
 30
0.0
 11
173.6780706198
 21
28.3643075898
 31
0.0
  0
LINE
  5
3AE
330
1F
100
AcDbEntity
  8
0
  6
SLD-Durchgehend
 62
     7
370
    15
100
AcDbLine
 10
173.6780706198
 20
28.3643075898
 30
0.0
 11
173.6780706198
 21
42.078984401
 31
0.0
  0
ARC
  5
3AF
330
1F
100
AcDbEntity
  8
0
  6
SLD-Durchgehend
 62
     7
370
    15
100
AcDbCircle
 10
134.1216164603
 20
32.2334318551
 30
0.0
 40
1.074175264304684
100
AcDbArc
 50
158.9150567412
 51
289.6950104969
  0
ARC
  5
3B0
330
1F
100
AcDbEntity
  8
0
  6
SLD-Durchgehend
 62
     7
370
    15
100
AcDbCircle
 10
89.9007103764
 20
44.2517265893
 30
0.0
 40
1.074175264304971
100
AcDbArc
 50
158.9150567413
 51
289.6950104968
  0
LINE
  5
3B1
330
1F
100
AcDbEntity
  8
0
  6
SLD-Durchgehend
 62
     7
370
    15
100
AcDbLine
 10
65.5716535639
 20
61.2689228812
 30
0.0
 11
61.604742758
 21
57.3970963234
 31
0.0
  0
LINE
  5
3B2
330
1F
100
AcDbEntity
  8
0
  6
SLD-Durchgehend
 62
     7
370
    15
100
AcDbLine
 10
65.5716535639
 20
61.2689228812
 30
0.0
 11
75.7424619632
 21
58.5047150924
 31
0.0
  0
LWPOLYLINE
  5
3B3
330
1F
100
AcDbEntity
  8
0
  6
SLD-Durchgehend
 62
     7
370
    15
100
AcDbPolyline
 90
       14
 70
   128
 43
0.0
 10
75.7424619632
 20
58.5047150924
 10
76.7559358987
 20
58.3054233229
 10
77.8325622913
 20
58.2368400417
 10
78.9097715284
 20
58.3029510597
 10
79.9249601246
 20
58.4999142448
 10
80.8191290088
 20
58.8162828127
 10
81.5403123356
 20
59.2336705721
 10
82.0465975514
 20
59.7278204637
 10
82.3085611999
 20
60.2700142918
 10
82.3109789058
 20
60.828741722
 10
82.053710161
 20
61.371531547
 10
81.5517064898
 20
61.866838795
 10
80.8341425207
 20
62.2858780092
 10
79.9427204636
 20
62.6042961536
  0
LINE
  5
3B4
330
1F
100
AcDbEntity
  8
0
  6
SLD-Durchgehend
 62
     7
370
    15
100
AcDbLine
 10
79.9427204636
 20
62.6042961536
 30
0.0
 11
69.7719120643
 21
65.3685039425
 31
0.0
  0
LINE
  5
3B5
330
1F
100
AcDbEntity
  8
0
  6
SLD-Durchgehend
 62
     7
370
    15
100
AcDbLine
 10
73.7388228702
 20
69.2403305003
 30
0.0
 11
69.7719120643
 21
65.3685039425
 31
0.0
  0
LINE
  5
3B6
330
1F
100
AcDbEntity
  8
0
  6
SLD-Durchgehend
 62
     7
370
    15
100
AcDbLine
 10
73.7388228702
 20
69.2403305003
 30
0.0
 11
82.8307776783
 21
66.7693320005
 31
0.0
  0
LINE
  5
3B7
330
1F
100
AcDbEntity
  8
0
  6
SLD-Durchgehend
 62
     7
370
    15
100
AcDbLine
 10
89.8073824805
 20
36.4461299954
 30
0.0
 11
89.4639135909
 21
36.1108938296
 31
0.0
  0
LINE
  5
3B8
330
1F
100
AcDbEntity
  8
0
  6
SLD-Durchgehend
 62
     7
370
    15
100
AcDbLine
 10
69.7719120643
 20
60.1273826215
 30
0.0
 11
69.7719120643
 21
65.3685039425
 31
0.0
  0
LWPOLYLINE
  5
3B9
330
1F
100
AcDbEntity
  8
0
  6
SLD-Durchgehend
 62
     8
370
     0
100
AcDbPolyline
 90
       13
 70
   128
 43
0.0
 10
100.1791510968
 20
125.9346137131
 10
99.4871455536
 20
125.6012071423
 10
98.5430999115
 20
125.0083981767
 10
97.7959128408
 20
124.3452708468
 10
97.2649360942
 20
123.628999802
 10
96.9639216905
 20
122.8781360862
 10
96.9006657446
 20
122.1121266752
 10
97.0768065523
 20
121.3508108104
 10
97.4877821592
 20
120.6139061728
 10
98.122948513
 20
119.9204982054
 10
98.9658551387
 20
119.2885458104
 10
99.9946711975
 20
118.7344162227
 10
100.4577447839
 20
118.5357112356
  0
LWPOLYLINE
  5
3BA
330
1F
100
AcDbEntity
  8
0
  6
SLD-Durchgehend
 62
     8
370
     0
100
AcDbPolyline
 90
       13
 70
   128
 43
0.0
 10
112.2297058522
 20
118.7055496234
 10
112.2624099087
 20
118.7203347955
 10
113.2960113443
 20
119.2720970534
 10
114.1443786946
 20
119.902108133
 10
114.7855396908
 20
120.5940510781
 10
115.2028885999
 20
121.3300049299
 10
115.3856163043
 20
122.0909088703
 10
115.3289902526
 20
122.8570558869
 10
115.0344770296
 20
123.6086031744
 10
114.5097043733
 20
124.3260860528
 10
113.7682636196
 20
124.9909220925
 10
112.8293576947
 20
125.5858923892
 10
112.2912719602
 20
125.8531964513
  0
LWPOLYLINE
  5
3BB
330
1F
100
AcDbEntity
  8
0
  6
SLD-Durchgehend
 62
     8
370
     0
100
AcDbPolyline
 90
       22
 70
   128
 43
0.0
 10
115.8939711071
 20
121.8647646996
 10
115.8929726035
 20
121.7928992171
 10
115.7511182423
 20
121.0083098188
 10
115.3727040344
 20
120.244809182
 10
114.7670477934
 20
119.5211972264
 10
113.9490627861
 20
118.8552916799
 10
112.938890518
 20
118.263489347
 10
111.7614047829
 20
117.7603623652
 10
110.4455991876
 20
117.3582993906
 10
109.0238732327
 20
117.067200548
 10
107.5312345295
 20
116.8942336571
 10
106.0044367968
 20
116.8436577366
 10
104.481074862
 20
116.9167181337
 10
102.9986589515
 20
117.1116158589
 10
101.593691065
 20
117.4235518833
 10
100.3007661747
 20
117.8448453068
 10
99.1517203822
 20
118.3651224871
 10
98.1748470086
 20
118.9715724733
 10
97.3941999183
 20
119.649262454
 10
96.8290012334
 20
120.3815054529
 10
96.4931680215
 20
121.1502712171
 10
96.3969000371
 20
121.7416872413
  0
LWPOLYLINE
  5
3BC
330
1F
100
AcDbEntity
  8
0
  6
SLD-Durchgehend
 62
     8
370
     0
100
AcDbPolyline
 90
       22
 70
   128
 43
0.0
 10
96.4103921887
 20
95.0012555054
 10
96.4931680215
 20
94.5780848954
 10
96.8290012334
 20
93.8093191312
 10
97.3941999183
 20
93.0770761323
 10
98.1748470086
 20
92.3993861515
 10
99.1517203822
 20
91.7929361653
 10
100.3007661747
 20
91.272658985
 10
101.593691065
 20
90.8513655615
 10
102.9986589515
 20
90.5394295371
 10
104.481074862
 20
90.3445318119
 10
106.0044367968
 20
90.2714714149
 10
107.5312345295
 20
90.3220473353
 10
109.0238732327
 20
90.4950142263
 10
110.4455991876
 20
90.7861130689
 10
111.7614047829
 20
91.1881760434
 10
112.938890518
 20
91.6913030252
 10
113.9490627861
 20
92.2831053581
 10
114.7670477934
 20
92.9490109047
 10
115.3727040344
 20
93.6726228603
 10
115.7511182423
 20
94.436123497
 10
115.8929726035
 20
95.2207128953
 10
115.8939711071
 20
95.2925783778
  0
LINE
  5
3BD
330
1F
100
AcDbEntity
  8
0
  6
SLD-Durchgehend
 62
     8
370
     0
100
AcDbLine
 10
113.5671600877
 20
122.9868932277
 30
0.0
 11
113.9135392112
 21
122.7033818922
 31
0.0
  0
LINE
  5
3BE
330
1F
100
AcDbEntity
  8
0
  6
SLD-Durchgehend
 62
     8
370
     0
100
AcDbLine
 10
98.3363640048
 20
122.3979801266
 30
0.0
 11
98.7207821264
 21
122.7731839982
 31
0.0
  0
ARC
  5
3BF
330
1F
100
AcDbEntity
  8
0
  6
SLD-Durchgehend
 62
     8
370
     0
100
AcDbCircle
 10
98.5451378164
 20
122.1546722395
 30
0.0
 40
0.3206013604549094
100
AcDbArc
 50
130.6317154106
 51
237.8223937649
  0
LINE
  5
3C0
330
1F
100
AcDbEntity
  8
0
  6
SLD-Durchgehend
 62
     8
370
     0
100
AcDbLine
 10
102.0642314825
 20
118.8631899534
 30
0.0
 11
98.374403003
 21
121.8833148077
 31
0.0
  0
ARC
  5
3C1
330
1F
100
AcDbEntity
  8
0
  6
SLD-Durchgehend
 62
     8
370
     0
100
AcDbCircle
 10
102.856697583
 20
120.0317658526
 30
0.0
 40
1.411939146296017
100
AcDbArc
 50
235.8569643362
 51
273.7340093465
  0
LINE
  5
3C2
330
1F
100
AcDbEntity
  8
0
  6
SLD-Durchgehend
 62
     8
370
     0
100
AcDbLine
 10
109.8718385848
 20
118.7585581768
 30
0.0
 11
102.9486496041
 21
118.6228240587
 31
0.0
  0
ARC
  5
3C3
330
1F
100
AcDbEntity
  8
0
  6
SLD-Durchgehend
 62
     8
370
     0
100
AcDbCircle
 10
109.9205012609
 20
120.0513491669
 30
0.0
 40
1.293706535559721
100
AcDbArc
 50
267.8443149248
 51
308.0692275463
  0
LINE
  5
3C4
330
1F
100
AcDbEntity
  8
0
  6
SLD-Durchgehend
 62
     8
370
     0
100
AcDbLine
 10
113.9515782094
 20
122.1887165734
 30
0.0
 11
110.7182177083
 21
119.032857601
 31
0.0
  0
ARC
  5
3C5
330
1F
100
AcDbEntity
  8
0
  6
SLD-Durchgehend
 62
     8
370
     0
100
AcDbCircle
 10
113.7428043978
 20
122.4320244604
 30
0.0
 40
0.3206013604549665
100
AcDbArc
 50
310.6317154106
 51
57.8223937649
  0
LINE
  5
3C6
330
1F
100
AcDbEntity
  8
0
  6
SLD-Durchgehend
 62
     8
370
     0
100
AcDbLine
 10
109.8528190857
 20
121.158809088
 30
0.0
 11
102.929630105
 21
121.0230749699
 31
0.0
  0
ARC
  5
3C7
330
1F
100
AcDbEntity
  8
0
  6
SLD-Durchgehend
 62
     8
370
     0
100
AcDbCircle
 10
91.4261439955
 20
121.0473212501
 30
0.0
 40
11.50351166183826
100
AcDbArc
 50
359.8792359593
 51
3.2974135805
  0
LINE
  5
3C8
330
1F
100
AcDbEntity
  8
0
  6
SLD-Durchgehend
 62
     8
370
     0
100
AcDbLine
 10
102.9106106059
 20
121.7089912797
 30
0.0
 11
109.8337995866
 21
121.8447253978
 31
0.0
  0
ARC
  5
3C9
330
1F
100
AcDbEntity
  8
0
  6
SLD-Durchgehend
 62
     8
370
     0
100
AcDbCircle
 10
98.3493329762
 20
121.1830553681
 30
0.0
 40
11.50351166181432
100
AcDbArc
 50
359.8792359593
 51
3.2974135805
  0
LINE
  5
3CA
330
1F
100
AcDbEntity
  8
0
  6
SLD-Durchgehend
 62
     8
370
     0
100
AcDbLine
 10
109.8528190857
 20
119.4444744866
 30
0.0
 11
109.8528190857
 21
121.158809088
 31
0.0
  0
LINE
  5
3CB
330
1F
100
AcDbEntity
  8
0
  6
SLD-Durchgehend
 62
     8
370
     0
100
AcDbLine
 10
102.929630105
 20
119.3087403685
 30
0.0
 11
109.8528190857
 21
119.4444744866
 31
0.0
  0
LINE
  5
3CC
330
1F
100
AcDbEntity
  8
0
  6
SLD-Durchgehend
 62
     8
370
     0
100
AcDbLine
 10
102.929630105
 20
121.0230749699
 30
0.0
 11
102.929630105
 21
119.3087403685
 31
0.0
  0
LINE
  5
3CD
330
1F
100
AcDbEntity
  8
0
  6
SLD-Durchgehend
 62
     8
370
     0
100
AcDbLine
 10
99.2207821264
 20
124.729116134
 30
0.0
 11
102.9106106059
 21
121.7089912797
 31
0.0
  0
LINE
  5
3CE
330
1F
100
AcDbEntity
  8
0
  6
SLD-Durchgehend
 62
     8
370
     0
100
AcDbLine
 10
102.4541426276
 20
127.8849751064
 30
0.0
 11
99.2207821264
 21
124.729116134
 31
0.0
  0
LINE
  5
3CF
330
1F
100
AcDbEntity
  8
0
  6
SLD-Durchgehend
 62
     8
370
     0
100
AcDbLine
 10
109.3773316082
 20
128.0207092244
 30
0.0
 11
102.4541426276
 21
127.8849751064
 31
0.0
  0
LINE
  5
3D0
330
1F
100
AcDbEntity
  8
0
  6
SLD-Durchgehend
 62
     8
370
     0
100
AcDbLine
 10
113.0671600877
 20
125.0005843701
 30
0.0
 11
109.3773316082
 21
128.0207092244
 31
0.0
  0
LINE
  5
3D1
330
1F
100
AcDbEntity
  8
0
  6
SLD-Durchgehend
 62
     8
370
     0
100
AcDbLine
 10
109.8337995866
 20
121.8447253978
 30
0.0
 11
113.0671600877
 21
125.0005843701
 31
0.0
  0
ARC
  5
3D2
330
1F
100
AcDbEntity
  8
0
  6
SLD-Durchgehend
 62
     8
370
     0
100
AcDbCircle
 10
114.4331162145
 20
119.2844940884
 30
0.0
 40
11.50351166180721
100
AcDbArc
 50
179.8792359593
 51
183.2974135805
  0
ARC
  5
3D3
330
1F
100
AcDbEntity
  8
0
  6
SLD-Durchgehend
 62
     8
370
     0
100
AcDbCircle
 10
121.3563051951
 20
119.4202282064
 30
0.0
 40
11.50351166178987
100
AcDbArc
 50
179.8792359593
 51
183.2974135805
  0
ARC
  5
3D4
330
1F
100
AcDbEntity
  8
0
  6
SLD-Durchgehend
 62
     8
370
     0
100
AcDbCircle
 10
103.1196393846
 20
121.1114825575
 30
0.0
 40
0.6330163531865064
100
AcDbArc
 50
109.2815651499
 51
177.1227292513
  0
ARC
  5
3D5
330
1F
100
AcDbEntity
  8
0
  6
SLD-Durchgehend
 62
     8
370
     0
100
AcDbCircle
 10
102.8836540945
 20
121.7275458669
 30
0.0
 40
0.7059695731482283
100
AcDbArc
 50
235.8569643362
 51
273.7340093465
  0
LINE
  5
3D6
330
1F
100
AcDbEntity
  8
0
  6
SLD-Durchgehend
 62
     8
370
     0
100
AcDbLine
 10
102.4874210442
 20
121.1432579173
 30
0.0
 11
98.7975925647
 21
124.1633827715
 31
0.0
  0
ARC
  5
3D7
330
1F
100
AcDbEntity
  8
0
  6
SLD-Durchgehend
 62
     8
370
     0
100
AcDbCircle
 10
99.4298109051
 20
124.1316074118
 30
0.0
 40
0.6330163531864947
100
AcDbArc
 50
109.2815651499
 51
177.1227292513
  0
ARC
  5
3D8
330
1F
100
AcDbEntity
  8
0
  6
SLD-Durchgehend
 62
     8
370
     0
100
AcDbCircle
 10
109.66982255
 20
121.2600342945
 30
0.0
 40
0.6072496643082266
100
AcDbArc
 50
3.391562315
 51
74.3338098233
  0
ARC
  5
3D9
330
1F
100
AcDbEntity
  8
0
  6
SLD-Durchgehend
 62
     8
370
     0
100
AcDbCircle
 10
109.8771504238
 20
121.805204583
 30
0.0
 40
0.6468532677794451
100
AcDbArc
 50
267.8443149248
 51
308.0692275463
  0
LINE
  5
3DA
330
1F
100
AcDbEntity
  8
0
  6
SLD-Durchgehend
 62
     8
370
     0
100
AcDbLine
 10
102.4874210442
 20
119.4289233159
 30
0.0
 11
102.4874210442
 21
121.1432579173
 31
0.0
  0
ARC
  5
3DB
330
1F
100
AcDbEntity
  8
0
  6
SLD-Durchgehend
 62
     8
370
     0
100
AcDbCircle
 10
102.8836540945
 20
120.0132112655
 30
0.0
 40
0.7059695731481709
100
AcDbArc
 50
235.8569643362
 51
273.7340093465
  0
LINE
  5
3DC
330
1F
100
AcDbEntity
  8
0
  6
SLD-Durchgehend
 62
     8
370
     0
100
AcDbLine
 10
110.2760086474
 20
121.2959588001
 30
0.0
 11
110.2760086474
 21
119.5816241987
 31
0.0
  0
ARC
  5
3DD
330
1F
100
AcDbEntity
  8
0
  6
SLD-Durchgehend
 62
     8
370
     0
100
AcDbCircle
 10
109.8771504238
 20
120.0908699816
 30
0.0
 40
0.6468532677797806
100
AcDbArc
 50
267.8443149248
 51
308.0692275463
  0
ARC
  5
3DE
330
1F
100
AcDbEntity
  8
0
  6
SLD-Durchgehend
 62
     8
370
     0
100
AcDbCircle
 10
112.9031830511
 20
124.4158932668
 30
0.0
 40
0.6072496643084326
100
AcDbArc
 50
3.391562315
 51
74.3338098233
  0
LINE
  5
3DF
330
1F
100
AcDbEntity
  8
0
  6
SLD-Durchgehend
 62
     8
370
     0
100
AcDbLine
 10
113.5093691486
 20
124.4518177725
 30
0.0
 11
110.2760086474
 21
121.2959588001
 31
0.0
  0
LINE
  5
3E0
330
1F
100
AcDbEntity
  8
0
  6
SLD-Durchgehend
 62
     8
370
     0
100
AcDbLine
 10
98.7975925647
 20
122.4490481701
 30
0.0
 11
102.4874210442
 21
119.4289233159
 31
0.0
  0
LINE
  5
3E1
330
1F
100
AcDbEntity
  8
0
  6
SLD-Durchgehend
 62
     8
370
     0
100
AcDbLine
 10
98.7975925647
 20
124.1633827715
 30
0.0
 11
98.7975925647
 21
122.4490481701
 31
0.0
  0
LINE
  5
3E2
330
1F
100
AcDbEntity
  8
0
  6
SLD-Durchgehend
 62
     8
370
     0
100
AcDbLine
 10
113.5093691486
 20
122.7374831711
 30
0.0
 11
113.5093691486
 21
124.4518177725
 31
0.0
  0
LINE
  5
3E3
330
1F
100
AcDbEntity
  8
0
  6
SLD-Durchgehend
 62
     8
370
     0
100
AcDbLine
 10
110.2760086474
 20
119.5816241987
 30
0.0
 11
113.5093691486
 21
122.7374831711
 31
0.0
  0
ARC
  5
3E4
330
1F
100
AcDbEntity
  8
0
  6
SLD-Durchgehend
 62
     8
370
     0
100
AcDbCircle
 10
101.8552027038
 20
119.4606986756
 30
0.0
 40
0.6330163531865078
100
AcDbArc
 50
289.2815651499
 51
357.1227292513
  0
ARC
  5
3E5
330
1F
100
AcDbEntity
  8
0
  6
SLD-Durchgehend
 62
     8
370
     0
100
AcDbCircle
 10
110.8821947448
 20
119.6175487043
 30
0.0
 40
0.6072496643082234
100
AcDbArc
 50
183.391562315
 51
254.3338098233
  0
ARC
  5
3E6
330
1F
100
AcDbEntity
  8
0
  6
SLD-Durchgehend
 62
     8
370
     0
100
AcDbCircle
 10
98.1653742243
 20
122.4808235299
 30
0.0
 40
0.6330163531864813
100
AcDbArc
 50
289.2815651499
 51
357.1227292513
  0
ARC
  5
3E7
330
1F
100
AcDbEntity
  8
0
  6
SLD-Durchgehend
 62
     8
370
     0
100
AcDbCircle
 10
114.115555246
 20
122.7734076767
 30
0.0
 40
0.6072496643082327
100
AcDbArc
 50
183.391562315
 51
254.3338098233
  0
ARC
  5
3E8
330
1F
100
AcDbEntity
  8
0
  6
SLD-Durchgehend
 62
     8
370
     0
100
AcDbCircle
 10
99.1077689015
 20
124.3897057048
 30
0.0
 40
0.3577309442426691
100
AcDbArc
 50
71.583829316
 51
131.326192755
  0
ARC
  5
3E9
330
1F
100
AcDbEntity
  8
0
  6
SLD-Durchgehend
 62
     8
370
     0
100
AcDbCircle
 10
98.90160226
 20
124.3117168325
 30
0.0
 40
0.181165698647268
100
AcDbArc
 50
183.5394323833
 51
234.9624178368
  0
ARC
  5
3EA
330
1F
100
AcDbEntity
  8
0
  6
SLD-Durchgehend
 62
     8
370
     0
100
AcDbCircle
 10
102.3411294027
 20
127.5455646771
 30
0.0
 40
0.3577309442426106
100
AcDbArc
 50
71.583829316
 51
131.326192755
  0
ARC
  5
3EB
330
1F
100
AcDbEntity
  8
0
  6
SLD-Durchgehend
 62
     8
370
     0
100
AcDbCircle
 10
98.8978105897
 20
122.5952587133
 30
0.0
 40
0.1772601913886286
100
AcDbArc
 50
182.930007659
 51
235.571842561
  0
ARC
  5
3EC
330
1F
100
AcDbEntity
  8
0
  6
SLD-Durchgehend
 62
     8
370
     0
100
AcDbCircle
 10
113.1886326991
 20
124.6994796659
 30
0.0
 40
0.3246839050860713
100
AcDbArc
 50
53.0396771642
 51
111.9702895085
  0
ARC
  5
3ED
330
1F
100
AcDbEntity
  8
0
  6
SLD-Durchgehend
 62
     8
370
     0
100
AcDbCircle
 10
113.3985642941
 20
124.5790852732
 30
0.0
 40
0.1687445777263613
100
AcDbArc
 50
311.0443075172
 51
357.5937931885
  0
ARC
  5
3EE
330
1F
100
AcDbEntity
  8
0
  6
SLD-Durchgehend
 62
     8
370
     0
100
AcDbCircle
 10
109.4988042196
 20
127.7196045202
 30
0.0
 40
0.3246839050856425
100
AcDbArc
 50
53.0396771641
 51
111.9702895085
  0
ARC
  5
3EF
330
1F
100
AcDbEntity
  8
0
  6
SLD-Durchgehend
 62
     8
370
     0
100
AcDbCircle
 10
113.3985642941
 20
122.8647506718
 30
0.0
 40
0.1687445777263003
100
AcDbArc
 50
311.0443075172
 51
357.5937931885
  0
ARC
  5
3F0
330
1F
100
AcDbEntity
  8
0
  6
SLD-Durchgehend
 62
     8
370
     0
100
AcDbCircle
 10
98.450509262
 20
122.7318039893
 30
0.0
 40
0.3527995338414023
100
AcDbArc
 50
251.12277008
 51
311.7872519911
  0
ARC
  5
3F1
330
1F
100
AcDbEntity
  8
0
  6
SLD-Durchgehend
 62
     8
370
     0
100
AcDbCircle
 10
113.7928960556
 20
123.0096352834
 30
0.0
 40
0.3291593999944586
100
AcDbArc
 50
232.947711242
 51
291.5010910223
  0
ARC
  5
3F2
330
1F
100
AcDbEntity
  8
0
  6
SLD-Durchgehend
 62
     8
370
     0
100
AcDbCircle
 10
102.2433560018
 20
127.8923419571
 30
0.0
 40
0.2109153197364015
100
AcDbArc
 50
357.9983657607
 51
17.6510176952
  0
ARC
  5
3F3
330
1F
100
AcDbEntity
  8
0
  6
SLD-Durchgehend
 62
     8
370
     0
100
AcDbCircle
 10
109.1665449824
 20
128.0280760752
 30
0.0
 40
0.2109153197358096
100
AcDbArc
 50
357.9983657607
 51
17.6510176953
  0
LWPOLYLINE
  5
3F4
330
1F
100
AcDbEntity
  8
0
  6
SLD-Durchgehend
 62
     8
370
     0
100
AcDbPolyline
 90
       35
 70
   128
 43
0.0
 10
103.2081217957
 20
76.8687989471
 10
101.8320312166
 20
76.0736141366
 10
100.5147905906
 20
75.0447964013
 10
99.3629560101
 20
73.8389994849
 10
98.3905091865
 20
72.4708601286
 10
97.609254307
 20
70.9569856909
 10
97.0286747475
 20
69.3157525566
 10
96.6558179574
 20
67.5670830729
 10
96.495209913
 20
65.7322037183
 10
96.5488001784
 20
63.8333874427
 10
96.8159382405
 20
61.8936833034
 10
97.2933814049
 20
59.9366366811
 10
97.9753341584
 20
57.9860034707
 10
98.8535185185
 20
56.065461717
 10
99.9172745165
 20
54.1983241952
 10
101.1536895957
 20
52.4072554256
 10
102.547755352
 20
50.7139965568
 10
104.0825497154
 20
49.1391014577
 10
105.7394423615
 20
47.7016872213
 10
107.4983208581
 20
46.4192021094
 10
109.3378348029
 20
45.3072137539
 10
111.2356549883
 20
44.3792201871
 10
113.1687444483
 20
43.6464859938
 10
115.1136380955
 20
43.1179055746
 10
117.0467275555
 20
42.7998951796
 10
118.944547741
 20
42.6963150243
 10
120.7840616857
 20
42.8084224315
 10
122.5429401823
 20
43.134856569
 10
124.1998328284
 20
43.6716549688
 10
125.7346271919
 20
44.4123016253
 10
127.1286929481
 20
45.3478060915
 10
128.3651080273
 20
46.4668126103
 10
129.4288640254
 20
47.7557379586
 10
130.3070483854
 20
49.1989363286
 10
130.361326943
 20
49.3053844969
  0
LWPOLYLINE
  5
3F5
330
1F
100
AcDbEntity
  8
0
  6
SLD-Durchgehend
 62
     8
370
     0
100
AcDbPolyline
 90
       39
 70
   128
 43
0.0
 10
107.6407938588
 20
77.7157978146
 10
106.8779489
 20
77.5890941124
 10
105.1979895492
 20
77.145798837
 10
103.6325502869
 20
76.4947375289
 10
102.20131742
 20
75.6440976619
 10
100.9222895324
 20
74.6045765258
 10
99.8115511418
 20
73.3892467021
 10
98.883070428
 20
72.0133916685
 10
98.1485235746
 20
70.4943136003
 10
97.6171479345
 20
68.8511157855
 10
97.2956258646
 20
67.1044623902
 10
97.1880006917
 20
65.2763185942
 10
97.2956258646
 20
63.3896743665
 10
97.6171479345
 20
61.4682553528
 10
98.1485235746
 20
59.5362245121
 10
98.883070428
 20
57.6178782532
 10
99.8115511418
 20
55.7373408934
 10
100.9222895324
 20
53.9182612811
 10
102.20131742
 20
52.1835153978
 10
103.6325502869
 20
50.5549186796
 10
105.1979895492
 20
49.0529516752
 10
106.8779489
 20
47.696502491
 10
108.6513018757
 20
46.5026292626
 10
110.4957475338
 20
45.4863456385
 10
112.3880908998
 20
44.660431975
 10
114.304534658
 20
44.0352746157
 10
116.2209784163
 20
43.6187352769
 10
118.1133217823
 20
43.4160521826
 10
119.9577674404
 20
43.4297741903
 10
121.7311204161
 20
43.6597287379
 10
123.4110797669
 20
44.1030240133
 10
124.9765190292
 20
44.7540853214
 10
126.407751896
 20
45.6047251884
 10
127.6867797836
 20
46.6442463245
 10
128.7975181742
 20
47.8595761482
 10
129.7259988881
 20
49.2354311818
 10
130.4605457415
 20
50.75450925
 10
130.9919213816
 20
52.3977070647
 10
131.2292530146
 20
53.5480536964
  0
LWPOLYLINE
  5
3F6
330
1F
100
AcDbEntity
  8
0
  6
SLD-Durchgehend
 62
     8
370
     0
100
AcDbPolyline
 90
       52
 70
   128
 43
0.0
 10
114.304534658
 20
74.0002383073
 10
112.6085450763
 20
74.3597899845
 10
110.9382649679
 20
74.5111273238
 10
109.3190140766
 20
74.4519562054
 10
107.7753385953
 20
74.1831736031
 10
106.3306390709
 20
73.7088539873
 10
105.0068156754
 20
73.0361875598
 10
103.8239362221
 20
72.1753712579
 10
102.7999319577
 20
71.1394541794
 10
101.9503257432
 20
69.9441397711
 10
101.2879967426
 20
68.6075477812
 10
100.8229851885
 20
67.1499395816
 10
100.562340182
 20
65.593411027
 10
100.5100128358
 20
63.9615575035
 10
100.666796379
 20
62.2791162472
 10
101.030314133
 20
60.5715913524
 10
101.5950555391
 20
58.8648671562
 10
102.3524596934
 20
57.1848158574
 10
103.2910451208
 20
55.5569053214
 10
104.3965838231
 20
54.0058130123
 10
105.6523169604
 20
52.5550519086
 10
107.0392088985
 20
51.2266140697
 10
108.5362357692
 20
50.0406372591
 10
110.1207041712
 20
49.0150996763
 10
111.7685951786
 20
48.1655474258
 10
113.4549284435
 20
47.5048588537
 10
115.1541408726
 20
47.0430493251
 10
116.8404741375
 20
46.787119402
 10
118.4883651449
 20
46.740948721
 10
120.0728335469
 20
46.9052371825
 10
121.5698604176
 20
47.277494341
 10
122.9567523556
 20
47.8520771574
 10
124.212485493
 20
48.6202755419
 10
125.3180241953
 20
49.57044439
 10
126.2566096227
 20
50.6881801106
 10
127.014013777
 20
51.9565389695
 10
127.5787551831
 20
53.3562939393
 10
127.9422729371
 20
54.8662261614
 10
128.0990564803
 20
56.4634466026
 10
128.0467291341
 20
58.123743029
 10
127.7860841276
 20
59.8219470393
 10
127.3210725735
 20
61.5323155917
 10
126.6587435729
 20
63.2289212424
 10
125.8091373583
 20
64.8860451791
 10
124.785133094
 20
66.4785670922
 10
123.6022536407
 20
67.9823459728
 10
122.2784302452
 20
69.3745860659
 10
120.8337307208
 20
70.6341824309
 10
119.2900552395
 20
71.7420408709
 10
117.6708043482
 20
72.6813673811
 10
116.0005242397
 20
73.4379227292
 10
114.304534658
 20
74.0002383073
  0
LWPOLYLINE
  5
3F7
330
1F
100
AcDbEntity
  8
0
  6
SLD-Durchgehend
 62
     8
370
     0
100
AcDbPolyline
 90
       32
 70
   128
 43
0.0
 10
112.2044054079
 20
63.7176246987
 10
111.1362130537
 20
63.902658902
 10
110.1117526199
 20
63.8695626032
 10
109.1729656372
 20
63.6196907688
 10
108.3582861549
 20
63.1632731809
 10
107.7010672467
 20
62.5189956292
 10
107.228215532
 20
61.7132349125
 10
106.9590896154
 20
60.7789789691
 10
106.9047075437
 20
59.7544763472
 10
107.0672957252
 20
58.6816703044
 10
107.4401977807
 20
57.6044816461
 10
108.0081470563
 20
56.5670106027
 10
108.7478916418
 20
55.6117313605
 10
109.629146307
 20
54.777753164
 10
110.6158323823
 20
54.0992191784
 10
111.667554824
 20
53.603908665
 10
112.7412559917
 20
53.3120996942
 10
113.7929784334
 20
53.2357389598
 10
114.7796645087
 20
53.377952679
 10
115.6609191739
 20
53.7329186055
 10
116.4006637594
 20
54.2861043927
 10
116.968613035
 20
55.0148625493
 10
117.3415150905
 20
55.8893576308
 10
117.504103272
 20
56.8737877058
 10
117.4497212003
 20
57.9278500914
 10
117.1805952837
 20
59.0083913497
 10
116.707743569
 20
60.0711739946
 10
116.0505246608
 20
61.0726875797
 10
115.2358451785
 20
61.9719300212
 10
114.2970581958
 20
62.732086228
 10
113.2725977621
 20
63.3220353154
 10
112.2044054079
 20
63.7176246987
  0
LWPOLYLINE
  5
3F8
330
1F
100
AcDbEntity
  8
0
  6
SLD-Durchgehend
 62
     8
370
     0
100
AcDbPolyline
 90
       12
 70
   128
 43
0.0
 10
114.18692742
 20
73.4244119453
 10
112.5168154449
 20
73.7764756269
 10
110.8730421333
 20
73.9193131198
 10
109.2815307723
 20
73.8506717914
 10
107.7673804467
 20
73.5716341564
 10
106.3544702118
 20
73.0866008051
 10
105.0650825059
 20
72.4032210031
 10
103.9195517435
 20
71.5322720582
 10
102.9359436289
 20
70.4874893555
 10
102.1297702497
 20
69.2853497423
 10
101.5137454417
 20
67.9448116785
 10
101.3062928934
 20
67.3190257982
  0
LWPOLYLINE
  5
3F9
330
1F
100
AcDbEntity
  8
0
  6
SLD-Durchgehend
 62
     8
370
     0
100
AcDbPolyline
 90
       22
 70
   128
 43
0.0
 10
120.7861585877
 20
47.4962762117
 10
122.0193846283
 20
47.9326455057
 10
123.3087723341
 20
48.6160253077
 10
124.4543030966
 20
49.4869742526
 10
125.4379112112
 20
50.5317569553
 10
126.2440845904
 20
51.7338965685
 10
126.8601093984
 20
53.0744346323
 10
127.276270556
 20
54.5322300607
 10
127.4860049532
 20
56.0842925489
 10
127.4860049532
 20
57.7061451444
 10
127.276270556
 20
59.3722102628
 10
126.8601093984
 20
61.056213062
 10
126.2440845904
 20
62.7315958118
 10
125.4379112112
 20
64.3719367255
 10
124.4543030966
 20
65.951366647
 10
123.3087723341
 20
67.4449770228
 10
122.0193846283
 20
68.8292127252
 10
120.6064743933
 20
70.0822435302
 10
119.0923240678
 20
71.1843083935
 10
117.5008127068
 20
72.1180270938
 10
115.8570393952
 20
72.8686743295
 10
114.18692742
 20
73.4244119453
  0
LINE
  5
3FA
330
1F
100
AcDbEntity
  8
0
  6
SLD-Durchgehend
 62
     8
370
     0
100
AcDbLine
 10
140.3179555873
 20
38.1474499483
 30
0.0
 11
152.4520356995
 21
49.9906841252
 31
0.0
  0
LINE
  5
3FB
330
1F
100
AcDbEntity
  8
0
  6
SLD-Durchgehend
 62
     8
370
     0
100
AcDbLine
 10
154.6630810037
 20
47.2468511367
 30
0.0
 11
142.5290008915
 21
35.4036169598
 31
0.0
  0
LINE
  5
3FC
330
1F
100
AcDbEntity
  8
0
  6
SLD-Durchgehend
 62
     8
370
     0
100
AcDbLine
 10
159.5403514146
 20
35.7302443111
 30
0.0
 11
159.5403514146
 21
40.971365632
 31
0.0
  0
LINE
  5
3FD
330
1F
100
AcDbEntity
  8
0
  6
SLD-Durchgehend
 62
     8
370
     0
100
AcDbLine
 10
80.6197323741
 20
52.2292295877
 30
0.0
 11
82.8307776783
 21
54.3872775873
 31
0.0
  0
LINE
  5
3FE
330
1F
100
AcDbEntity
  8
0
  6
SLD-Durchgehend
 62
     8
370
     0
100
AcDbLine
 10
79.9427204636
 20
58.5047150924
 30
0.0
 11
79.9427204636
 21
62.6042961536
 31
0.0
  0
ENDSEC
  0
SECTION
  2
OBJECTS
  0
DICTIONARY
  5
C
330
0
100
AcDbDictionary
281
     1
  3
ACAD_GROUP
350
D
  3
ACAD_LAYOUT
350
1A
  3
ACAD_MLINESTYLE
350
17
  3
ACAD_PLOTSETTINGS
350
19
  3
ACAD_PLOTSTYLENAME
350
E
  3
ACAD_SCALELIST
350
47
  0
DICTIONARY
  5
D
102
{ACAD_REACTORS
330
C
102
}
330
C
100
AcDbDictionary
281
     1
  0
DICTIONARY
  5
1A
102
{ACAD_REACTORS
330
C
102
}
330
C
100
AcDbDictionary
281
     1
  3
Layout1
350
1E
  3
Layout2
350
26
  3
Model
350
22
  0
DICTIONARY
  5
17
102
{ACAD_REACTORS
330
C
102
}
330
C
100
AcDbDictionary
281
     1
  3
Standard
350
18
  0
DICTIONARY
  5
19
102
{ACAD_REACTORS
330
C
102
}
330
C
100
AcDbDictionary
281
     1
  0
ACDBDICTIONARYWDFLT
  5
E
102
{ACAD_REACTORS
330
C
102
}
330
C
100
AcDbDictionary
281
     1
  3
Normal
350
F
100
AcDbDictionaryWithDefault
340
F
  0
DICTIONARY
  5
47
102
{ACAD_REACTORS
330
C
102
}
330
C
100
AcDbDictionary
281
     1
  3
A0
350
48
  3
A1
350
49
  3
A2
350
4A
  3
A3
350
4B
  3
A4
350
4C
  3
A5
350
4D
  3
A6
350
4E
  3
A7
350
4F
  3
A8
350
50
  3
A9
350
51
  3
B0
350
52
  3
B1
350
53
  3
B2
350
54
  3
B3
350
55
  3
B4
350
56
  3
B5
350
57
  3
B6
350
58
  3
B7
350
59
  3
B8
350
5A
  3
B9
350
5B
  3
C0
350
5C
  3
C1
350
5D
  3
C2
350
5E
  3
C3
350
5F
  3
C4
350
60
  3
C5
350
61
  3
C6
350
62
  3
C7
350
63
  3
C8
350
64
  3
C9
350
65
  3
D0
350
66
  3
D1
350
67
  3
D2
350
68
  0
LAYOUT
  5
1E
102
{ACAD_REACTORS
330
1A
102
}
330
1A
100
AcDbPlotSettings
  1

  2
none_device
  4

  6

 40
0.0
 41
0.0
 42
0.0
 43
0.0
 44
0.0
 45
0.0
 46
0.0
 47
0.0
 48
0.0
 49
0.0
140
0.0
141
0.0
142
1.0
143
1.0
 70
   688
 72
     1
 73
     0
 74
     5
  7

 75
    16
147
1.0
148
0.0
149
0.0
100
AcDbLayout
  1
Layout1
 70
     1
 71
     1
 10
0.0
 20
0.0
 11
420.0
 21
297.0
 12
0.0
 22
0.0
 32
0.0
 14
1.0000000000E+20
 24
1.0000000000E+20
 34
1.0000000000E+20
 15
-1.0000000000E+20
 25
-1.0000000000E+20
 35
-1.0000000000E+20
146
0.0
 13
0.0
 23
0.0
 33
0.0
 16
1.0
 26
0.0
 36
0.0
 17
0.0
 27
1.0
 37
0.0
 76
     0
330
1B
  0
LAYOUT
  5
26
102
{ACAD_REACTORS
330
1A
102
}
330
1A
100
AcDbPlotSettings
  1

  2
none_device
  4

  6

 40
0.0
 41
0.0
 42
0.0
 43
0.0
 44
0.0
 45
0.0
 46
0.0
 47
0.0
 48
0.0
 49
0.0
140
0.0
141
0.0
142
1.0
143
1.0
 70
   688
 72
     1
 73
     0
 74
     5
  7

 75
    16
147
1.0
148
0.0
149
0.0
100
AcDbLayout
  1
Layout2
 70
     1
 71
     2
 10
0.0
 20
0.0
 11
0.0
 21
0.0
 12
0.0
 22
0.0
 32
0.0
 14
0.0
 24
0.0
 34
0.0
 15
0.0
 25
0.0
 35
0.0
146
0.0
 13
0.0
 23
0.0
 33
0.0
 16
1.0
 26
0.0
 36
0.0
 17
0.0
 27
1.0
 37
0.0
 76
     0
330
23
  0
LAYOUT
  5
22
102
{ACAD_REACTORS
330
1A
102
}
330
1A
100
AcDbPlotSettings
  1

  2
none_device
  4
Letter_(8.50_x_11.00_Inches)
  6

 40
6.35
 41
6.35
 42
6.35000508
 43
6.35000508
 44
215.9
 45
279.4
 46
0.0
 47
0.0
 48
0.0
 49
0.0
140
0.0
141
0.0
142
1.0
143
1.0
 70
  1712
 72
     1
 73
     0
 74
     0
  7

 75
     0
147
1.0
148
0.0
149
0.0
100
AcDbLayout
  1
Model
 70
     1
 71
     0
 10
0.0
 20
0.0
 11
420.0
 21
297.0
 12
0.0
 22
0.0
 32
0.0
 14
0.0
 24
0.0
 34
0.0
 15
420.0
 25
297.0
 35
0.0
146
0.0
 13
0.0
 23
0.0
 33
0.0
 16
1.0
 26
0.0
 36
0.0
 17
0.0
 27
1.0
 37
0.0
 76
     0
330
1F
331
29
  0
MLINESTYLE
  5
18
102
{ACAD_REACTORS
330
17
102
}
330
17
100
AcDbMlineStyle
  2
Standard
 70
     0
  3

 62
   256
 51
90.0
 52
90.0
 71
     2
 49
0.5
 62
   256
  6
BYLAYER
 49
-0.5
 62
   256
  6
BYLAYER
  0
ACDBPLACEHOLDER
  5
F
102
{ACAD_REACTORS
330
E
102
}
330
E
  0
SCALE
  5
48
102
{ACAD_REACTORS
330
47
102
}
330
47
100
AcDbScale
 70
     0
300
1:1
140
1.0
141
1.0
290
     1
  0
SCALE
  5
49
102
{ACAD_REACTORS
330
47
102
}
330
47
100
AcDbScale
 70
     0
300
1:2
140
1.0
141
2.0
290
     0
  0
SCALE
  5
4A
102
{ACAD_REACTORS
330
47
102
}
330
47
100
AcDbScale
 70
     0
300
1:4
140
1.0
141
4.0
290
     0
  0
SCALE
  5
4B
102
{ACAD_REACTORS
330
47
102
}
330
47
100
AcDbScale
 70
     0
300
1:5
140
1.0
141
5.0
290
     0
  0
SCALE
  5
4C
102
{ACAD_REACTORS
330
47
102
}
330
47
100
AcDbScale
 70
     0
300
1:8
140
1.0
141
8.0
290
     0
  0
SCALE
  5
4D
102
{ACAD_REACTORS
330
47
102
}
330
47
100
AcDbScale
 70
     0
300
1:10
140
1.0
141
10.0
290
     0
  0
SCALE
  5
4E
102
{ACAD_REACTORS
330
47
102
}
330
47
100
AcDbScale
 70
     0
300
1:16
140
1.0
141
16.0
290
     0
  0
SCALE
  5
4F
102
{ACAD_REACTORS
330
47
102
}
330
47
100
AcDbScale
 70
     0
300
1:20
140
1.0
141
20.0
290
     0
  0
SCALE
  5
50
102
{ACAD_REACTORS
330
47
102
}
330
47
100
AcDbScale
 70
     0
300
1:30
140
1.0
141
30.0
290
     0
  0
SCALE
  5
51
102
{ACAD_REACTORS
330
47
102
}
330
47
100
AcDbScale
 70
     0
300
1:40
140
1.0
141
40.0
290
     0
  0
SCALE
  5
52
102
{ACAD_REACTORS
330
47
102
}
330
47
100
AcDbScale
 70
     0
300
1:50
140
1.0
141
50.0
290
     0
  0
SCALE
  5
53
102
{ACAD_REACTORS
330
47
102
}
330
47
100
AcDbScale
 70
     0
300
1:100
140
1.0
141
100.0
290
     0
  0
SCALE
  5
54
102
{ACAD_REACTORS
330
47
102
}
330
47
100
AcDbScale
 70
     0
300
2:1
140
2.0
141
1.0
290
     0
  0
SCALE
  5
55
102
{ACAD_REACTORS
330
47
102
}
330
47
100
AcDbScale
 70
     0
300
4:1
140
4.0
141
1.0
290
     0
  0
SCALE
  5
56
102
{ACAD_REACTORS
330
47
102
}
330
47
100
AcDbScale
 70
     0
300
8:1
140
8.0
141
1.0
290
     0
  0
SCALE
  5
57
102
{ACAD_REACTORS
330
47
102
}
330
47
100
AcDbScale
 70
     0
300
10:1
140
10.0
141
1.0
290
     0
  0
SCALE
  5
58
102
{ACAD_REACTORS
330
47
102
}
330
47
100
AcDbScale
 70
     0
300
100:1
140
100.0
141
1.0
290
     0
  0
SCALE
  5
59
102
{ACAD_REACTORS
330
47
102
}
330
47
100
AcDbScale
 70
     0
300
1/128" = 1'-0"
140
0.0078125
141
12.0
290
     0
  0
SCALE
  5
5A
102
{ACAD_REACTORS
330
47
102
}
330
47
100
AcDbScale
 70
     0
300
1/64" = 1'-0"
140
0.015625
141
12.0
290
     0
  0
SCALE
  5
5B
102
{ACAD_REACTORS
330
47
102
}
330
47
100
AcDbScale
 70
     0
300
1/32" = 1'-0"
140
0.03125
141
12.0
290
     0
  0
SCALE
  5
5C
102
{ACAD_REACTORS
330
47
102
}
330
47
100
AcDbScale
 70
     0
300
1/16" = 1'-0"
140
0.0625
141
12.0
290
     0
  0
SCALE
  5
5D
102
{ACAD_REACTORS
330
47
102
}
330
47
100
AcDbScale
 70
     0
300
3/32" = 1'-0"
140
0.09375
141
12.0
290
     0
  0
SCALE
  5
5E
102
{ACAD_REACTORS
330
47
102
}
330
47
100
AcDbScale
 70
     0
300
1/8" = 1'-0"
140
0.125
141
12.0
290
     0
  0
SCALE
  5
5F
102
{ACAD_REACTORS
330
47
102
}
330
47
100
AcDbScale
 70
     0
300
3/16" = 1'-0"
140
0.1875
141
12.0
290
     0
  0
SCALE
  5
60
102
{ACAD_REACTORS
330
47
102
}
330
47
100
AcDbScale
 70
     0
300
1/4" = 1'-0"
140
0.25
141
12.0
290
     0
  0
SCALE
  5
61
102
{ACAD_REACTORS
330
47
102
}
330
47
100
AcDbScale
 70
     0
300
3/8" = 1'-0"
140
0.375
141
12.0
290
     0
  0
SCALE
  5
62
102
{ACAD_REACTORS
330
47
102
}
330
47
100
AcDbScale
 70
     0
300
1/2" = 1'-0"
140
0.5
141
12.0
290
     0
  0
SCALE
  5
63
102
{ACAD_REACTORS
330
47
102
}
330
47
100
AcDbScale
 70
     0
300
3/4" = 1'-0"
140
0.75
141
12.0
290
     0
  0
SCALE
  5
64
102
{ACAD_REACTORS
330
47
102
}
330
47
100
AcDbScale
 70
     0
300
1" = 1'-0"
140
1.0
141
12.0
290
     0
  0
SCALE
  5
65
102
{ACAD_REACTORS
330
47
102
}
330
47
100
AcDbScale
 70
     0
300
1-1/2" = 1'-0"
140
1.5
141
12.0
290
     0
  0
SCALE
  5
66
102
{ACAD_REACTORS
330
47
102
}
330
47
100
AcDbScale
 70
     0
300
3" = 1'-0"
140
3.0
141
12.0
290
     0
  0
SCALE
  5
67
102
{ACAD_REACTORS
330
47
102
}
330
47
100
AcDbScale
 70
     0
300
6" = 1'-0"
140
6.0
141
12.0
290
     0
  0
SCALE
  5
68
102
{ACAD_REACTORS
330
47
102
}
330
47
100
AcDbScale
 70
     0
300
1'-0" = 1'-0"
140
12.0
141
12.0
290
     0
  0
ENDSEC
  0
EOF
