  0
SECTION
  2
HEADER
  9
$ACADVER
  1
AC1015
  9
$ACADMAINTVER
 70
     6
  9
$DWGCODEPAGE
  3
ANSI_1252
  9
$INSBASE
 10
0.0
 20
0.0
 30
0.0
  9
$EXTMIN
 10
0.0
 20
0.0
 30
0.0
  9
$EXTMAX
 10
297.0
 20
210.0
 30
0.0
  9
$LIMMIN
 10
0.0
 20
0.0
  9
$LIMMAX
 10
297.0
 20
210.0
  9
$ORTHOMODE
 70
     0
  9
$REGENMODE
 70
     1
  9
$FILLMODE
 70
     1
  9
$QTEXTMODE
 70
     0
  9
$MIRRTEXT
 70
     1
  9
$LTSCALE
 40
1.0
  9
$ATTMODE
 70
     1
  9
$TEXTSIZE
 40
3.0
  9
$TRACEWID
 40
1.0
  9
$TEXTSTYLE
  7
STANDARD
  9
$CLAYER
  8
0
  9
$CELTYPE
  6
ByLayer
  9
$CECOLOR
 62
   256
  9
$CELTSCALE
 40
1.0
  9
$DISPSILH
 70
     0
  9
$DIMSCALE
 40
1.0
  9
$DIMASZ
 40
2.5
  9
$DIMEXO
 40
1.0
  9
$DIMDLI
 40
3.75
  9
$DIMRND
 40
0.0
  9
$DIMDLE
 40
0.0
  9
$DIMEXE
 40
1.0
  9
$DIMTP
 40
0.0
  9
$DIMTM
 40
0.0
  9
$DIMTXT
 40
3.0
  9
$DIMCEN
 40
2.5
  9
$DIMTSZ
 40
0.0
  9
$DIMTOL
 70
     0
  9
$DIMLIM
 70
     0
  9
$DIMTIH
 70
     1
  9
$DIMTOH
 70
     1
  9
$DIMSE1
 70
     0
  9
$DIMSE2
 70
     0
  9
$DIMTAD
 70
     1
  9
$DIMZIN
 70
     0
  9
$DIMBLK
  1

  9
$DIMASO
 70
     1
  9
$DIMSHO
 70
     1
  9
$DIMPOST
  1

  9
$DIMAPOST
  1

  9
$DIMALT
 70
     0
  9
$DIMALTD
 70
     3
  9
$DIMALTF
 40
0.0393700787
  9
$DIMLFAC
 40
1.0
  9
$DIMTOFL
 70
     1
  9
$DIMTVP
 40
0.0
  9
$DIMTIX
 70
     0
  9
$DIMSOXD
 70
     0
  9
$DIMSAH
 70
     0
  9
$DIMBLK1
  1

  9
$DIMBLK2
  1

  9
$DIMSTYLE
  2
ISO-25
  9
$DIMCLRD
 70
     0
  9
$DIMCLRE
 70
     0
  9
$DIMCLRT
 70
     0
  9
$DIMTFAC
 40
1.0
  9
$DIMGAP
 40
1.524
  9
$DIMJUST
 70
     0
  9
$DIMSD1
 70
     0
  9
$DIMSD2
 70
     0
  9
$DIMTOLJ
 70
     0
  9
$DIMTZIN
 70
     0
  9
$DIMALTZ
 70
     0
  9
$DIMALTTZ
 70
     0
  9
$DIMUPT
 70
     0
  9
$DIMDEC
 70
     3
  9
$DIMTDEC
 70
     3
  9
$DIMALTU
 70
     2
  9
$DIMALTTD
 70
     3
  9
$DIMTXSTY
  7
STANDARD
  9
$DIMAUNIT
 70
     0
  9
$DIMADEC
 70
     3
  9
$DIMALTRND
 40
0.0
  9
$DIMAZIN
 70
     0
  9
$DIMDSEP
 70
    44
  9
$DIMATFIT
 70
     3
  9
$DIMFRAC
 70
     0
  9
$DIMLDRBLK
  1

  9
$DIMLUNIT
 70
     2
  9
$DIMLWD
 70
    -2
  9
$DIMLWE
 70
    -2
  9
$DIMTMOVE
 70
     0
  9
$LUNITS
 70
     2
  9
$LUPREC
 70
     3
  9
$SKETCHINC
 40
1.0
  9
$FILLETRAD
 40
10.0
  9
$AUNITS
 70
     0
  9
$AUPREC
 70
     3
  9
$MENU
  1
.
  9
$ELEVATION
 40
0.0
  9
$PELEVATION
 40
0.0
  9
$THICKNESS
 40
0.0
  9
$LIMCHECK
 70
     0
  9
$CHAMFERA
 40
0.0
  9
$CHAMFERB
 40
0.0
  9
$CHAMFERC
 40
0.0
  9
$CHAMFERD
 40
0.0
  9
$SKPOLY
 70
     0
  9
$TDCREATE
 40
2459648.58365603
  9
$TDUCREATE
 40
2459648.541989363
  9
$TDUPDATE
 40
2459648.583659803
  9
$TDUUPDATE
 40
2459648.541993137
  9
$TDINDWG
 40
0.0000000116
  9
$TDUSRTIMER
 40
0.0000000116
  9
$USRTIMER
 70
     1
  9
$ANGBASE
 50
0.0
  9
$ANGDIR
 70
     0
  9
$PDMODE
 70
     0
  9
$PDSIZE
 40
-1.0
  9
$PLINEWID
 40
0.0
  9
$SPLFRAME
 70
     0
  9
$SPLINETYPE
 70
     6
  9
$SPLINESEGS
 70
     8
  9
$HANDSEED
  5
408
  9
$SURFTAB1
 70
     6
  9
$SURFTAB2
 70
     6
  9
$SURFTYPE
 70
     6
  9
$SURFU
 70
     6
  9
$SURFV
 70
     6
  9
$UCSBASE
  2

  9
$UCSNAME
  2

  9
$UCSORG
 10
0.0
 20
0.0
 30
0.0
  9
$UCSXDIR
 10
1.0
 20
0.0
 30
0.0
  9
$UCSYDIR
 10
0.0
 20
1.0
 30
0.0
  9
$UCSORTHOREF
  2

  9
$UCSORTHOVIEW
 70
     0
  9
$UCSORGTOP
 10
0.0
 20
0.0
 30
0.0
  9
$UCSORGBOTTOM
 10
0.0
 20
0.0
 30
0.0
  9
$UCSORGLEFT
 10
0.0
 20
0.0
 30
0.0
  9
$UCSORGRIGHT
 10
0.0
 20
0.0
 30
0.0
  9
$UCSORGFRONT
 10
0.0
 20
0.0
 30
0.0
  9
$UCSORGBACK
 10
0.0
 20
0.0
 30
0.0
  9
$PUCSBASE
  2

  9
$PUCSNAME
  2

  9
$PUCSORG
 10
0.0
 20
0.0
 30
0.0
  9
$PUCSXDIR
 10
1.0
 20
0.0
 30
0.0
  9
$PUCSYDIR
 10
0.0
 20
1.0
 30
0.0
  9
$PUCSORTHOREF
  2

  9
$PUCSORTHOVIEW
 70
     0
  9
$PUCSORGTOP
 10
0.0
 20
0.0
 30
0.0
  9
$PUCSORGBOTTOM
 10
0.0
 20
0.0
 30
0.0
  9
$PUCSORGLEFT
 10
0.0
 20
0.0
 30
0.0
  9
$PUCSORGRIGHT
 10
0.0
 20
0.0
 30
0.0
  9
$PUCSORGFRONT
 10
0.0
 20
0.0
 30
0.0
  9
$PUCSORGBACK
 10
0.0
 20
0.0
 30
0.0
  9
$USERI1
 70
     0
  9
$USERI2
 70
     0
  9
$USERI3
 70
     0
  9
$USERI4
 70
     0
  9
$USERI5
 70
     0
  9
$USERR1
 40
0.0
  9
$USERR2
 40
0.0
  9
$USERR3
 40
0.0
  9
$USERR4
 40
0.0
  9
$USERR5
 40
0.0
  9
$WORLDVIEW
 70
     1
  9
$SHADEDGE
 70
     3
  9
$SHADEDIF
 70
    70
  9
$TILEMODE
 70
     1
  9
$MAXACTVP
 70
    64
  9
$PINSBASE
 10
0.0
 20
0.0
 30
0.0
  9
$PLIMCHECK
 70
     0
  9
$PEXTMIN
 10
1.0000000000E+20
 20
1.0000000000E+20
 30
1.0000000000E+20
  9
$PEXTMAX
 10
-1.0000000000E+20
 20
-1.0000000000E+20
 30
-1.0000000000E+20
  9
$PLIMMIN
 10
0.0
 20
0.0
  9
$PLIMMAX
 10
420.0
 20
297.0
  9
$UNITMODE
 70
     0
  9
$VISRETAIN
 70
     1
  9
$PLINEGEN
 70
     0
  9
$PSLTSCALE
 70
     1
  9
$TREEDEPTH
 70
  3020
  9
$CMLSTYLE
  2
Standard
  9
$CMLJUST
 70
     0
  9
$CMLSCALE
 40
20.0
  9
$PROXYGRAPHICS
 70
     1
  9
$MEASUREMENT
 70
     1
  9
$CELWEIGHT
370
    -1
  9
$ENDCAPS
280
     0
  9
$JOINSTYLE
280
     0
  9
$LWDISPLAY
290
     1
  9
$INSUNITS
 70
     4
  9
$HYPERLINKBASE
  1

  9
$STYLESHEET
  1

  9
$XEDIT
290
     1
  9
$CEPSNTYPE
380
     0
  9
$PSTYLEMODE
290
     1
  9
$FINGERPRINTGUID
  2
{38620C47-03EA-4D38-BE37-057E8E9A37D4}
  9
$VERSIONGUID
  2
{FAEB1C32-E019-11D5-929B-00C0DF256EC4}
  9
$EXTNAMES
290
     1
  9
$PSVPSCALE
 40
0.0
  9
$OLESTARTUP
290
     0
  0
ENDSEC
  0
SECTION
  2
CLASSES
  0
CLASS
  1
ACDBDICTIONARYWDFLT
  2
AcDbDictionaryWithDefault
  3
ObjectDBX Classes
 90
        0
280
     0
281
     0
  0
CLASS
  1
VISUALSTYLE
  2
AcDbVisualStyle
  3
ObjectDBX Classes
 90
     4095
280
     0
281
     0
  0
CLASS
  1
MATERIAL
  2
AcDbMaterial
  3
ObjectDBX Classes
 90
     1153
280
     0
281
     0
  0
CLASS
  1
SCALE
  2
AcDbScale
  3
ObjectDBX Classes
 90
     1153
280
     0
281
     0
  0
CLASS
  1
TABLESTYLE
  2
AcDbTableStyle
  3
ObjectDBX Classes
 90
     4095
280
     0
281
     0
  0
CLASS
  1
MLEADERSTYLE
  2
AcDbMLeaderStyle
  3
ACDB_MLEADERSTYLE_CLASS
 90
     4095
280
     0
281
     0
  0
CLASS
  1
SUN
  2
AcDbSun
  3
SCENEOE
 90
     1153
280
     0
281
     0
  0
CLASS
  1
ACDBPLACEHOLDER
  2
AcDbPlaceHolder
  3
ObjectDBX Classes
 90
        0
280
     0
281
     0
  0
CLASS
  1
LAYOUT
  2
AcDbLayout
  3
ObjectDBX Classes
 90
        0
280
     0
281
     0
  0
ENDSEC
  0
SECTION
  2
TABLES
  0
TABLE
  2
VPORT
  5
8
330
0
100
AcDbSymbolTable
 70
     1
  0
VPORT
  5
29
330
8
100
AcDbSymbolTableRecord
100
AcDbViewportTableRecord
  2
*Active
 70
     0
 10
0.0
 20
0.0
 11
1.0
 21
1.0
 12
148.5
 22
105.0
 13
0.0
 23
0.0
 14
10.0
 24
10.0
 15
10.0
 25
10.0
 16
0.0
 26
0.0
 36
1.0
 17
0.0
 27
0.0
 37
0.0
 40
210.0
 41
1.4142857143
 42
50.0
 43
0.0
 44
0.0
 50
0.0
 51
0.0
 71
     0
 72
  2000
 73
     1
 74
     3
 75
     0
 76
     0
 77
     0
 78
     0
281
     0
 65
     1
110
0.0
120
0.0
130
0.0
111
1.0
121
0.0
131
0.0
112
0.0
122
1.0
132
0.0
 79
     0
146
0.0
  0
ENDTAB
  0
TABLE
  2
LTYPE
  5
5
330
0
100
AcDbSymbolTable
 70
     8
  0
LTYPE
  5
14
330
5
100
AcDbSymbolTableRecord
100
AcDbLinetypeTableRecord
  2
ByBlock
 70
     0
  3

 72
    65
 73
     0
 40
0.0
  0
LTYPE
  5
15
330
5
100
AcDbSymbolTableRecord
100
AcDbLinetypeTableRecord
  2
ByLayer
 70
     0
  3

 72
    65
 73
     0
 40
0.0
  0
LTYPE
  5
16
330
5
100
AcDbSymbolTableRecord
100
AcDbLinetypeTableRecord
  2
Continuous
 70
     0
  3
Solid line
 72
    65
 73
     0
 40
0.0
  0
LTYPE
  5
6E
330
5
100
AcDbSymbolTableRecord
100
AcDbLinetypeTableRecord
  2
SLD-Durchgehend
 70
     0
  3
SolidWorks Line Style
 72
    65
 73
     0
 40
0.0
  0
LTYPE
  5
6F
330
5
100
AcDbSymbolTableRecord
100
AcDbLinetypeTableRecord
  2
SLD-Gestrichelt
 70
     0
  3
SolidWorks Line Style
 72
    65
 73
     2
 40
1.905
 49
1.27
 74
     0
 49
-0.635
 74
     0
  0
LTYPE
  5
70
330
5
100
AcDbSymbolTableRecord
100
AcDbLinetypeTableRecord
  2
SLD-Phantom
 70
     0
  3
SolidWorks Line Style
 72
    65
 73
     6
 40
12.7
 49
6.35
 74
     0
 49
-1.27
 74
     0
 49
1.27
 74
     0
 49
-1.27
 74
     0
 49
1.27
 74
     0
 49
-1.27
 74
     0
  0
LTYPE
  5
71
330
5
100
AcDbSymbolTableRecord
100
AcDbLinetypeTableRecord
  2
SLD-Kette
 70
     0
  3
SolidWorks Line Style
 72
    65
 73
     4
 40
10.16
 49
6.35
 74
     0
 49
-1.27
 74
     0
 49
1.27
 74
     0
 49
-1.27
 74
     0
  0
LTYPE
  5
72
330
5
100
AcDbSymbolTableRecord
100
AcDbLinetypeTableRecord
  2
SLD-Punktstrich
 70
     0
  3
SolidWorks Line Style
 72
    65
 73
     4
 40
19.05
 49
15.24
 74
     0
 49
-1.27
 74
     0
 49
1.27
 74
     0
 49
-1.27
 74
     0
  0
LTYPE
  5
73
330
5
100
AcDbSymbolTableRecord
100
AcDbLinetypeTableRecord
  2
SLD-Naht
 70
     0
  3
SolidWorks Line Style
 72
    65
 73
     2
 40
0.635
 49
0.0
 74
     0
 49
-0.635
 74
     0
  0
LTYPE
  5
74
330
5
100
AcDbSymbolTableRecord
100
AcDbLinetypeTableRecord
  2
SLD-Dicke-Dünne-Kette
 70
     0
  3
SolidWorks Line Style
 72
    65
 73
     4
 40
10.16
 49
6.35
 74
     0
 49
-1.27
 74
     0
 49
1.27
 74
     0
 49
-1.27
 74
     0
  0
ENDTAB
  0
TABLE
  2
LAYER
  5
2
330
0
100
AcDbSymbolTable
 70
     1
  0
LAYER
  5
10
330
2
100
AcDbSymbolTableRecord
100
AcDbLayerTableRecord
  2
0
 70
     0
 62
     7
  6
Continuous
370
    -3
390
F
  0
ENDTAB
  0
TABLE
  2
STYLE
  5
3
330
0
100
AcDbSymbolTable
 70
     5
  0
STYLE
  5
11
330
3
100
AcDbSymbolTableRecord
100
AcDbTextStyleTableRecord
  2
STANDARD
 70
     0
 40
0.0
 41
1.0
 50
0.0
 71
     0
 42
3.0
  3
ARIAL.TTF
  4

1001
ACAD
1000
ARIAL
1071
       34
  0
STYLE
  5
7B
330
3
100
AcDbSymbolTableRecord
100
AcDbTextStyleTableRecord
  2
SLDTEXTSTYLE0
 70
     0
 40
0.0
 41
0.948
 50
0.0
 71
     0
 42
3.0
  3
ARIAL.TTF
  4

1001
ACAD
1000
Arial
1071
      290
  0
STYLE
  5
10B
330
3
100
AcDbSymbolTableRecord
100
AcDbTextStyleTableRecord
  2
SLDTEXTSTYLE1
 70
     0
 40
0.0
 41
1.0
 50
0.0
 71
     0
 42
3.0
  3
HLHI___.TTF
  4

1001
ACAD
1000
Helvetica 65 Medium
1071
 50331938
  0
STYLE
  5
10D
330
3
100
AcDbSymbolTableRecord
100
AcDbTextStyleTableRecord
  2
SLDTEXTSTYLE2
 70
     0
 40
0.0
 41
1.0
 50
0.0
 71
     0
 42
3.0
  3
HLR____.TTF
  4

1001
ACAD
1000
Helvetica 55 Roman
1071
 16777506
  0
STYLE
  5
11B
330
3
100
AcDbSymbolTableRecord
100
AcDbTextStyleTableRecord
  2
SLDTEXTSTYLE3
 70
     0
 40
0.0
 41
0.948
 50
0.0
 71
     0
 42
3.0
  3
ARIALBD.TTF
  4

1001
ACAD
1000
Arial
1071
 33554722
  0
ENDTAB
  0
TABLE
  2
VIEW
  5
6
330
0
100
AcDbSymbolTable
 70
     0
  0
ENDTAB
  0
TABLE
  2
UCS
  5
7
330
0
100
AcDbSymbolTable
 70
     0
  0
ENDTAB
  0
TABLE
  2
APPID
  5
9
330
0
100
AcDbSymbolTable
 70
     1
  0
APPID
  5
12
330
9
100
AcDbSymbolTableRecord
100
AcDbRegAppTableRecord
  2
ACAD
 70
     0
  0
ENDTAB
  0
TABLE
  2
DIMSTYLE
  5
A
330
0
100
AcDbSymbolTable
 70
     4
100
AcDbDimStyleTable
  0
DIMSTYLE
105
27
330
A
100
AcDbSymbolTableRecord
100
AcDbDimStyleTableRecord
  2
ISO-25
 70
     0
 41
2.5
 42
0.625
 43
3.75
 44
1.25
 73
     0
 74
     0
 77
     1
 78
     8
140
2.5
141
2.5
143
0.0393700787
147
0.625
171
     3
172
     1
178
     0
271
     2
272
     2
274
     3
278
    44
283
     0
284
     8
340
11
  0
DIMSTYLE
105
80
330
A
100
AcDbSymbolTableRecord
100
AcDbDimStyleTableRecord
  2
SLDDIMSTYLE0
 70
     0
 41
2.5
 44
0.0
 45
0.000000001
146
2.5
147
0.0
173
     1
178
     0
271
     0
272
     0
276
     2
340
11
  0
DIMSTYLE
105
1A6
102
{ACAD_REACTORS
330
1A5
330
1B3
330
1E8
330
1F5
330
202
330
20D
330
250
330
3A6
102
}
330
A
100
AcDbSymbolTableRecord
100
AcDbDimStyleTableRecord
  2
SLDDIMSTYLE1
 70
     0
 41
2.5
 44
0.0
 45
0.000000001
 73
     0
 74
     0
 77
     1
 78
    12
 79
     3
140
3.0
147
0.75
172
     1
173
     1
178
     0
271
     3
272
     3
276
     2
284
    12
289
     0
340
7B
  0
DIMSTYLE
105
1C0
102
{ACAD_REACTORS
330
1BF
330
1CA
330
1D4
330
1DE
330
246
330
25D
330
267
330
338
330
343
330
34D
330
39C
330
3B3
330
3BE
102
}
330
A
100
AcDbSymbolTableRecord
100
AcDbDimStyleTableRecord
  2
SLDDIMSTYLE2
 70
     0
 41
2.5
 44
0.0
 45
0.000000001
 73
     0
 74
     0
 77
     1
 78
    12
 79
     3
140
3.0
147
0.75
173
     1
178
     0
271
     3
272
     3
276
     2
284
    12
340
7B
  0
ENDTAB
  0
TABLE
  2
BLOCK_RECORD
  5
1
330
0
100
AcDbSymbolTable
 70
    45
  0
BLOCK_RECORD
  5
1F
330
1
100
AcDbSymbolTableRecord
100
AcDbBlockTableRecord
  2
*Model_Space
340
22
  0
BLOCK_RECORD
  5
1B
330
1
100
AcDbSymbolTableRecord
100
AcDbBlockTableRecord
  2
*Paper_Space
340
1E
  0
BLOCK_RECORD
  5
23
330
1
100
AcDbSymbolTableRecord
100
AcDbBlockTableRecord
  2
*Paper_Space0
340
26
  0
BLOCK_RECORD
  5
75
330
1
100
AcDbSymbolTableRecord
100
AcDbBlockTableRecord
  2
Kolben schwingt-Text
340
0
102
{BLKREFS
331
101
102
}
  0
BLOCK_RECORD
  5
78
330
1
100
AcDbSymbolTableRecord
100
AcDbBlockTableRecord
  2
SW_NOTE_0
340
0
102
{BLKREFS
331
7F
102
}
  0
BLOCK_RECORD
  5
82
330
1
100
AcDbSymbolTableRecord
100
AcDbBlockTableRecord
  2
Pfeil
340
0
102
{BLKREFS
331
102
331
103
102
}
  0
BLOCK_RECORD
  5
8C
330
1
100
AcDbSymbolTableRecord
100
AcDbBlockTableRecord
  2
Änderungsindex a
340
0
  0
BLOCK_RECORD
  5
8F
330
1
100
AcDbSymbolTableRecord
100
AcDbBlockTableRecord
  2
SW_NOTE_1
340
0
102
{BLKREFS
331
94
102
}
  0
BLOCK_RECORD
  5
95
330
1
100
AcDbSymbolTableRecord
100
AcDbBlockTableRecord
  2
Schlauchtülle nicht im Lieferumfang erhalten
340
0
  0
BLOCK_RECORD
  5
98
330
1
100
AcDbSymbolTableRecord
100
AcDbBlockTableRecord
  2
SW_NOTE_2
340
0
102
{BLKREFS
331
A0
102
}
  0
BLOCK_RECORD
  5
A1
330
1
100
AcDbSymbolTableRecord
100
AcDbBlockTableRecord
  2
Zuluft Text
340
0
102
{BLKREFS
331
FF
102
}
  0
BLOCK_RECORD
  5
A4
330
1
100
AcDbSymbolTableRecord
100
AcDbBlockTableRecord
  2
SW_NOTE_3
340
0
102
{BLKREFS
331
AA
102
}
  0
BLOCK_RECORD
  5
AB
330
1
100
AcDbSymbolTableRecord
100
AcDbBlockTableRecord
  2
Block1
340
0
102
{BLKREFS
331
19F
102
}
  0
BLOCK_RECORD
  5
AE
330
1
100
AcDbSymbolTableRecord
100
AcDbBlockTableRecord
  2
SW_NOTE_4
340
0
102
{BLKREFS
331
B4
102
}
  0
BLOCK_RECORD
  5
107
330
1
100
AcDbSymbolTableRecord
100
AcDbBlockTableRecord
  2
SW_NOTE_5
340
0
102
{BLKREFS
331
110
102
}
  0
BLOCK_RECORD
  5
112
330
1
100
AcDbSymbolTableRecord
100
AcDbBlockTableRecord
  2
SW_NOTE_6
340
0
102
{BLKREFS
331
117
102
}
  0
BLOCK_RECORD
  5
1A7
330
1
100
AcDbSymbolTableRecord
100
AcDbBlockTableRecord
  2
_D
340
0
  0
BLOCK_RECORD
  5
1B4
330
1
100
AcDbSymbolTableRecord
100
AcDbBlockTableRecord
  2
_D_1
340
0
  0
BLOCK_RECORD
  5
1C1
330
1
100
AcDbSymbolTableRecord
100
AcDbBlockTableRecord
  2
_D_2
340
0
  0
BLOCK_RECORD
  5
1CB
330
1
100
AcDbSymbolTableRecord
100
AcDbBlockTableRecord
  2
_D_3
340
0
  0
BLOCK_RECORD
  5
1D5
330
1
100
AcDbSymbolTableRecord
100
AcDbBlockTableRecord
  2
_D_4
340
0
  0
BLOCK_RECORD
  5
1DF
330
1
100
AcDbSymbolTableRecord
100
AcDbBlockTableRecord
  2
_D_5
340
0
  0
BLOCK_RECORD
  5
1E9
330
1
100
AcDbSymbolTableRecord
100
AcDbBlockTableRecord
  2
_D_6
340
0
  0
BLOCK_RECORD
  5
1F6
330
1
100
AcDbSymbolTableRecord
100
AcDbBlockTableRecord
  2
_D_7
340
0
  0
BLOCK_RECORD
  5
203
330
1
100
AcDbSymbolTableRecord
100
AcDbBlockTableRecord
  2
_D_8
340
0
  0
BLOCK_RECORD
  5
20E
330
1
100
AcDbSymbolTableRecord
100
AcDbBlockTableRecord
  2
_D_9
340
0
  0
BLOCK_RECORD
  5
247
330
1
100
AcDbSymbolTableRecord
100
AcDbBlockTableRecord
  2
_D_10
340
0
  0
BLOCK_RECORD
  5
251
330
1
100
AcDbSymbolTableRecord
100
AcDbBlockTableRecord
  2
_D_11
340
0
  0
BLOCK_RECORD
  5
25E
330
1
100
AcDbSymbolTableRecord
100
AcDbBlockTableRecord
  2
_D_12
340
0
  0
BLOCK_RECORD
  5
268
330
1
100
AcDbSymbolTableRecord
100
AcDbBlockTableRecord
  2
_D_13
340
0
  0
BLOCK_RECORD
  5
271
330
1
100
AcDbSymbolTableRecord
100
AcDbBlockTableRecord
  2
SW_CENTERMARKSYMBOL_0
340
0
102
{BLKREFS
331
27C
102
}
  0
BLOCK_RECORD
  5
27D
330
1
100
AcDbSymbolTableRecord
100
AcDbBlockTableRecord
  2
SW_CENTERMARKSYMBOL_1
340
0
102
{BLKREFS
331
288
102
}
  0
BLOCK_RECORD
  5
2CB
330
1
100
AcDbSymbolTableRecord
100
AcDbBlockTableRecord
  2
SW_CENTERMARKSYMBOL_2
340
0
102
{BLKREFS
331
2D6
102
}
  0
BLOCK_RECORD
  5
2D7
330
1
100
AcDbSymbolTableRecord
100
AcDbBlockTableRecord
  2
SW_CENTERMARKSYMBOL_3
340
0
102
{BLKREFS
331
2E2
102
}
  0
BLOCK_RECORD
  5
2E3
330
1
100
AcDbSymbolTableRecord
100
AcDbBlockTableRecord
  2
SW_CENTERMARKSYMBOL_4
340
0
102
{BLKREFS
331
2EE
102
}
  0
BLOCK_RECORD
  5
2EF
330
1
100
AcDbSymbolTableRecord
100
AcDbBlockTableRecord
  2
SW_CENTERMARKSYMBOL_5
340
0
102
{BLKREFS
331
2FA
102
}
  0
BLOCK_RECORD
  5
2FB
330
1
100
AcDbSymbolTableRecord
100
AcDbBlockTableRecord
  2
SW_CENTERMARKSYMBOL_6
340
0
102
{BLKREFS
331
306
102
}
  0
BLOCK_RECORD
  5
307
330
1
100
AcDbSymbolTableRecord
100
AcDbBlockTableRecord
  2
SW_CENTERMARKSYMBOL_7
340
0
102
{BLKREFS
331
312
102
}
  0
BLOCK_RECORD
  5
339
330
1
100
AcDbSymbolTableRecord
100
AcDbBlockTableRecord
  2
_D_14
340
0
  0
BLOCK_RECORD
  5
344
330
1
100
AcDbSymbolTableRecord
100
AcDbBlockTableRecord
  2
_D_15
340
0
  0
BLOCK_RECORD
  5
34E
330
1
100
AcDbSymbolTableRecord
100
AcDbBlockTableRecord
  2
_D_16
340
0
  0
BLOCK_RECORD
  5
357
330
1
100
AcDbSymbolTableRecord
100
AcDbBlockTableRecord
  2
SW_CENTERMARKSYMBOL_8
340
0
102
{BLKREFS
331
362
102
}
  0
BLOCK_RECORD
  5
38E
330
1
100
AcDbSymbolTableRecord
100
AcDbBlockTableRecord
  2
SW_HATCH_0
340
0
102
{BLKREFS
331
39B
102
}
  0
BLOCK_RECORD
  5
39D
330
1
100
AcDbSymbolTableRecord
100
AcDbBlockTableRecord
  2
_D_17
340
0
  0
BLOCK_RECORD
  5
3A7
330
1
100
AcDbSymbolTableRecord
100
AcDbBlockTableRecord
  2
_D_18
340
0
  0
BLOCK_RECORD
  5
3B4
330
1
100
AcDbSymbolTableRecord
100
AcDbBlockTableRecord
  2
_D_19
340
0
  0
BLOCK_RECORD
  5
3BF
330
1
100
AcDbSymbolTableRecord
100
AcDbBlockTableRecord
  2
_D_20
340
0
  0
ENDTAB
  0
ENDSEC
  0
SECTION
  2
BLOCKS
  0
BLOCK
  5
20
330
1F
100
AcDbEntity
  8
0
100
AcDbBlockBegin
  2
*Model_Space
 70
     0
 10
0.0
 20
0.0
 30
0.0
  3
*Model_Space
  1

  0
ENDBLK
  5
21
330
1F
100
AcDbEntity
  8
0
100
AcDbBlockEnd
  0
BLOCK
  5
1C
330
1B
100
AcDbEntity
 67
     1
  8
0
100
AcDbBlockBegin
  2
*Paper_Space
 70
     0
 10
0.0
 20
0.0
 30
0.0
  3
*Paper_Space
  1

  0
ENDBLK
  5
1D
330
1B
100
AcDbEntity
 67
     1
  8
0
100
AcDbBlockEnd
  0
BLOCK
  5
24
330
23
100
AcDbEntity
  8
0
100
AcDbBlockBegin
  2
*Paper_Space0
 70
     0
 10
0.0
 20
0.0
 30
0.0
  3
*Paper_Space0
  1

  0
ENDBLK
  5
25
330
23
100
AcDbEntity
  8
0
100
AcDbBlockEnd
  0
BLOCK
  5
76
330
75
100
AcDbEntity
  8
0
100
AcDbBlockBegin
  2
Kolben schwingt-Text
 70
     0
 10
0.0
 20
0.0
 30
0.0
  3
Kolben schwingt-Text
  1

  0
INSERT
  5
7F
330
75
100
AcDbEntity
  8
0
  6
Continuous
 62
     7
370
     0
100
AcDbBlockReference
  2
SW_NOTE_0
 10
19.7974422276
 20
-55.4589626186
 30
0.0
  0
LEADER
  5
81
330
75
100
AcDbEntity
  8
0
  6
Continuous
 62
     7
370
     0
100
AcDbLeader
  3
SLDDIMSTYLE0
 76
     2
 10
36.5895601996
 20
-27.9983544304
 30
0.0
 10
19.7974422276
 20
-55.4589626186
 30
0.0
  0
ENDBLK
  5
77
330
75
100
AcDbEntity
  8
0
100
AcDbBlockEnd
  0
BLOCK
  5
79
330
78
100
AcDbEntity
  8
0
100
AcDbBlockBegin
  2
SW_NOTE_0
 70
     0
 10
0.0
 20
0.0
 30
0.0
  3
SW_NOTE_0
  1

  0
MTEXT
  5
7C
330
78
100
AcDbEntity
  8
0
  6
Continuous
 62
     0
370
     0
100
AcDbMText
 10
-30.5155696411
 20
13.429452361
 30
0.0
 40
3.0
 41
0.0
 71
     1
 72
     1
  1
Kolben schwingt
  7
SLDTEXTSTYLE0
 73
     1
 44
1.0
  0
MTEXT
  5
7D
330
78
100
AcDbEntity
  8
0
  6
Continuous
 62
     0
370
     0
100
AcDbMText
 10
-30.5155696411
 20
9.429452171
 30
0.0
 40
3.0
 41
0.0
 71
     1
 72
     1
  1
Piston oscillates
  7
SLDTEXTSTYLE0
 73
     1
 44
1.0
  0
MTEXT
  5
7E
330
78
100
AcDbEntity
  8
0
  6
Continuous
 62
     0
370
     0
100
AcDbMText
 10
-30.5155696411
 20
5.429451981
 30
0.0
 40
3.0
 41
0.0
 71
     1
 72
     1
  1
Piston oscillant 
  7
SLDTEXTSTYLE0
 73
     1
 44
1.0
  0
ENDBLK
  5
7A
330
78
100
AcDbEntity
  8
0
100
AcDbBlockEnd
  0
BLOCK
  5
83
330
82
100
AcDbEntity
  8
0
100
AcDbBlockBegin
  2
Pfeil
 70
     0
 10
0.0
 20
0.0
 30
0.0
  3
Pfeil
  1

  0
LINE
  5
85
330
82
100
AcDbEntity
  8
0
  6
SLD-Durchgehend
 62
     7
370
     0
100
AcDbLine
 10
10.77
 20
0.8
 30
0.0
 11
2.77
 21
0.8
 31
0.0
  0
LINE
  5
86
330
82
100
AcDbEntity
  8
0
  6
SLD-Durchgehend
 62
     7
370
     0
100
AcDbLine
 10
2.77
 20
0.8
 30
0.0
 11
2.77
 21
1.6
 31
0.0
  0
LINE
  5
87
330
82
100
AcDbEntity
  8
0
  6
SLD-Durchgehend
 62
     7
370
     0
100
AcDbLine
 10
2.77
 20
1.6
 30
0.0
 11
0.0
 21
0.0
 31
0.0
  0
LINE
  5
88
330
82
100
AcDbEntity
  8
0
  6
SLD-Durchgehend
 62
     7
370
     0
100
AcDbLine
 10
0.0
 20
0.0
 30
0.0
 11
2.77
 21
-1.6
 31
0.0
  0
LINE
  5
89
330
82
100
AcDbEntity
  8
0
  6
SLD-Durchgehend
 62
     7
370
     0
100
AcDbLine
 10
2.77
 20
-1.6
 30
0.0
 11
2.77
 21
-0.8
 31
0.0
  0
LINE
  5
8A
330
82
100
AcDbEntity
  8
0
  6
SLD-Durchgehend
 62
     7
370
     0
100
AcDbLine
 10
2.77
 20
-0.8
 30
0.0
 11
10.77
 21
-0.8
 31
0.0
  0
LINE
  5
8B
330
82
100
AcDbEntity
  8
0
  6
SLD-Durchgehend
 62
     7
370
     0
100
AcDbLine
 10
10.77
 20
-0.8
 30
0.0
 11
10.77
 21
0.8
 31
0.0
  0
ENDBLK
  5
84
330
82
100
AcDbEntity
  8
0
100
AcDbBlockEnd
  0
BLOCK
  5
8D
330
8C
100
AcDbEntity
  8
0
100
AcDbBlockBegin
  2
Änderungsindex a
 70
     0
 10
0.0
 20
0.0
 30
0.0
  3
Änderungsindex a
  1

  0
INSERT
  5
94
330
8C
100
AcDbEntity
  8
0
  6
Continuous
 62
     7
370
     0
100
AcDbBlockReference
  2
SW_NOTE_1
 10
-2.6785442717
 20
-4.2179726306
 30
0.0
  0
ENDBLK
  5
8E
330
8C
100
AcDbEntity
  8
0
100
AcDbBlockEnd
  0
BLOCK
  5
90
330
8F
100
AcDbEntity
  8
0
100
AcDbBlockBegin
  2
SW_NOTE_1
 70
     0
 10
0.0
 20
0.0
 30
0.0
  3
SW_NOTE_1
  1

  0
CIRCLE
  5
92
330
8F
100
AcDbEntity
  8
0
  6
SLD-Durchgehend
 62
     0
370
     0
100
AcDbCircle
 10
2.2908550312
 20
4.4429249629
 30
0.0
 40
4.609649655104781
  0
MTEXT
  5
93
330
8F
100
AcDbEntity
  8
0
  6
Continuous
 62
     0
370
     0
100
AcDbMText
 10
0.0
 20
7.7344064386
 30
0.0
 40
6.0
 41
0.0
 71
     1
 72
     1
  1
a
  7
SLDTEXTSTYLE0
 73
     1
 44
1.0
  0
ENDBLK
  5
91
330
8F
100
AcDbEntity
  8
0
100
AcDbBlockEnd
  0
BLOCK
  5
96
330
95
100
AcDbEntity
  8
0
100
AcDbBlockBegin
  2
Schlauchtülle nicht im Lieferumfang erhalten
 70
     0
 10
0.0
 20
0.0
 30
0.0
  3
Schlauchtülle nicht im Lieferumfang erhalten
  1

  0
INSERT
  5
A0
330
95
100
AcDbEntity
  8
0
  6
Continuous
 62
     7
370
     0
100
AcDbBlockReference
  2
SW_NOTE_2
 10
0.0
 20
17.8353534674
 30
0.0
  0
ENDBLK
  5
97
330
95
100
AcDbEntity
  8
0
100
AcDbBlockEnd
  0
BLOCK
  5
99
330
98
100
AcDbEntity
  8
0
100
AcDbBlockBegin
  2
SW_NOTE_2
 70
     0
 10
0.0
 20
0.0
 30
0.0
  3
SW_NOTE_2
  1

  0
MTEXT
  5
9B
330
98
100
AcDbEntity
  8
0
  6
Continuous
 62
     0
370
     0
100
AcDbMText
 10
0.0
 20
3.4106583948
 30
0.0
 40
2.6458333333
 41
0.0
 71
     1
 72
     1
  1
Schlauchtülle
  7
SLDTEXTSTYLE0
 73
     1
 44
1.0
  0
MTEXT
  5
9C
330
98
100
AcDbEntity
  8
0
  6
Continuous
 62
     0
370
     0
100
AcDbMText
 10
22.0486111939
 20
3.4106583948
 30
0.0
 40
2.6458333333
 41
0.0
 71
     1
 72
     1
  1
nicht im Lieferumfang enthalten.
  7
SLDTEXTSTYLE0
 73
     1
 44
1.0
  0
MTEXT
  5
9D
330
98
100
AcDbEntity
  8
0
  6
Continuous
 62
     0
370
     0
100
AcDbMText
 10
0.0
 20
-1.1171195042
 30
0.0
 40
2.6458333333
 41
0.0
 71
     1
 72
     1
  1
Hose nozzle not included in scope of delivery.
  7
SLDTEXTSTYLE0
 73
     1
 44
1.0
  0
MTEXT
  5
9E
330
98
100
AcDbEntity
  8
0
  6
Continuous
 62
     0
370
     0
100
AcDbMText
 10
0.0
 20
-5.6448974033
 30
0.0
 40
2.6458333333
 41
0.0
 71
     1
 72
     1
  1
Raccord cannelé non compris(e) dans le volume de 
  7
SLDTEXTSTYLE0
 73
     1
 44
1.0
  0
MTEXT
  5
9F
330
98
100
AcDbEntity
  8
0
  6
Continuous
 62
     0
370
     0
100
AcDbMText
 10
0.0
 20
-10.1726753024
 30
0.0
 40
2.6458333333
 41
0.0
 71
     1
 72
     1
  1
livraison.
  7
SLDTEXTSTYLE0
 73
     1
 44
1.0
  0
ENDBLK
  5
9A
330
98
100
AcDbEntity
  8
0
100
AcDbBlockEnd
  0
BLOCK
  5
A2
330
A1
100
AcDbEntity
  8
0
100
AcDbBlockBegin
  2
Zuluft Text
 70
     0
 10
0.0
 20
0.0
 30
0.0
  3
Zuluft Text
  1

  0
INSERT
  5
AA
330
A1
100
AcDbEntity
  8
0
  6
Continuous
 62
     7
370
     0
100
AcDbBlockReference
  2
SW_NOTE_3
 10
0.0
 20
7.7508379819
 30
0.0
  0
ENDBLK
  5
A3
330
A1
100
AcDbEntity
  8
0
100
AcDbBlockEnd
  0
BLOCK
  5
A5
330
A4
100
AcDbEntity
  8
0
100
AcDbBlockBegin
  2
SW_NOTE_3
 70
     0
 10
0.0
 20
0.0
 30
0.0
  3
SW_NOTE_3
  1

  0
MTEXT
  5
A7
330
A4
100
AcDbEntity
  8
0
  6
Continuous
 62
     0
370
     0
100
AcDbMText
 10
0.0
 20
3.8672032193
 30
0.0
 40
3.0
 41
0.0
 71
     1
 72
     1
  1
Zuluft
  7
SLDTEXTSTYLE0
 73
     1
 44
1.0
  0
MTEXT
  5
A8
330
A4
100
AcDbEntity
  8
0
  6
Continuous
 62
     0
370
     0
100
AcDbMText
 10
0.0
 20
-0.1327969707
 30
0.0
 40
3.0
 41
0.0
 71
     1
 72
     1
  1
Air Supply 
  7
SLDTEXTSTYLE0
 73
     1
 44
1.0
  0
MTEXT
  5
A9
330
A4
100
AcDbEntity
  8
0
  6
Continuous
 62
     0
370
     0
100
AcDbMText
 10
0.0
 20
-4.1327971607
 30
0.0
 40
3.0
 41
0.0
 71
     1
 72
     1
  1
Arrivée d´air
  7
SLDTEXTSTYLE0
 73
     1
 44
1.0
  0
ENDBLK
  5
A6
330
A4
100
AcDbEntity
  8
0
100
AcDbBlockEnd
  0
BLOCK
  5
AC
330
AB
100
AcDbEntity
  8
0
100
AcDbBlockBegin
  2
Block1
 70
     0
 10
0.0
 20
0.0
 30
0.0
  3
Block1
  1

  0
INSERT
  5
B4
330
AB
100
AcDbEntity
  8
0
  6
Continuous
 62
     7
370
     0
100
AcDbBlockReference
  2
SW_NOTE_4
 10
-0.1263546365
 20
7.8633537647
 30
0.0
  0
ENDBLK
  5
AD
330
AB
100
AcDbEntity
  8
0
100
AcDbBlockEnd
  0
BLOCK
  5
AF
330
AE
100
AcDbEntity
  8
0
100
AcDbBlockBegin
  2
SW_NOTE_4
 70
     0
 10
0.0
 20
0.0
 30
0.0
  3
SW_NOTE_4
  1

  0
MTEXT
  5
B1
330
AE
100
AcDbEntity
  8
0
  6
Continuous
 62
     0
370
     0
100
AcDbMText
 10
0.0
 20
3.8672032193
 30
0.0
 40
3.0
 41
0.0
 71
     1
 72
     1
  1
Abluft
  7
SLDTEXTSTYLE0
 73
     1
 44
1.0
  0
MTEXT
  5
B2
330
AE
100
AcDbEntity
  8
0
  6
Continuous
 62
     0
370
     0
100
AcDbMText
 10
0.0
 20
-0.1327969707
 30
0.0
 40
3.0
 41
0.0
 71
     1
 72
     1
  1
Air exhaust
  7
SLDTEXTSTYLE0
 73
     1
 44
1.0
  0
MTEXT
  5
B3
330
AE
100
AcDbEntity
  8
0
  6
Continuous
 62
     0
370
     0
100
AcDbMText
 10
0.0
 20
-4.1327971607
 30
0.0
 40
3.0
 41
0.0
 71
     1
 72
     1
  1
Echappement
  7
SLDTEXTSTYLE0
 73
     1
 44
1.0
  0
ENDBLK
  5
B0
330
AE
100
AcDbEntity
  8
0
100
AcDbBlockEnd
  0
BLOCK
  5
108
330
107
100
AcDbEntity
  8
0
100
AcDbBlockBegin
  2
SW_NOTE_5
 70
     0
 10
0.0
 20
0.0
 30
0.0
  3
SW_NOTE_5
  1

  0
MTEXT
  5
10A
330
107
100
AcDbEntity
  8
0
  6
Continuous
 62
     0
370
     0
100
AcDbMText
 10
0.0
 20
2.3874608764
 30
0.0
 40
1.8520833333
 41
0.0
 71
     1
 72
     1
  1
Tel.: +49 6134 2901-0, www.
  7
SLDTEXTSTYLE0
 73
     1
 44
1.0
  0
MTEXT
  5
10C
330
107
100
AcDbEntity
  8
0
  6
Continuous
 62
     0
370
     0
100
AcDbMText
 10
31.6226072609
 20
2.2325681125
 30
0.0
 40
1.8520833333
 41
0.0
 71
     1
 72
     1
  1
Netter
  7
SLDTEXTSTYLE1
 73
     1
 44
1.0
  0
MTEXT
  5
10E
330
107
100
AcDbEntity
  8
0
  6
Continuous
 62
     0
370
     0
100
AcDbMText
 10
39.4425168633
 20
2.3157006648
 30
0.0
 40
1.8520833333
 41
0.0
 71
     1
 72
     1
  1
Vibration
  7
SLDTEXTSTYLE2
 73
     1
 44
1.0
  0
MTEXT
  5
10F
330
107
100
AcDbEntity
  8
0
  6
Continuous
 62
     0
370
     0
100
AcDbMText
 10
49.1865314543
 20
2.3874608764
 30
0.0
 40
1.8520833333
 41
0.0
 71
     1
 72
     1
  1
.com
  7
SLDTEXTSTYLE0
 73
     1
 44
1.0
  0
ENDBLK
  5
109
330
107
100
AcDbEntity
  8
0
100
AcDbBlockEnd
  0
BLOCK
  5
113
330
112
100
AcDbEntity
  8
0
100
AcDbBlockBegin
  2
SW_NOTE_6
 70
     0
 10
0.0
 20
0.0
 30
0.0
  3
SW_NOTE_6
  1

  0
MTEXT
  5
115
330
112
100
AcDbEntity
  8
0
  6
Continuous
 62
     0
370
     0
100
AcDbMText
 10
0.0
 20
4.8649193548
 30
0.0
 40
3.96875
 41
0.0
 71
     1
 72
     1
  1
Netter
  7
SLDTEXTSTYLE1
 73
     1
 44
1.0
  0
MTEXT
  5
116
330
112
100
AcDbEntity
  8
0
  6
Continuous
 62
     0
370
     0
100
AcDbMText
 10
16.7569443583
 20
5.0430605384
 30
0.0
 40
3.96875
 41
0.0
 71
     1
 72
     1
  1
Vibration
  7
SLDTEXTSTYLE2
 73
     1
 44
1.0
  0
ENDBLK
  5
114
330
112
100
AcDbEntity
  8
0
100
AcDbBlockEnd
  0
BLOCK
  5
1A8
330
1A7
100
AcDbEntity
  8
0
100
AcDbBlockBegin
  2
_D
 70
     0
 10
0.0
 20
0.0
 30
0.0
  3
_D
  1

  0
SOLID
  5
1AA
330
1A7
100
AcDbEntity
  8
0
  6
SLD-Durchgehend
 62
     7
370
     0
100
AcDbTrace
 10
149.0001097016
 20
61.6945215146
 30
0.0
 11
146.5001097016
 21
62.1345215146
 31
0.0
 12
146.5001097016
 22
61.2545215146
 32
0.0
 13
146.5001097016
 23
61.2545215146
 33
0.0
  0
SOLID
  5
1AB
330
1A7
100
AcDbEntity
  8
0
  6
SLD-Durchgehend
 62
     7
370
     0
100
AcDbTrace
 10
154.0001097016
 20
61.6945215146
 30
0.0
 11
156.5001097016
 21
61.2545215146
 31
0.0
 12
156.5001097016
 22
62.1345215146
 32
0.0
 13
156.5001097016
 23
62.1345215146
 33
0.0
  0
LINE
  5
1AC
330
1A7
100
AcDbEntity
  8
0
  6
SLD-Durchgehend
 62
     7
370
     0
100
AcDbLine
 10
149.0001097016
 20
67.3575038995
 30
0.0
 11
149.0001097016
 21
60.6945215146
 31
0.0
  0
LINE
  5
1AD
330
1A7
100
AcDbEntity
  8
0
  6
SLD-Durchgehend
 62
     7
370
     0
100
AcDbLine
 10
154.0001097016
 20
67.3575038995
 30
0.0
 11
154.0001097016
 21
60.6945215146
 31
0.0
  0
LINE
  5
1AE
330
1A7
100
AcDbEntity
  8
0
  6
SLD-Durchgehend
 62
     7
370
     0
100
AcDbLine
 10
149.0001097016
 20
61.6945215146
 30
0.0
 11
145.5001097016
 21
61.6945215146
 31
0.0
  0
LINE
  5
1AF
330
1A7
100
AcDbEntity
  8
0
  6
SLD-Durchgehend
 62
     7
370
     0
100
AcDbLine
 10
149.0001097016
 20
61.6945215146
 30
0.0
 11
154.0001097016
 21
61.6945215146
 31
0.0
  0
LINE
  5
1B0
330
1A7
100
AcDbEntity
  8
0
  6
SLD-Durchgehend
 62
     7
370
     0
100
AcDbLine
 10
154.0001097016
 20
61.6945215146
 30
0.0
 11
162.8911230082
 21
61.6945215146
 31
0.0
  0
MTEXT
  5
1B1
330
1A7
100
AcDbEntity
  8
0
  6
SLD-Durchgehend
 62
     7
370
     0
100
AcDbMText
 10
157.1661229545
 20
65.5617249667
 30
0.0
 40
3.0
 41
0.0
 71
     1
 72
     1
  1
M
  7
SLDTEXTSTYLE0
 73
     1
 44
1.0
  0
MTEXT
  5
1B2
330
1A7
100
AcDbEntity
  8
0
  6
SLD-Durchgehend
 62
     7
370
     0
100
AcDbMText
 10
160.5994561987
 20
65.5617249667
 30
0.0
 40
3.0
 41
0.0
 71
     1
 72
     1
  1
5
  7
SLDTEXTSTYLE0
 73
     1
 44
1.0
  0
ENDBLK
  5
1A9
330
1A7
100
AcDbEntity
  8
0
100
AcDbBlockEnd
  0
BLOCK
  5
1B5
330
1B4
100
AcDbEntity
  8
0
100
AcDbBlockBegin
  2
_D_1
 70
     0
 10
0.0
 20
0.0
 30
0.0
  3
_D_1
  1

  0
SOLID
  5
1B7
330
1B4
100
AcDbEntity
  8
0
  6
SLD-Durchgehend
 62
     7
370
     0
100
AcDbTrace
 10
140.3652265807
 20
68.3575038995
 30
0.0
 11
139.9252265807
 21
65.8575038995
 31
0.0
 12
140.8052265807
 22
65.8575038995
 32
0.0
 13
140.8052265807
 23
65.8575038995
 33
0.0
  0
SOLID
  5
1B8
330
1B4
100
AcDbEntity
  8
0
  6
SLD-Durchgehend
 62
     7
370
     0
100
AcDbTrace
 10
140.3652265807
 20
74.8575038995
 30
0.0
 11
140.8052265807
 21
77.3575038995
 31
0.0
 12
139.9252265807
 22
77.3575038995
 32
0.0
 13
139.9252265807
 23
77.3575038995
 33
0.0
  0
LINE
  5
1B9
330
1B4
100
AcDbEntity
  8
0
  6
SLD-Durchgehend
 62
     7
370
     0
100
AcDbLine
 10
148.0001097016
 20
68.3575038995
 30
0.0
 11
139.3652265807
 21
68.3575038995
 31
0.0
  0
LINE
  5
1BA
330
1B4
100
AcDbEntity
  8
0
  6
SLD-Durchgehend
 62
     7
370
     0
100
AcDbLine
 10
148.0001097016
 20
74.8575038995
 30
0.0
 11
139.3652265807
 21
74.8575038995
 31
0.0
  0
LINE
  5
1BB
330
1B4
100
AcDbEntity
  8
0
  6
SLD-Durchgehend
 62
     7
370
     0
100
AcDbLine
 10
140.3652265807
 20
68.3575038995
 30
0.0
 11
140.3652265807
 21
64.8575038995
 31
0.0
  0
LINE
  5
1BC
330
1B4
100
AcDbEntity
  8
0
  6
SLD-Durchgehend
 62
     7
370
     0
100
AcDbLine
 10
140.3652265807
 20
68.3575038995
 30
0.0
 11
140.3652265807
 21
74.8575038995
 31
0.0
  0
LINE
  5
1BD
330
1B4
100
AcDbEntity
  8
0
  6
SLD-Durchgehend
 62
     7
370
     0
100
AcDbLine
 10
140.3652265807
 20
74.8575038995
 30
0.0
 11
140.3652265807
 21
78.3575038995
 31
0.0
  0
MTEXT
  5
1BE
330
1B4
100
AcDbEntity
  8
0
  6
SLD-Durchgehend
 62
     7
370
     0
100
AcDbMText
 10
136.4980231285
 20
68.7429205041
 30
0.0
 40
3.0
 41
0.0
 71
     1
 72
     1
  1
6,5
  7
SLDTEXTSTYLE0
 11
-3.491481338843133E-15
 21
1.0
 31
0.0
 73
     1
 44
1.0
  0
ENDBLK
  5
1B6
330
1B4
100
AcDbEntity
  8
0
100
AcDbBlockEnd
  0
BLOCK
  5
1C2
330
1C1
100
AcDbEntity
  8
0
100
AcDbBlockBegin
  2
_D_2
 70
     0
 10
0.0
 20
0.0
 30
0.0
  3
_D_2
  1

  0
SOLID
  5
1C4
330
1C1
100
AcDbEntity
  8
0
  6
SLD-Durchgehend
 62
     7
370
     0
100
AcDbTrace
 10
131.5001097016
 20
133.2019002498
 30
0.0
 11
134.0001097016
 21
132.7619002498
 31
0.0
 12
134.0001097016
 22
133.6419002498
 32
0.0
 13
134.0001097016
 23
133.6419002498
 33
0.0
  0
SOLID
  5
1C5
330
1C1
100
AcDbEntity
  8
0
  6
SLD-Durchgehend
 62
     7
370
     0
100
AcDbTrace
 10
211.5001097016
 20
133.2019002498
 30
0.0
 11
209.0001097016
 21
133.6419002498
 31
0.0
 12
209.0001097016
 22
132.7619002498
 32
0.0
 13
209.0001097016
 23
132.7619002498
 33
0.0
  0
LINE
  5
1C6
330
1C1
100
AcDbEntity
  8
0
  6
SLD-Durchgehend
 62
     7
370
     0
100
AcDbLine
 10
131.5001097016
 20
102.3575038995
 30
0.0
 11
131.5001097016
 21
134.2019002498
 31
0.0
  0
LINE
  5
1C7
330
1C1
100
AcDbEntity
  8
0
  6
SLD-Durchgehend
 62
     7
370
     0
100
AcDbLine
 10
211.5001097016
 20
99.0598590364
 30
0.0
 11
211.5001097016
 21
134.2019002498
 31
0.0
  0
LINE
  5
1C8
330
1C1
100
AcDbEntity
  8
0
  6
SLD-Durchgehend
 62
     7
370
     0
100
AcDbLine
 10
131.5001097016
 20
133.2019002498
 30
0.0
 11
211.5001097016
 21
133.2019002498
 31
0.0
  0
MTEXT
  5
1C9
330
1C1
100
AcDbEntity
  8
0
  6
SLD-Durchgehend
 62
     7
370
     0
100
AcDbMText
 10
169.208443125
 20
137.0691037019
 30
0.0
 40
3.0
 41
0.0
 71
     1
 72
     1
  1
80
  7
SLDTEXTSTYLE0
 73
     1
 44
1.0
  0
ENDBLK
  5
1C3
330
1C1
100
AcDbEntity
  8
0
100
AcDbBlockEnd
  0
BLOCK
  5
1CC
330
1CB
100
AcDbEntity
  8
0
100
AcDbBlockBegin
  2
_D_3
 70
     0
 10
0.0
 20
0.0
 30
0.0
  3
_D_3
  1

  0
SOLID
  5
1CE
330
1CB
100
AcDbEntity
  8
0
  6
SLD-Durchgehend
 62
     7
370
     0
100
AcDbTrace
 10
121.0001097016
 20
61.6945215146
 30
0.0
 11
123.5001097016
 21
61.2545215146
 31
0.0
 12
123.5001097016
 22
62.1345215146
 32
0.0
 13
123.5001097016
 23
62.1345215146
 33
0.0
  0
SOLID
  5
1CF
330
1CB
100
AcDbEntity
  8
0
  6
SLD-Durchgehend
 62
     7
370
     0
100
AcDbTrace
 10
131.5001097016
 20
61.6945215146
 30
0.0
 11
129.0001097016
 21
62.1345215146
 31
0.0
 12
129.0001097016
 22
61.2545215146
 32
0.0
 13
129.0001097016
 23
61.2545215146
 33
0.0
  0
LINE
  5
1D0
330
1CB
100
AcDbEntity
  8
0
  6
SLD-Durchgehend
 62
     7
370
     0
100
AcDbLine
 10
121.0001097016
 20
75.8575038995
 30
0.0
 11
121.0001097016
 21
60.6945215146
 31
0.0
  0
LINE
  5
1D1
330
1CB
100
AcDbEntity
  8
0
  6
SLD-Durchgehend
 62
     7
370
     0
100
AcDbLine
 10
131.5001097016
 20
67.3575038995
 30
0.0
 11
131.5001097016
 21
60.6945215146
 31
0.0
  0
LINE
  5
1D2
330
1CB
100
AcDbEntity
  8
0
  6
SLD-Durchgehend
 62
     7
370
     0
100
AcDbLine
 10
121.0001097016
 20
61.6945215146
 30
0.0
 11
131.5001097016
 21
61.6945215146
 31
0.0
  0
MTEXT
  5
1D3
330
1CB
100
AcDbEntity
  8
0
  6
SLD-Durchgehend
 62
     7
370
     0
100
AcDbMText
 10
122.2396931343
 20
65.5617249667
 30
0.0
 40
3.0
 41
0.0
 71
     1
 72
     1
  1
10,5
  7
SLDTEXTSTYLE0
 73
     1
 44
1.0
  0
ENDBLK
  5
1CD
330
1CB
100
AcDbEntity
  8
0
100
AcDbBlockEnd
  0
BLOCK
  5
1D6
330
1D5
100
AcDbEntity
  8
0
100
AcDbBlockBegin
  2
_D_4
 70
     0
 10
0.0
 20
0.0
 30
0.0
  3
_D_4
  1

  0
SOLID
  5
1D8
330
1D5
100
AcDbEntity
  8
0
  6
SLD-Durchgehend
 62
     7
370
     0
100
AcDbTrace
 10
139.5001097016
 20
112.2019002498
 30
0.0
 11
137.0001097016
 21
112.6419002498
 31
0.0
 12
137.0001097016
 22
111.7619002498
 32
0.0
 13
137.0001097016
 23
111.7619002498
 33
0.0
  0
SOLID
  5
1D9
330
1D5
100
AcDbEntity
  8
0
  6
SLD-Durchgehend
 62
     7
370
     0
100
AcDbTrace
 10
131.5001097016
 20
112.2019002498
 30
0.0
 11
134.0001097016
 21
111.7619002498
 31
0.0
 12
134.0001097016
 22
112.6419002498
 32
0.0
 13
134.0001097016
 23
112.6419002498
 33
0.0
  0
LINE
  5
1DA
330
1D5
100
AcDbEntity
  8
0
  6
SLD-Durchgehend
 62
     7
370
     0
100
AcDbLine
 10
139.5001097016
 20
104.3575038995
 30
0.0
 11
139.5001097016
 21
113.2019002498
 31
0.0
  0
LINE
  5
1DB
330
1D5
100
AcDbEntity
  8
0
  6
SLD-Durchgehend
 62
     7
370
     0
100
AcDbLine
 10
131.5001097016
 20
102.3575038995
 30
0.0
 11
131.5001097016
 21
113.2019002498
 31
0.0
  0
LINE
  5
1DC
330
1D5
100
AcDbEntity
  8
0
  6
SLD-Durchgehend
 62
     7
370
     0
100
AcDbLine
 10
139.5001097016
 20
112.2019002498
 30
0.0
 11
131.5001097016
 21
112.2019002498
 31
0.0
  0
MTEXT
  5
1DD
330
1D5
100
AcDbEntity
  8
0
  6
SLD-Durchgehend
 62
     7
370
     0
100
AcDbMText
 10
134.3542764133
 20
116.0691037019
 30
0.0
 40
3.0
 41
0.0
 71
     1
 72
     1
  1
8
  7
SLDTEXTSTYLE0
 73
     1
 44
1.0
  0
ENDBLK
  5
1D7
330
1D5
100
AcDbEntity
  8
0
100
AcDbBlockEnd
  0
BLOCK
  5
1E0
330
1DF
100
AcDbEntity
  8
0
100
AcDbBlockBegin
  2
_D_5
 70
     0
 10
0.0
 20
0.0
 30
0.0
  3
_D_5
  1

  0
SOLID
  5
1E2
330
1DF
100
AcDbEntity
  8
0
  6
SLD-Durchgehend
 62
     7
370
     0
100
AcDbTrace
 10
131.5001097016
 20
123.5042129008
 30
0.0
 11
134.0001097016
 21
123.0642129008
 31
0.0
 12
134.0001097016
 22
123.9442129008
 32
0.0
 13
134.0001097016
 23
123.9442129008
 33
0.0
  0
SOLID
  5
1E3
330
1DF
100
AcDbEntity
  8
0
  6
SLD-Durchgehend
 62
     7
370
     0
100
AcDbTrace
 10
168.5001097016
 20
123.5042129008
 30
0.0
 11
166.0001097016
 21
123.9442129008
 31
0.0
 12
166.0001097016
 22
123.0642129008
 32
0.0
 13
166.0001097016
 23
123.0642129008
 33
0.0
  0
LINE
  5
1E4
330
1DF
100
AcDbEntity
  8
0
  6
SLD-Durchgehend
 62
     7
370
     0
100
AcDbLine
 10
131.5001097016
 20
102.3575038995
 30
0.0
 11
131.5001097016
 21
124.5042129008
 31
0.0
  0
LINE
  5
1E5
330
1DF
100
AcDbEntity
  8
0
  6
SLD-Durchgehend
 62
     7
370
     0
100
AcDbLine
 10
168.5001097016
 20
104.3575038995
 30
0.0
 11
168.5001097016
 21
124.5042129008
 31
0.0
  0
LINE
  5
1E6
330
1DF
100
AcDbEntity
  8
0
  6
SLD-Durchgehend
 62
     7
370
     0
100
AcDbLine
 10
131.5001097016
 20
123.5042129008
 30
0.0
 11
168.5001097016
 21
123.5042129008
 31
0.0
  0
MTEXT
  5
1E7
330
1DF
100
AcDbEntity
  8
0
  6
SLD-Durchgehend
 62
     7
370
     0
100
AcDbMText
 10
147.708443125
 20
127.3714163529
 30
0.0
 40
3.0
 41
0.0
 71
     1
 72
     1
  1
37
  7
SLDTEXTSTYLE0
 73
     1
 44
1.0
  0
ENDBLK
  5
1E1
330
1DF
100
AcDbEntity
  8
0
100
AcDbBlockEnd
  0
BLOCK
  5
1EA
330
1E9
100
AcDbEntity
  8
0
100
AcDbBlockBegin
  2
_D_6
 70
     0
 10
0.0
 20
0.0
 30
0.0
  3
_D_6
  1

  0
SOLID
  5
1EC
330
1E9
100
AcDbEntity
  8
0
  6
SLD-Durchgehend
 62
     7
370
     0
100
AcDbTrace
 10
166.0001097016
 20
106.6156250622
 30
0.0
 11
163.5001097016
 21
107.0556250622
 31
0.0
 12
163.5001097016
 22
106.1756250622
 32
0.0
 13
163.5001097016
 23
106.1756250622
 33
0.0
  0
SOLID
  5
1ED
330
1E9
100
AcDbEntity
  8
0
  6
SLD-Durchgehend
 62
     7
370
     0
100
AcDbTrace
 10
171.0001097016
 20
106.6156250622
 30
0.0
 11
173.5001097016
 21
106.1756250622
 31
0.0
 12
173.5001097016
 22
107.0556250622
 32
0.0
 13
173.5001097016
 23
107.0556250622
 33
0.0
  0
LINE
  5
1EE
330
1E9
100
AcDbEntity
  8
0
  6
SLD-Durchgehend
 62
     7
370
     0
100
AcDbLine
 10
166.0001097016
 20
102.3575038995
 30
0.0
 11
166.0001097016
 21
107.6156250622
 31
0.0
  0
LINE
  5
1EF
330
1E9
100
AcDbEntity
  8
0
  6
SLD-Durchgehend
 62
     7
370
     0
100
AcDbLine
 10
171.0001097016
 20
102.3575038995
 30
0.0
 11
171.0001097016
 21
107.6156250622
 31
0.0
  0
LINE
  5
1F0
330
1E9
100
AcDbEntity
  8
0
  6
SLD-Durchgehend
 62
     7
370
     0
100
AcDbLine
 10
166.0001097016
 20
106.6156250622
 30
0.0
 11
159.384788373
 21
106.6156250622
 31
0.0
  0
LINE
  5
1F1
330
1E9
100
AcDbEntity
  8
0
  6
SLD-Durchgehend
 62
     7
370
     0
100
AcDbLine
 10
166.0001097016
 20
106.6156250622
 30
0.0
 11
171.0001097016
 21
106.6156250622
 31
0.0
  0
LINE
  5
1F2
330
1E9
100
AcDbEntity
  8
0
  6
SLD-Durchgehend
 62
     7
370
     0
100
AcDbLine
 10
171.0001097016
 20
106.6156250622
 30
0.0
 11
174.5001097016
 21
106.6156250622
 31
0.0
  0
MTEXT
  5
1F3
330
1E9
100
AcDbEntity
  8
0
  6
SLD-Durchgehend
 62
     7
370
     0
100
AcDbMText
 10
159.384788373
 20
110.4828285143
 30
0.0
 40
3.0
 41
0.0
 71
     1
 72
     1
  1
M
  7
SLDTEXTSTYLE0
 73
     1
 44
1.0
  0
MTEXT
  5
1F4
330
1E9
100
AcDbEntity
  8
0
  6
SLD-Durchgehend
 62
     7
370
     0
100
AcDbMText
 10
162.8181216172
 20
110.4828285143
 30
0.0
 40
3.0
 41
0.0
 71
     1
 72
     1
  1
5
  7
SLDTEXTSTYLE0
 73
     1
 44
1.0
  0
ENDBLK
  5
1EB
330
1E9
100
AcDbEntity
  8
0
100
AcDbBlockEnd
  0
BLOCK
  5
1F7
330
1F6
100
AcDbEntity
  8
0
100
AcDbBlockBegin
  2
_D_7
 70
     0
 10
0.0
 20
0.0
 30
0.0
  3
_D_7
  1

  0
SOLID
  5
1F9
330
1F6
100
AcDbEntity
  8
0
  6
SLD-Durchgehend
 62
     7
370
     0
100
AcDbTrace
 10
137.0001097016
 20
106.6156250622
 30
0.0
 11
134.5001097016
 21
107.0556250622
 31
0.0
 12
134.5001097016
 22
106.1756250622
 32
0.0
 13
134.5001097016
 23
106.1756250622
 33
0.0
  0
SOLID
  5
1FA
330
1F6
100
AcDbEntity
  8
0
  6
SLD-Durchgehend
 62
     7
370
     0
100
AcDbTrace
 10
142.0001097016
 20
106.6156250622
 30
0.0
 11
144.5001097016
 21
106.1756250622
 31
0.0
 12
144.5001097016
 22
107.0556250622
 32
0.0
 13
144.5001097016
 23
107.0556250622
 33
0.0
  0
LINE
  5
1FB
330
1F6
100
AcDbEntity
  8
0
  6
SLD-Durchgehend
 62
     7
370
     0
100
AcDbLine
 10
137.0001097016
 20
102.3575038995
 30
0.0
 11
137.0001097016
 21
107.6156250622
 31
0.0
  0
LINE
  5
1FC
330
1F6
100
AcDbEntity
  8
0
  6
SLD-Durchgehend
 62
     7
370
     0
100
AcDbLine
 10
142.0001097016
 20
102.3575038995
 30
0.0
 11
142.0001097016
 21
107.6156250622
 31
0.0
  0
LINE
  5
1FD
330
1F6
100
AcDbEntity
  8
0
  6
SLD-Durchgehend
 62
     7
370
     0
100
AcDbLine
 10
137.0001097016
 20
106.6156250622
 30
0.0
 11
133.5001097016
 21
106.6156250622
 31
0.0
  0
LINE
  5
1FE
330
1F6
100
AcDbEntity
  8
0
  6
SLD-Durchgehend
 62
     7
370
     0
100
AcDbLine
 10
137.0001097016
 20
106.6156250622
 30
0.0
 11
142.0001097016
 21
106.6156250622
 31
0.0
  0
LINE
  5
1FF
330
1F6
100
AcDbEntity
  8
0
  6
SLD-Durchgehend
 62
     7
370
     0
100
AcDbLine
 10
142.0001097016
 20
106.6156250622
 30
0.0
 11
149.1639999308
 21
106.6156250622
 31
0.0
  0
MTEXT
  5
200
330
1F6
100
AcDbEntity
  8
0
  6
SLD-Durchgehend
 62
     7
370
     0
100
AcDbMText
 10
143.4389998772
 20
110.4828285143
 30
0.0
 40
3.0
 41
0.0
 71
     1
 72
     1
  1
M
  7
SLDTEXTSTYLE0
 73
     1
 44
1.0
  0
MTEXT
  5
201
330
1F6
100
AcDbEntity
  8
0
  6
SLD-Durchgehend
 62
     7
370
     0
100
AcDbMText
 10
146.8723331213
 20
110.4828285143
 30
0.0
 40
3.0
 41
0.0
 71
     1
 72
     1
  1
5
  7
SLDTEXTSTYLE0
 73
     1
 44
1.0
  0
ENDBLK
  5
1F8
330
1F6
100
AcDbEntity
  8
0
100
AcDbBlockEnd
  0
BLOCK
  5
204
330
203
100
AcDbEntity
  8
0
100
AcDbBlockBegin
  2
_D_8
 70
     0
 10
0.0
 20
0.0
 30
0.0
  3
_D_8
  1

  0
SOLID
  5
206
330
203
100
AcDbEntity
  8
0
  6
SLD-Durchgehend
 62
     7
370
     0
100
AcDbTrace
 10
162.2472883998
 20
101.3575038995
 30
0.0
 11
162.6872883998
 21
103.8575038995
 31
0.0
 12
161.8072883998
 22
103.8575038995
 32
0.0
 13
161.8072883998
 23
103.8575038995
 33
0.0
  0
SOLID
  5
207
330
203
100
AcDbEntity
  8
0
  6
SLD-Durchgehend
 62
     7
370
     0
100
AcDbTrace
 10
162.2472883998
 20
97.3575038995
 30
0.0
 11
161.8072883998
 21
94.8575038995
 31
0.0
 12
162.6872883998
 22
94.8575038995
 32
0.0
 13
162.6872883998
 23
94.8575038995
 33
0.0
  0
LINE
  5
208
330
203
100
AcDbEntity
  8
0
  6
SLD-Durchgehend
 62
     7
370
     0
100
AcDbLine
 10
164.5001097016
 20
97.3575038995
 30
0.0
 11
161.2472883998
 21
97.3575038995
 31
0.0
  0
LINE
  5
209
330
203
100
AcDbEntity
  8
0
  6
SLD-Durchgehend
 62
     7
370
     0
100
AcDbLine
 10
162.2472883998
 20
101.3575038995
 30
0.0
 11
162.2472883998
 21
104.8575038995
 31
0.0
  0
LINE
  5
20A
330
203
100
AcDbEntity
  8
0
  6
SLD-Durchgehend
 62
     7
370
     0
100
AcDbLine
 10
162.2472883998
 20
101.3575038995
 30
0.0
 11
162.2472883998
 21
97.3575038995
 31
0.0
  0
LINE
  5
20B
330
203
100
AcDbEntity
  8
0
  6
SLD-Durchgehend
 62
     7
370
     0
100
AcDbLine
 10
162.2472883998
 20
97.3575038995
 30
0.0
 11
162.2472883998
 21
93.8575038995
 31
0.0
  0
MTEXT
  5
20C
330
203
100
AcDbEntity
  8
0
  6
SLD-Durchgehend
 62
     7
370
     0
100
AcDbMText
 10
158.3800849477
 20
98.2116706112
 30
0.0
 40
3.0
 41
0.0
 71
     1
 72
     1
  1
4
  7
SLDTEXTSTYLE0
 11
-1.148508711614426E-14
 21
1.0
 31
0.0
 73
     1
 44
1.0
  0
ENDBLK
  5
205
330
203
100
AcDbEntity
  8
0
100
AcDbBlockEnd
  0
BLOCK
  5
20F
330
20E
100
AcDbEntity
  8
0
100
AcDbBlockBegin
  2
_D_9
 70
     0
 10
0.0
 20
0.0
 30
0.0
  3
_D_9
  1

  0
SOLID
  5
211
330
20E
100
AcDbEntity
  8
0
  6
SLD-Durchgehend
 62
     7
370
     0
100
AcDbTrace
 10
150.0001097016
 20
95.8575039189
 30
0.0
 11
149.5601097016
 21
93.3575039189
 31
0.0
 12
150.4401097016
 22
93.3575039189
 32
0.0
 13
150.4401097016
 23
93.3575039189
 33
0.0
  0
SOLID
  5
212
330
20E
100
AcDbEntity
  8
0
  6
SLD-Durchgehend
 62
     7
370
     0
100
AcDbTrace
 10
150.0001097016
 20
101.3575038995
 30
0.0
 11
150.4401097016
 21
103.8575038995
 31
0.0
 12
149.5601097016
 22
103.8575038995
 32
0.0
 13
149.5601097016
 23
103.8575038995
 33
0.0
  0
LINE
  5
213
330
20E
100
AcDbEntity
  8
0
  6
SLD-Durchgehend
 62
     7
370
     0
100
AcDbLine
 10
146.500109847
 20
95.8575039189
 30
0.0
 11
151.0001097016
 21
95.8575039189
 31
0.0
  0
LINE
  5
214
330
20E
100
AcDbEntity
  8
0
  6
SLD-Durchgehend
 62
     7
370
     0
100
AcDbLine
 10
142.6001097016
 20
101.3575038995
 30
0.0
 11
151.0001097016
 21
101.3575038995
 31
0.0
  0
LINE
  5
215
330
20E
100
AcDbEntity
  8
0
  6
SLD-Durchgehend
 62
     7
370
     0
100
AcDbLine
 10
150.0001097016
 20
95.8575039189
 30
0.0
 11
150.0001097016
 21
92.3575039189
 31
0.0
  0
LINE
  5
216
330
20E
100
AcDbEntity
  8
0
  6
SLD-Durchgehend
 62
     7
370
     0
100
AcDbLine
 10
150.0001097016
 20
95.8575039189
 30
0.0
 11
150.0001097016
 21
101.3575038995
 31
0.0
  0
LINE
  5
217
330
20E
100
AcDbEntity
  8
0
  6
SLD-Durchgehend
 62
     7
370
     0
100
AcDbLine
 10
150.0001097016
 20
101.3575038995
 30
0.0
 11
150.0001097016
 21
104.8575038995
 31
0.0
  0
MTEXT
  5
218
330
20E
100
AcDbEntity
  8
0
  6
SLD-Durchgehend
 62
     7
370
     0
100
AcDbMText
 10
146.1329062495
 20
95.7429205235
 30
0.0
 40
3.0
 41
0.0
 71
     1
 72
     1
  1
5,5
  7
SLDTEXTSTYLE0
 11
-4.157615153618227E-15
 21
1.0
 31
0.0
 73
     1
 44
1.0
  0
ENDBLK
  5
210
330
20E
100
AcDbEntity
  8
0
100
AcDbBlockEnd
  0
BLOCK
  5
248
330
247
100
AcDbEntity
  8
0
100
AcDbBlockBegin
  2
_D_10
 70
     0
 10
0.0
 20
0.0
 30
0.0
  3
_D_10
  1

  0
SOLID
  5
24A
330
247
100
AcDbEntity
  8
0
  6
SLD-Durchgehend
 62
     7
370
     0
100
AcDbTrace
 10
131.5001097016
 20
184.5669966017
 30
0.0
 11
134.0001097016
 21
184.1269966017
 31
0.0
 12
134.0001097016
 22
185.0069966017
 32
0.0
 13
134.0001097016
 23
185.0069966017
 33
0.0
  0
SOLID
  5
24B
330
247
100
AcDbEntity
  8
0
  6
SLD-Durchgehend
 62
     7
370
     0
100
AcDbTrace
 10
151.5001097016
 20
184.5669966017
 30
0.0
 11
149.0001097016
 21
185.0069966017
 31
0.0
 12
149.0001097016
 22
184.1269966017
 32
0.0
 13
149.0001097016
 23
184.1269966017
 33
0.0
  0
LINE
  5
24C
330
247
100
AcDbEntity
  8
0
  6
SLD-Durchgehend
 62
     7
370
     0
100
AcDbLine
 10
131.5001097016
 20
180.5654023572
 30
0.0
 11
131.5001097016
 21
185.5669966017
 31
0.0
  0
LINE
  5
24D
330
247
100
AcDbEntity
  8
0
  6
SLD-Durchgehend
 62
     7
370
     0
100
AcDbLine
 10
151.5001097016
 20
176.0654023572
 30
0.0
 11
151.5001097016
 21
185.5669966017
 31
0.0
  0
LINE
  5
24E
330
247
100
AcDbEntity
  8
0
  6
SLD-Durchgehend
 62
     7
370
     0
100
AcDbLine
 10
131.5001097016
 20
184.5669966017
 30
0.0
 11
151.5001097016
 21
184.5669966017
 31
0.0
  0
MTEXT
  5
24F
330
247
100
AcDbEntity
  8
0
  6
SLD-Durchgehend
 62
     7
370
     0
100
AcDbMText
 10
139.208443125
 20
188.4342000538
 30
0.0
 40
3.0
 41
0.0
 71
     1
 72
     1
  1
20
  7
SLDTEXTSTYLE0
 73
     1
 44
1.0
  0
ENDBLK
  5
249
330
247
100
AcDbEntity
  8
0
100
AcDbBlockEnd
  0
BLOCK
  5
252
330
251
100
AcDbEntity
  8
0
100
AcDbBlockBegin
  2
_D_11
 70
     0
 10
0.0
 20
0.0
 30
0.0
  3
_D_11
  1

  0
SOLID
  5
254
330
251
100
AcDbEntity
  8
0
  6
SLD-Durchgehend
 62
     7
370
     0
100
AcDbTrace
 10
149.0001097016
 20
166.1814256621
 30
0.0
 11
146.5001097016
 21
166.6214256621
 31
0.0
 12
146.5001097016
 22
165.7414256621
 32
0.0
 13
146.5001097016
 23
165.7414256621
 33
0.0
  0
SOLID
  5
255
330
251
100
AcDbEntity
  8
0
  6
SLD-Durchgehend
 62
     7
370
     0
100
AcDbTrace
 10
154.0001097016
 20
166.1814256621
 30
0.0
 11
156.5001097016
 21
165.7414256621
 31
0.0
 12
156.5001097016
 22
166.6214256621
 32
0.0
 13
156.5001097016
 23
166.6214256621
 33
0.0
  0
LINE
  5
256
330
251
100
AcDbEntity
  8
0
  6
SLD-Durchgehend
 62
     7
370
     0
100
AcDbLine
 10
149.0001097016
 20
174.0654023572
 30
0.0
 11
149.0001097016
 21
165.1814256621
 31
0.0
  0
LINE
  5
257
330
251
100
AcDbEntity
  8
0
  6
SLD-Durchgehend
 62
     7
370
     0
100
AcDbLine
 10
154.0001097016
 20
174.0654023572
 30
0.0
 11
154.0001097016
 21
165.1814256621
 31
0.0
  0
LINE
  5
258
330
251
100
AcDbEntity
  8
0
  6
SLD-Durchgehend
 62
     7
370
     0
100
AcDbLine
 10
149.0001097016
 20
166.1814256621
 30
0.0
 11
140.18138247
 21
166.1814256621
 31
0.0
  0
LINE
  5
259
330
251
100
AcDbEntity
  8
0
  6
SLD-Durchgehend
 62
     7
370
     0
100
AcDbLine
 10
149.0001097016
 20
166.1814256621
 30
0.0
 11
154.0001097016
 21
166.1814256621
 31
0.0
  0
LINE
  5
25A
330
251
100
AcDbEntity
  8
0
  6
SLD-Durchgehend
 62
     7
370
     0
100
AcDbLine
 10
154.0001097016
 20
166.1814256621
 30
0.0
 11
157.5001097016
 21
166.1814256621
 31
0.0
  0
MTEXT
  5
25B
330
251
100
AcDbEntity
  8
0
  6
SLD-Durchgehend
 62
     7
370
     0
100
AcDbMText
 10
140.18138247
 20
170.0486291143
 30
0.0
 40
3.0
 41
0.0
 71
     1
 72
     1
  1
M
  7
SLDTEXTSTYLE0
 73
     1
 44
1.0
  0
MTEXT
  5
25C
330
251
100
AcDbEntity
  8
0
  6
SLD-Durchgehend
 62
     7
370
     0
100
AcDbMText
 10
143.6147157142
 20
170.0486291143
 30
0.0
 40
3.0
 41
0.0
 71
     1
 72
     1
  1
5
  7
SLDTEXTSTYLE0
 73
     1
 44
1.0
  0
ENDBLK
  5
253
330
251
100
AcDbEntity
  8
0
100
AcDbBlockEnd
  0
BLOCK
  5
25F
330
25E
100
AcDbEntity
  8
0
100
AcDbBlockBegin
  2
_D_12
 70
     0
 10
0.0
 20
0.0
 30
0.0
  3
_D_12
  1

  0
ARC
  5
261
330
25E
100
AcDbEntity
  8
0
  6
SLD-Durchgehend
 62
     7
370
     0
100
AcDbCircle
 10
175.8060755645
 20
165.377902678
 30
0.0
 40
5.147615016181016
100
AcDbArc
 50
243.4349488229
 51
296.5650511771
  0
ARC
  5
262
330
25E
100
AcDbEntity
  8
0
  6
SLD-Durchgehend
 62
     7
370
     0
100
AcDbCircle
 10
175.8060755645
 20
160.7529021527
 30
0.0
 40
5.147615016181041
100
AcDbArc
 50
63.4349488229
 51
116.5650511771
  0
SOLID
  5
263
330
25E
100
AcDbEntity
  8
0
  6
SLD-Durchgehend
 62
     7
370
     0
100
AcDbTrace
 10
178.1081589841
 20
179.5654023572
 30
0.0
 11
177.6681589841
 21
177.0654023572
 31
0.0
 12
178.5481589841
 22
177.0654023572
 32
0.0
 13
178.5481589841
 23
177.0654023572
 33
0.0
  0
SOLID
  5
264
330
25E
100
AcDbEntity
  8
0
  6
SLD-Durchgehend
 62
     7
370
     0
100
AcDbTrace
 10
178.1081589841
 20
146.5654023572
 30
0.0
 11
178.5481589841
 21
149.0654023572
 31
0.0
 12
177.6681589841
 22
149.0654023572
 32
0.0
 13
177.6681589841
 23
149.0654023572
 33
0.0
  0
LINE
  5
265
330
25E
100
AcDbEntity
  8
0
  6
SLD-Durchgehend
 62
     7
370
     0
100
AcDbLine
 10
178.1081589841
 20
179.5654023572
 30
0.0
 11
178.1081589841
 21
146.5654023572
 31
0.0
  0
MTEXT
  5
266
330
25E
100
AcDbEntity
  8
0
  6
SLD-Durchgehend
 62
     7
370
     0
100
AcDbMText
 10
174.240955532
 20
160.7737358387
 30
0.0
 40
3.0
 41
0.0
 71
     1
 72
     1
  1
33
  7
SLDTEXTSTYLE0
 11
-7.044195017643634E-15
 21
1.0
 31
0.0
 73
     1
 44
1.0
  0
ENDBLK
  5
260
330
25E
100
AcDbEntity
  8
0
100
AcDbBlockEnd
  0
BLOCK
  5
269
330
268
100
AcDbEntity
  8
0
100
AcDbBlockBegin
  2
_D_13
 70
     0
 10
0.0
 20
0.0
 30
0.0
  3
_D_13
  1

  0
SOLID
  5
26B
330
268
100
AcDbEntity
  8
0
  6
SLD-Durchgehend
 62
     7
370
     0
100
AcDbTrace
 10
163.1400548351
 20
175.0654023572
 30
0.0
 11
162.7000548351
 21
172.5654023572
 31
0.0
 12
163.5800548351
 22
172.5654023572
 32
0.0
 13
163.5800548351
 23
172.5654023572
 33
0.0
  0
SOLID
  5
26C
330
268
100
AcDbEntity
  8
0
  6
SLD-Durchgehend
 62
     7
370
     0
100
AcDbTrace
 10
163.1400548351
 20
151.0654023572
 30
0.0
 11
163.5800548351
 21
153.5654023572
 31
0.0
 12
162.7000548351
 22
153.5654023572
 32
0.0
 13
162.7000548351
 23
153.5654023572
 33
0.0
  0
LINE
  5
26D
330
268
100
AcDbEntity
  8
0
  6
SLD-Durchgehend
 62
     7
370
     0
100
AcDbLine
 10
152.5001097016
 20
175.0654023572
 30
0.0
 11
164.1400548351
 21
175.0654023572
 31
0.0
  0
LINE
  5
26E
330
268
100
AcDbEntity
  8
0
  6
SLD-Durchgehend
 62
     7
370
     0
100
AcDbLine
 10
152.5001097016
 20
151.0654023572
 30
0.0
 11
164.1400548351
 21
151.0654023572
 31
0.0
  0
LINE
  5
26F
330
268
100
AcDbEntity
  8
0
  6
SLD-Durchgehend
 62
     7
370
     0
100
AcDbLine
 10
163.1400548351
 20
175.0654023572
 30
0.0
 11
163.1400548351
 21
151.0654023572
 31
0.0
  0
MTEXT
  5
270
330
268
100
AcDbEntity
  8
0
  6
SLD-Durchgehend
 62
     7
370
     0
100
AcDbMText
 10
159.2728513829
 20
160.7737357805
 30
0.0
 40
3.0
 41
0.0
 71
     1
 72
     1
  1
24
  7
SLDTEXTSTYLE0
 11
-7.044195017643634E-15
 21
1.0
 31
0.0
 73
     1
 44
1.0
  0
ENDBLK
  5
26A
330
268
100
AcDbEntity
  8
0
100
AcDbBlockEnd
  0
BLOCK
  5
272
330
271
100
AcDbEntity
  8
0
100
AcDbBlockBegin
  2
SW_CENTERMARKSYMBOL_0
 70
     0
 10
0.0
 20
0.0
 30
0.0
  3
SW_CENTERMARKSYMBOL_0
  1

  0
LINE
  5
274
330
271
100
AcDbEntity
  8
0
  6
SLD-Durchgehend
 62
     0
370
     0
100
AcDbLine
 10
0.0
 20
0.0
 30
0.0
 11
0.0
 21
1.0
 31
0.0
  0
LINE
  5
275
330
271
100
AcDbEntity
  8
0
  6
SLD-Durchgehend
 62
     0
370
     0
100
AcDbLine
 10
0.0
 20
0.0
 30
0.0
 11
-1.0
 21
0.0
 31
0.0
  0
LINE
  5
276
330
271
100
AcDbEntity
  8
0
  6
SLD-Durchgehend
 62
     0
370
     0
100
AcDbLine
 10
0.0
 20
0.0
 30
0.0
 11
0.0
 21
-1.0
 31
0.0
  0
LINE
  5
277
330
271
100
AcDbEntity
  8
0
  6
SLD-Durchgehend
 62
     0
370
     0
100
AcDbLine
 10
0.0
 20
0.0
 30
0.0
 11
1.0
 21
0.0
 31
0.0
  0
LINE
  5
278
330
271
100
AcDbEntity
  8
0
  6
SLD-Durchgehend
 62
     0
370
     0
100
AcDbLine
 10
0.0
 20
2.0
 30
0.0
 11
0.0
 21
3.1
 31
0.0
  0
LINE
  5
279
330
271
100
AcDbEntity
  8
0
  6
SLD-Durchgehend
 62
     0
370
     0
100
AcDbLine
 10
-2.0
 20
0.0
 30
0.0
 11
-3.1
 21
0.0
 31
0.0
  0
LINE
  5
27A
330
271
100
AcDbEntity
  8
0
  6
SLD-Durchgehend
 62
     0
370
     0
100
AcDbLine
 10
0.0
 20
-2.0
 30
0.0
 11
0.0
 21
-3.1
 31
0.0
  0
LINE
  5
27B
330
271
100
AcDbEntity
  8
0
  6
SLD-Durchgehend
 62
     0
370
     0
100
AcDbLine
 10
2.0
 20
0.0
 30
0.0
 11
3.1
 21
0.0
 31
0.0
  0
ENDBLK
  5
273
330
271
100
AcDbEntity
  8
0
100
AcDbBlockEnd
  0
BLOCK
  5
27E
330
27D
100
AcDbEntity
  8
0
100
AcDbBlockBegin
  2
SW_CENTERMARKSYMBOL_1
 70
     0
 10
0.0
 20
0.0
 30
0.0
  3
SW_CENTERMARKSYMBOL_1
  1

  0
LINE
  5
280
330
27D
100
AcDbEntity
  8
0
  6
SLD-Durchgehend
 62
     0
370
     0
100
AcDbLine
 10
0.0
 20
0.0
 30
0.0
 11
0.0
 21
1.0
 31
0.0
  0
LINE
  5
281
330
27D
100
AcDbEntity
  8
0
  6
SLD-Durchgehend
 62
     0
370
     0
100
AcDbLine
 10
0.0
 20
0.0
 30
0.0
 11
-1.0
 21
0.0
 31
0.0
  0
LINE
  5
282
330
27D
100
AcDbEntity
  8
0
  6
SLD-Durchgehend
 62
     0
370
     0
100
AcDbLine
 10
0.0
 20
0.0
 30
0.0
 11
0.0
 21
-1.0
 31
0.0
  0
LINE
  5
283
330
27D
100
AcDbEntity
  8
0
  6
SLD-Durchgehend
 62
     0
370
     0
100
AcDbLine
 10
0.0
 20
0.0
 30
0.0
 11
1.0
 21
0.0
 31
0.0
  0
LINE
  5
284
330
27D
100
AcDbEntity
  8
0
  6
SLD-Durchgehend
 62
     0
370
     0
100
AcDbLine
 10
0.0
 20
2.0
 30
0.0
 11
0.0
 21
3.1
 31
0.0
  0
LINE
  5
285
330
27D
100
AcDbEntity
  8
0
  6
SLD-Durchgehend
 62
     0
370
     0
100
AcDbLine
 10
-2.0
 20
0.0
 30
0.0
 11
-3.1
 21
0.0
 31
0.0
  0
LINE
  5
286
330
27D
100
AcDbEntity
  8
0
  6
SLD-Durchgehend
 62
     0
370
     0
100
AcDbLine
 10
0.0
 20
-2.0
 30
0.0
 11
0.0
 21
-3.1
 31
0.0
  0
LINE
  5
287
330
27D
100
AcDbEntity
  8
0
  6
SLD-Durchgehend
 62
     0
370
     0
100
AcDbLine
 10
2.0
 20
0.0
 30
0.0
 11
3.1
 21
0.0
 31
0.0
  0
ENDBLK
  5
27F
330
27D
100
AcDbEntity
  8
0
100
AcDbBlockEnd
  0
BLOCK
  5
2CC
330
2CB
100
AcDbEntity
  8
0
100
AcDbBlockBegin
  2
SW_CENTERMARKSYMBOL_2
 70
     0
 10
0.0
 20
0.0
 30
0.0
  3
SW_CENTERMARKSYMBOL_2
  1

  0
LINE
  5
2CE
330
2CB
100
AcDbEntity
  8
0
  6
SLD-Durchgehend
 62
     0
370
     0
100
AcDbLine
 10
0.0
 20
0.0
 30
0.0
 11
0.0
 21
1.0
 31
0.0
  0
LINE
  5
2CF
330
2CB
100
AcDbEntity
  8
0
  6
SLD-Durchgehend
 62
     0
370
     0
100
AcDbLine
 10
0.0
 20
0.0
 30
0.0
 11
-1.0
 21
0.0
 31
0.0
  0
LINE
  5
2D0
330
2CB
100
AcDbEntity
  8
0
  6
SLD-Durchgehend
 62
     0
370
     0
100
AcDbLine
 10
0.0
 20
0.0
 30
0.0
 11
0.0
 21
-1.0
 31
0.0
  0
LINE
  5
2D1
330
2CB
100
AcDbEntity
  8
0
  6
SLD-Durchgehend
 62
     0
370
     0
100
AcDbLine
 10
0.0
 20
0.0
 30
0.0
 11
1.0
 21
0.0
 31
0.0
  0
LINE
  5
2D2
330
2CB
100
AcDbEntity
  8
0
  6
SLD-Durchgehend
 62
     0
370
     0
100
AcDbLine
 10
0.0
 20
2.0
 30
0.0
 11
0.0
 21
4.1
 31
0.0
  0
LINE
  5
2D3
330
2CB
100
AcDbEntity
  8
0
  6
SLD-Durchgehend
 62
     0
370
     0
100
AcDbLine
 10
-2.0
 20
0.0
 30
0.0
 11
-4.1
 21
0.0
 31
0.0
  0
LINE
  5
2D4
330
2CB
100
AcDbEntity
  8
0
  6
SLD-Durchgehend
 62
     0
370
     0
100
AcDbLine
 10
0.0
 20
-2.0
 30
0.0
 11
0.0
 21
-4.1
 31
0.0
  0
LINE
  5
2D5
330
2CB
100
AcDbEntity
  8
0
  6
SLD-Durchgehend
 62
     0
370
     0
100
AcDbLine
 10
2.0
 20
0.0
 30
0.0
 11
4.1
 21
0.0
 31
0.0
  0
ENDBLK
  5
2CD
330
2CB
100
AcDbEntity
  8
0
100
AcDbBlockEnd
  0
BLOCK
  5
2D8
330
2D7
100
AcDbEntity
  8
0
100
AcDbBlockBegin
  2
SW_CENTERMARKSYMBOL_3
 70
     0
 10
0.0
 20
0.0
 30
0.0
  3
SW_CENTERMARKSYMBOL_3
  1

  0
LINE
  5
2DA
330
2D7
100
AcDbEntity
  8
0
  6
SLD-Durchgehend
 62
     0
370
     0
100
AcDbLine
 10
0.0
 20
0.0
 30
0.0
 11
0.0
 21
1.0
 31
0.0
  0
LINE
  5
2DB
330
2D7
100
AcDbEntity
  8
0
  6
SLD-Durchgehend
 62
     0
370
     0
100
AcDbLine
 10
0.0
 20
0.0
 30
0.0
 11
-1.0
 21
0.0
 31
0.0
  0
LINE
  5
2DC
330
2D7
100
AcDbEntity
  8
0
  6
SLD-Durchgehend
 62
     0
370
     0
100
AcDbLine
 10
0.0
 20
0.0
 30
0.0
 11
0.0
 21
-1.0
 31
0.0
  0
LINE
  5
2DD
330
2D7
100
AcDbEntity
  8
0
  6
SLD-Durchgehend
 62
     0
370
     0
100
AcDbLine
 10
0.0
 20
0.0
 30
0.0
 11
1.0
 21
0.0
 31
0.0
  0
LINE
  5
2DE
330
2D7
100
AcDbEntity
  8
0
  6
SLD-Durchgehend
 62
     0
370
     0
100
AcDbLine
 10
0.0
 20
2.0
 30
0.0
 11
0.0
 21
13.5
 31
0.0
  0
LINE
  5
2DF
330
2D7
100
AcDbEntity
  8
0
  6
SLD-Durchgehend
 62
     0
370
     0
100
AcDbLine
 10
-2.0
 20
0.0
 30
0.0
 11
-13.5
 21
0.0
 31
0.0
  0
LINE
  5
2E0
330
2D7
100
AcDbEntity
  8
0
  6
SLD-Durchgehend
 62
     0
370
     0
100
AcDbLine
 10
0.0
 20
-2.0
 30
0.0
 11
0.0
 21
-13.5
 31
0.0
  0
LINE
  5
2E1
330
2D7
100
AcDbEntity
  8
0
  6
SLD-Durchgehend
 62
     0
370
     0
100
AcDbLine
 10
2.0
 20
0.0
 30
0.0
 11
13.5
 21
0.0
 31
0.0
  0
ENDBLK
  5
2D9
330
2D7
100
AcDbEntity
  8
0
100
AcDbBlockEnd
  0
BLOCK
  5
2E4
330
2E3
100
AcDbEntity
  8
0
100
AcDbBlockBegin
  2
SW_CENTERMARKSYMBOL_4
 70
     0
 10
0.0
 20
0.0
 30
0.0
  3
SW_CENTERMARKSYMBOL_4
  1

  0
LINE
  5
2E6
330
2E3
100
AcDbEntity
  8
0
  6
SLD-Durchgehend
 62
     0
370
     0
100
AcDbLine
 10
0.0
 20
0.0
 30
0.0
 11
0.0
 21
1.0
 31
0.0
  0
LINE
  5
2E7
330
2E3
100
AcDbEntity
  8
0
  6
SLD-Durchgehend
 62
     0
370
     0
100
AcDbLine
 10
0.0
 20
0.0
 30
0.0
 11
-1.0
 21
0.0
 31
0.0
  0
LINE
  5
2E8
330
2E3
100
AcDbEntity
  8
0
  6
SLD-Durchgehend
 62
     0
370
     0
100
AcDbLine
 10
0.0
 20
0.0
 30
0.0
 11
0.0
 21
-1.0
 31
0.0
  0
LINE
  5
2E9
330
2E3
100
AcDbEntity
  8
0
  6
SLD-Durchgehend
 62
     0
370
     0
100
AcDbLine
 10
0.0
 20
0.0
 30
0.0
 11
1.0
 21
0.0
 31
0.0
  0
LINE
  5
2EA
330
2E3
100
AcDbEntity
  8
0
  6
SLD-Durchgehend
 62
     0
370
     0
100
AcDbLine
 10
0.0
 20
2.0
 30
0.0
 11
0.0
 21
4.0
 31
0.0
  0
LINE
  5
2EB
330
2E3
100
AcDbEntity
  8
0
  6
SLD-Durchgehend
 62
     0
370
     0
100
AcDbLine
 10
-2.0
 20
0.0
 30
0.0
 11
-4.0
 21
0.0
 31
0.0
  0
LINE
  5
2EC
330
2E3
100
AcDbEntity
  8
0
  6
SLD-Durchgehend
 62
     0
370
     0
100
AcDbLine
 10
0.0
 20
-2.0
 30
0.0
 11
0.0
 21
-4.0
 31
0.0
  0
LINE
  5
2ED
330
2E3
100
AcDbEntity
  8
0
  6
SLD-Durchgehend
 62
     0
370
     0
100
AcDbLine
 10
2.0
 20
0.0
 30
0.0
 11
4.0
 21
0.0
 31
0.0
  0
ENDBLK
  5
2E5
330
2E3
100
AcDbEntity
  8
0
100
AcDbBlockEnd
  0
BLOCK
  5
2F0
330
2EF
100
AcDbEntity
  8
0
100
AcDbBlockBegin
  2
SW_CENTERMARKSYMBOL_5
 70
     0
 10
0.0
 20
0.0
 30
0.0
  3
SW_CENTERMARKSYMBOL_5
  1

  0
LINE
  5
2F2
330
2EF
100
AcDbEntity
  8
0
  6
SLD-Durchgehend
 62
     0
370
     0
100
AcDbLine
 10
0.0
 20
0.0
 30
0.0
 11
0.0
 21
1.0
 31
0.0
  0
LINE
  5
2F3
330
2EF
100
AcDbEntity
  8
0
  6
SLD-Durchgehend
 62
     0
370
     0
100
AcDbLine
 10
0.0
 20
0.0
 30
0.0
 11
-1.0
 21
0.0
 31
0.0
  0
LINE
  5
2F4
330
2EF
100
AcDbEntity
  8
0
  6
SLD-Durchgehend
 62
     0
370
     0
100
AcDbLine
 10
0.0
 20
0.0
 30
0.0
 11
0.0
 21
-1.0
 31
0.0
  0
LINE
  5
2F5
330
2EF
100
AcDbEntity
  8
0
  6
SLD-Durchgehend
 62
     0
370
     0
100
AcDbLine
 10
0.0
 20
0.0
 30
0.0
 11
1.0
 21
0.0
 31
0.0
  0
LINE
  5
2F6
330
2EF
100
AcDbEntity
  8
0
  6
SLD-Durchgehend
 62
     0
370
     0
100
AcDbLine
 10
0.0
 20
2.0
 30
0.0
 11
0.0
 21
4.5
 31
0.0
  0
LINE
  5
2F7
330
2EF
100
AcDbEntity
  8
0
  6
SLD-Durchgehend
 62
     0
370
     0
100
AcDbLine
 10
-2.0
 20
0.0
 30
0.0
 11
-4.5
 21
0.0
 31
0.0
  0
LINE
  5
2F8
330
2EF
100
AcDbEntity
  8
0
  6
SLD-Durchgehend
 62
     0
370
     0
100
AcDbLine
 10
0.0
 20
-2.0
 30
0.0
 11
0.0
 21
-4.5
 31
0.0
  0
LINE
  5
2F9
330
2EF
100
AcDbEntity
  8
0
  6
SLD-Durchgehend
 62
     0
370
     0
100
AcDbLine
 10
2.0
 20
0.0
 30
0.0
 11
4.5
 21
0.0
 31
0.0
  0
ENDBLK
  5
2F1
330
2EF
100
AcDbEntity
  8
0
100
AcDbBlockEnd
  0
BLOCK
  5
2FC
330
2FB
100
AcDbEntity
  8
0
100
AcDbBlockBegin
  2
SW_CENTERMARKSYMBOL_6
 70
     0
 10
0.0
 20
0.0
 30
0.0
  3
SW_CENTERMARKSYMBOL_6
  1

  0
LINE
  5
2FE
330
2FB
100
AcDbEntity
  8
0
  6
SLD-Durchgehend
 62
     0
370
     0
100
AcDbLine
 10
0.0
 20
0.0
 30
0.0
 11
0.0
 21
1.0
 31
0.0
  0
LINE
  5
2FF
330
2FB
100
AcDbEntity
  8
0
  6
SLD-Durchgehend
 62
     0
370
     0
100
AcDbLine
 10
0.0
 20
0.0
 30
0.0
 11
-1.0
 21
0.0
 31
0.0
  0
LINE
  5
300
330
2FB
100
AcDbEntity
  8
0
  6
SLD-Durchgehend
 62
     0
370
     0
100
AcDbLine
 10
0.0
 20
0.0
 30
0.0
 11
0.0
 21
-1.0
 31
0.0
  0
LINE
  5
301
330
2FB
100
AcDbEntity
  8
0
  6
SLD-Durchgehend
 62
     0
370
     0
100
AcDbLine
 10
0.0
 20
0.0
 30
0.0
 11
1.0
 21
0.0
 31
0.0
  0
LINE
  5
302
330
2FB
100
AcDbEntity
  8
0
  6
SLD-Durchgehend
 62
     0
370
     0
100
AcDbLine
 10
0.0
 20
2.0
 30
0.0
 11
0.0
 21
4.1
 31
0.0
  0
LINE
  5
303
330
2FB
100
AcDbEntity
  8
0
  6
SLD-Durchgehend
 62
     0
370
     0
100
AcDbLine
 10
-2.0
 20
0.0
 30
0.0
 11
-4.1
 21
0.0
 31
0.0
  0
LINE
  5
304
330
2FB
100
AcDbEntity
  8
0
  6
SLD-Durchgehend
 62
     0
370
     0
100
AcDbLine
 10
0.0
 20
-2.0
 30
0.0
 11
0.0
 21
-4.1
 31
0.0
  0
LINE
  5
305
330
2FB
100
AcDbEntity
  8
0
  6
SLD-Durchgehend
 62
     0
370
     0
100
AcDbLine
 10
2.0
 20
0.0
 30
0.0
 11
4.1
 21
0.0
 31
0.0
  0
ENDBLK
  5
2FD
330
2FB
100
AcDbEntity
  8
0
100
AcDbBlockEnd
  0
BLOCK
  5
308
330
307
100
AcDbEntity
  8
0
100
AcDbBlockBegin
  2
SW_CENTERMARKSYMBOL_7
 70
     0
 10
0.0
 20
0.0
 30
0.0
  3
SW_CENTERMARKSYMBOL_7
  1

  0
LINE
  5
30A
330
307
100
AcDbEntity
  8
0
  6
SLD-Durchgehend
 62
     0
370
     0
100
AcDbLine
 10
0.0
 20
0.0
 30
0.0
 11
0.0
 21
1.0
 31
0.0
  0
LINE
  5
30B
330
307
100
AcDbEntity
  8
0
  6
SLD-Durchgehend
 62
     0
370
     0
100
AcDbLine
 10
0.0
 20
0.0
 30
0.0
 11
-1.0
 21
0.0
 31
0.0
  0
LINE
  5
30C
330
307
100
AcDbEntity
  8
0
  6
SLD-Durchgehend
 62
     0
370
     0
100
AcDbLine
 10
0.0
 20
0.0
 30
0.0
 11
0.0
 21
-1.0
 31
0.0
  0
LINE
  5
30D
330
307
100
AcDbEntity
  8
0
  6
SLD-Durchgehend
 62
     0
370
     0
100
AcDbLine
 10
0.0
 20
0.0
 30
0.0
 11
1.0
 21
0.0
 31
0.0
  0
LINE
  5
30E
330
307
100
AcDbEntity
  8
0
  6
SLD-Durchgehend
 62
     0
370
     0
100
AcDbLine
 10
0.0
 20
2.0
 30
0.0
 11
0.0
 21
4.1
 31
0.0
  0
LINE
  5
30F
330
307
100
AcDbEntity
  8
0
  6
SLD-Durchgehend
 62
     0
370
     0
100
AcDbLine
 10
-2.0
 20
0.0
 30
0.0
 11
-4.1
 21
0.0
 31
0.0
  0
LINE
  5
310
330
307
100
AcDbEntity
  8
0
  6
SLD-Durchgehend
 62
     0
370
     0
100
AcDbLine
 10
0.0
 20
-2.0
 30
0.0
 11
0.0
 21
-4.1
 31
0.0
  0
LINE
  5
311
330
307
100
AcDbEntity
  8
0
  6
SLD-Durchgehend
 62
     0
370
     0
100
AcDbLine
 10
2.0
 20
0.0
 30
0.0
 11
4.1
 21
0.0
 31
0.0
  0
ENDBLK
  5
309
330
307
100
AcDbEntity
  8
0
100
AcDbBlockEnd
  0
BLOCK
  5
33A
330
339
100
AcDbEntity
  8
0
100
AcDbBlockBegin
  2
_D_14
 70
     0
 10
0.0
 20
0.0
 30
0.0
  3
_D_14
  1

  0
SOLID
  5
33C
330
339
100
AcDbEntity
  8
0
  6
SLD-Durchgehend
 62
     7
370
     0
100
AcDbTrace
 10
231.3365810651
 20
92.8575038995
 30
0.0
 11
230.8965810651
 21
90.3575038995
 31
0.0
 12
231.7765810651
 22
90.3575038995
 32
0.0
 13
231.7765810651
 23
90.3575038995
 33
0.0
  0
SOLID
  5
33D
330
339
100
AcDbEntity
  8
0
  6
SLD-Durchgehend
 62
     7
370
     0
100
AcDbTrace
 10
231.3365810651
 20
76.8575038995
 30
0.0
 11
231.7765810651
 21
79.3575038995
 31
0.0
 12
230.8965810651
 22
79.3575038995
 32
0.0
 13
230.8965810651
 23
79.3575038995
 33
0.0
  0
LINE
  5
33E
330
339
100
AcDbEntity
  8
0
  6
SLD-Durchgehend
 62
     7
370
     0
100
AcDbLine
 10
249.3792944164
 20
92.8575038995
 30
0.0
 11
230.3365810651
 21
92.8575038995
 31
0.0
  0
LINE
  5
33F
330
339
100
AcDbEntity
  8
0
  6
SLD-Durchgehend
 62
     7
370
     0
100
AcDbLine
 10
249.3792944164
 20
76.8575038995
 30
0.0
 11
230.3365810651
 21
76.8575038995
 31
0.0
  0
LINE
  5
340
330
339
100
AcDbEntity
  8
0
  6
SLD-Durchgehend
 62
     7
370
     0
100
AcDbLine
 10
231.3365810651
 20
92.8575038995
 30
0.0
 11
231.3365810651
 21
76.8575038995
 31
0.0
  0
MTEXT
  5
341
330
339
100
AcDbEntity
  8
0
  6
SLD-Durchgehend
 62
     7
370
     0
100
AcDbMText
 10
227.4693776129
 20
79.2470877218
 30
0.0
 40
3.0
 41
0.0
 71
     1
 72
     1
  1
SW
  7
SLDTEXTSTYLE0
 11
-1.059690869644414E-14
 21
1.0
 31
0.0
 73
     1
 44
1.0
  0
MTEXT
  5
342
330
339
100
AcDbEntity
  8
0
  6
SLD-Durchgehend
 62
     7
370
     0
100
AcDbMText
 10
227.4693776129
 20
85.8845873895
 30
0.0
 40
3.0
 41
0.0
 71
     1
 72
     1
  1
16
  7
SLDTEXTSTYLE0
 11
-1.059690869644414E-14
 21
1.0
 31
0.0
 73
     1
 44
1.0
  0
ENDBLK
  5
33B
330
339
100
AcDbEntity
  8
0
100
AcDbBlockEnd
  0
BLOCK
  5
345
330
344
100
AcDbEntity
  8
0
100
AcDbBlockBegin
  2
_D_15
 70
     0
 10
0.0
 20
0.0
 30
0.0
  3
_D_15
  1

  0
SOLID
  5
347
330
344
100
AcDbEntity
  8
0
  6
SLD-Durchgehend
 62
     7
370
     0
100
AcDbTrace
 10
270.7792944164
 20
107.780950226
 30
0.0
 11
268.2792944164
 21
108.220950226
 31
0.0
 12
268.2792944164
 22
107.340950226
 32
0.0
 13
268.2792944164
 23
107.340950226
 33
0.0
  0
SOLID
  5
348
330
344
100
AcDbEntity
  8
0
  6
SLD-Durchgehend
 62
     7
370
     0
100
AcDbTrace
 10
237.7792944164
 20
107.780950226
 30
0.0
 11
240.2792944164
 21
107.340950226
 31
0.0
 12
240.2792944164
 22
108.220950226
 32
0.0
 13
240.2792944164
 23
108.220950226
 33
0.0
  0
LINE
  5
349
330
344
100
AcDbEntity
  8
0
  6
SLD-Durchgehend
 62
     7
370
     0
100
AcDbLine
 10
270.7792944164
 20
102.3575038995
 30
0.0
 11
270.7792944164
 21
108.780950226
 31
0.0
  0
LINE
  5
34A
330
344
100
AcDbEntity
  8
0
  6
SLD-Durchgehend
 62
     7
370
     0
100
AcDbLine
 10
237.7792944164
 20
102.3575038995
 30
0.0
 11
237.7792944164
 21
108.780950226
 31
0.0
  0
LINE
  5
34B
330
344
100
AcDbEntity
  8
0
  6
SLD-Durchgehend
 62
     7
370
     0
100
AcDbLine
 10
270.7792944164
 20
107.780950226
 30
0.0
 11
237.7792944164
 21
107.780950226
 31
0.0
  0
MTEXT
  5
34C
330
344
100
AcDbEntity
  8
0
  6
SLD-Durchgehend
 62
     7
370
     0
100
AcDbMText
 10
251.9876278398
 20
111.6481536781
 30
0.0
 40
3.0
 41
0.0
 71
     1
 72
     1
  1
33
  7
SLDTEXTSTYLE0
 73
     1
 44
1.0
  0
ENDBLK
  5
346
330
344
100
AcDbEntity
  8
0
100
AcDbBlockEnd
  0
BLOCK
  5
34F
330
34E
100
AcDbEntity
  8
0
100
AcDbBlockBegin
  2
_D_16
 70
     0
 10
0.0
 20
0.0
 30
0.0
  3
_D_16
  1

  0
SOLID
  5
351
330
34E
100
AcDbEntity
  8
0
  6
SLD-Durchgehend
 62
     7
370
     0
100
AcDbTrace
 10
221.8222128207
 20
101.3575038995
 30
0.0
 11
221.3822128207
 21
98.8575038995
 31
0.0
 12
222.2622128207
 22
98.8575038995
 32
0.0
 13
222.2622128207
 23
98.8575038995
 33
0.0
  0
SOLID
  5
352
330
34E
100
AcDbEntity
  8
0
  6
SLD-Durchgehend
 62
     7
370
     0
100
AcDbTrace
 10
221.8222128207
 20
68.3575038995
 30
0.0
 11
222.2622128207
 21
70.8575038995
 31
0.0
 12
221.3822128207
 22
70.8575038995
 32
0.0
 13
221.3822128207
 23
70.8575038995
 33
0.0
  0
LINE
  5
353
330
34E
100
AcDbEntity
  8
0
  6
SLD-Durchgehend
 62
     7
370
     0
100
AcDbLine
 10
236.7792944164
 20
101.3575038995
 30
0.0
 11
220.8222128207
 21
101.3575038995
 31
0.0
  0
LINE
  5
354
330
34E
100
AcDbEntity
  8
0
  6
SLD-Durchgehend
 62
     7
370
     0
100
AcDbLine
 10
236.7792944164
 20
68.3575038995
 30
0.0
 11
220.8222128207
 21
68.3575038995
 31
0.0
  0
LINE
  5
355
330
34E
100
AcDbEntity
  8
0
  6
SLD-Durchgehend
 62
     7
370
     0
100
AcDbLine
 10
221.8222128207
 20
101.3575038995
 30
0.0
 11
221.8222128207
 21
68.3575038995
 31
0.0
  0
MTEXT
  5
356
330
34E
100
AcDbEntity
  8
0
  6
SLD-Durchgehend
 62
     7
370
     0
100
AcDbMText
 10
217.9550093686
 20
82.5658373228
 30
0.0
 40
3.0
 41
0.0
 71
     1
 72
     1
  1
33
  7
SLDTEXTSTYLE0
 11
-1.059690869644414E-14
 21
1.0
 31
0.0
 73
     1
 44
1.0
  0
ENDBLK
  5
350
330
34E
100
AcDbEntity
  8
0
100
AcDbBlockEnd
  0
BLOCK
  5
358
330
357
100
AcDbEntity
  8
0
100
AcDbBlockBegin
  2
SW_CENTERMARKSYMBOL_8
 70
     0
 10
0.0
 20
0.0
 30
0.0
  3
SW_CENTERMARKSYMBOL_8
  1

  0
LINE
  5
35A
330
357
100
AcDbEntity
  8
0
  6
SLD-Durchgehend
 62
     0
370
     0
100
AcDbLine
 10
0.0
 20
0.0
 30
0.0
 11
0.0
 21
1.0
 31
0.0
  0
LINE
  5
35B
330
357
100
AcDbEntity
  8
0
  6
SLD-Durchgehend
 62
     0
370
     0
100
AcDbLine
 10
0.0
 20
0.0
 30
0.0
 11
-1.0
 21
0.0
 31
0.0
  0
LINE
  5
35C
330
357
100
AcDbEntity
  8
0
  6
SLD-Durchgehend
 62
     0
370
     0
100
AcDbLine
 10
0.0
 20
0.0
 30
0.0
 11
0.0
 21
-1.0
 31
0.0
  0
LINE
  5
35D
330
357
100
AcDbEntity
  8
0
  6
SLD-Durchgehend
 62
     0
370
     0
100
AcDbLine
 10
0.0
 20
0.0
 30
0.0
 11
1.0
 21
0.0
 31
0.0
  0
LINE
  5
35E
330
357
100
AcDbEntity
  8
0
  6
SLD-Durchgehend
 62
     0
370
     0
100
AcDbLine
 10
0.0
 20
2.0
 30
0.0
 11
0.0
 21
9.9
 31
0.0
  0
LINE
  5
35F
330
357
100
AcDbEntity
  8
0
  6
SLD-Durchgehend
 62
     0
370
     0
100
AcDbLine
 10
-2.0
 20
0.0
 30
0.0
 11
-9.9
 21
0.0
 31
0.0
  0
LINE
  5
360
330
357
100
AcDbEntity
  8
0
  6
SLD-Durchgehend
 62
     0
370
     0
100
AcDbLine
 10
0.0
 20
-2.0
 30
0.0
 11
0.0
 21
-9.9
 31
0.0
  0
LINE
  5
361
330
357
100
AcDbEntity
  8
0
  6
SLD-Durchgehend
 62
     0
370
     0
100
AcDbLine
 10
2.0
 20
0.0
 30
0.0
 11
9.9
 21
0.0
 31
0.0
  0
ENDBLK
  5
359
330
357
100
AcDbEntity
  8
0
100
AcDbBlockEnd
  0
BLOCK
  5
38F
330
38E
100
AcDbEntity
  8
0
100
AcDbBlockBegin
  2
SW_HATCH_0
 70
     0
 10
0.0
 20
0.0
 30
0.0
  3
SW_HATCH_0
  1

  0
LINE
  5
391
330
38E
100
AcDbEntity
  8
0
  6
SLD-Durchgehend
 62
     0
370
     0
100
AcDbLine
 10
0.0
 20
0.0
 30
0.0
 11
-0.9487420321
 21
-0.9487401694
 31
0.0
  0
LINE
  5
392
330
38E
100
AcDbEntity
  8
0
  6
SLD-Durchgehend
 62
     0
370
     0
100
AcDbLine
 10
3.9889998734
 20
-0.5011260509
 30
0.0
 11
0.9493380785
 21
-3.5407892428
 31
0.0
  0
LINE
  5
393
330
38E
100
AcDbEntity
  8
0
  6
SLD-Durchgehend
 62
     0
370
     0
100
AcDbLine
 10
8.3123669028
 20
-0.6678886712
 30
0.0
 11
4.6894662082
 21
-4.2907893658
 31
0.0
  0
LINE
  5
394
330
38E
100
AcDbEntity
  8
0
  6
SLD-Durchgehend
 62
     0
370
     0
100
AcDbLine
 10
4.1795931756
 20
-9.290789254
 30
0.0
 11
0.6703063846
 21
-12.8000751138
 31
0.0
  0
LINE
  5
395
330
38E
100
AcDbEntity
  8
0
  6
SLD-Durchgehend
 62
     0
370
     0
100
AcDbLine
 10
13.1099149585
 20
-0.3604688682
 30
0.0
 11
9.1795958579
 21
-4.2907893658
 31
0.0
  0
LINE
  5
396
330
38E
100
AcDbEntity
  8
0
  6
SLD-Durchgehend
 62
     0
370
     0
100
AcDbLine
 10
8.6697228253
 20
-9.290789254
 30
0.0
 11
5.8016479015
 21
-12.1588623151
 31
0.0
  0
LINE
  5
397
330
38E
100
AcDbEntity
  8
0
  6
SLD-Durchgehend
 62
     0
370
     0
100
AcDbLine
 10
16.9492773712
 20
-1.0112328455
 30
0.0
 11
13.6697217822
 21
-4.2907893658
 31
0.0
  0
LINE
  5
398
330
38E
100
AcDbEntity
  8
0
  6
SLD-Durchgehend
 62
     0
370
     0
100
AcDbLine
 10
13.1598487496
 20
-9.290789254
 30
0.0
 11
10.3846229613
 21
-12.0660173707
 31
0.0
  0
LINE
  5
399
330
38E
100
AcDbEntity
  8
0
  6
SLD-Durchgehend
 62
     0
370
     0
100
AcDbLine
 10
19.3952508271
 20
-3.0553869437
 30
0.0
 11
16.8426893651
 21
-5.6079503847
 31
0.0
  0
LINE
  5
39A
330
38E
100
AcDbEntity
  8
0
  6
SLD-Durchgehend
 62
     0
370
     0
100
AcDbLine
 10
21.0075639188
 20
-5.9332043165
 30
0.0
 11
14.9186067283
 21
-12.0221604593
 31
0.0
  0
ENDBLK
  5
390
330
38E
100
AcDbEntity
  8
0
100
AcDbBlockEnd
  0
BLOCK
  5
39E
330
39D
100
AcDbEntity
  8
0
100
AcDbBlockBegin
  2
_D_17
 70
     0
 10
0.0
 20
0.0
 30
0.0
  3
_D_17
  1

  0
SOLID
  5
3A0
330
39D
100
AcDbEntity
  8
0
  6
SLD-Durchgehend
 62
     7
370
     0
100
AcDbTrace
 10
131.5001097016
 20
52.3959177707
 30
0.0
 11
129.0001097016
 21
52.8359177707
 31
0.0
 12
129.0001097016
 22
51.9559177707
 32
0.0
 13
129.0001097016
 23
51.9559177707
 33
0.0
  0
SOLID
  5
3A1
330
39D
100
AcDbEntity
  8
0
  6
SLD-Durchgehend
 62
     7
370
     0
100
AcDbTrace
 10
101.5001097016
 20
52.3959177707
 30
0.0
 11
104.0001097016
 21
51.9559177707
 31
0.0
 12
104.0001097016
 22
52.8359177707
 32
0.0
 13
104.0001097016
 23
52.8359177707
 33
0.0
  0
LINE
  5
3A2
330
39D
100
AcDbEntity
  8
0
  6
SLD-Durchgehend
 62
     7
370
     0
100
AcDbLine
 10
131.5001097016
 20
68.8197465549
 30
0.0
 11
131.5001097016
 21
51.3959177707
 31
0.0
  0
LINE
  5
3A3
330
39D
100
AcDbEntity
  8
0
  6
SLD-Durchgehend
 62
     7
370
     0
100
AcDbLine
 10
101.5001097016
 20
75.8575038995
 30
0.0
 11
101.5001097016
 21
51.3959177707
 31
0.0
  0
LINE
  5
3A4
330
39D
100
AcDbEntity
  8
0
  6
SLD-Durchgehend
 62
     7
370
     0
100
AcDbLine
 10
131.5001097016
 20
52.3959177707
 30
0.0
 11
101.5001097016
 21
52.3959177707
 31
0.0
  0
MTEXT
  5
3A5
330
39D
100
AcDbEntity
  8
0
  6
SLD-Durchgehend
 62
     7
370
     0
100
AcDbMText
 10
114.208443125
 20
56.2631212228
 30
0.0
 40
3.0
 41
0.0
 71
     1
 72
     1
  1
30
  7
SLDTEXTSTYLE0
 73
     1
 44
1.0
  0
ENDBLK
  5
39F
330
39D
100
AcDbEntity
  8
0
100
AcDbBlockEnd
  0
BLOCK
  5
3A8
330
3A7
100
AcDbEntity
  8
0
100
AcDbBlockBegin
  2
_D_18
 70
     0
 10
0.0
 20
0.0
 30
0.0
  3
_D_18
  1

  0
SOLID
  5
3AA
330
3A7
100
AcDbEntity
  8
0
  6
SLD-Durchgehend
 62
     7
370
     0
100
AcDbTrace
 10
94.7749702878
 20
87.8575038995
 30
0.0
 11
95.2149702878
 21
90.3575038995
 31
0.0
 12
94.3349702878
 22
90.3575038995
 32
0.0
 13
94.3349702878
 23
90.3575038995
 33
0.0
  0
SOLID
  5
3AB
330
3A7
100
AcDbEntity
  8
0
  6
SLD-Durchgehend
 62
     7
370
     0
100
AcDbTrace
 10
94.7749702878
 20
81.8575038995
 30
0.0
 11
94.3349702878
 21
79.3575038995
 31
0.0
 12
95.2149702878
 22
79.3575038995
 32
0.0
 13
95.2149702878
 23
79.3575038995
 33
0.0
  0
LINE
  5
3AC
330
3A7
100
AcDbEntity
  8
0
  6
SLD-Durchgehend
 62
     7
370
     0
100
AcDbLine
 10
100.5001097016
 20
87.8575038995
 30
0.0
 11
93.7749702878
 21
87.8575038995
 31
0.0
  0
LINE
  5
3AD
330
3A7
100
AcDbEntity
  8
0
  6
SLD-Durchgehend
 62
     7
370
     0
100
AcDbLine
 10
100.5001097016
 20
81.8575038995
 30
0.0
 11
93.7749702878
 21
81.8575038995
 31
0.0
  0
LINE
  5
3AE
330
3A7
100
AcDbEntity
  8
0
  6
SLD-Durchgehend
 62
     7
370
     0
100
AcDbLine
 10
94.7749702878
 20
87.8575038995
 30
0.0
 11
94.7749702878
 21
91.3575038995
 31
0.0
  0
LINE
  5
3AF
330
3A7
100
AcDbEntity
  8
0
  6
SLD-Durchgehend
 62
     7
370
     0
100
AcDbLine
 10
94.7749702878
 20
87.8575038995
 30
0.0
 11
94.7749702878
 21
81.8575038995
 31
0.0
  0
LINE
  5
3B0
330
3A7
100
AcDbEntity
  8
0
  6
SLD-Durchgehend
 62
     7
370
     0
100
AcDbLine
 10
94.7749702878
 20
81.8575038995
 30
0.0
 11
94.7749702878
 21
78.3575038995
 31
0.0
  0
MTEXT
  5
3B1
330
3A7
100
AcDbEntity
  8
0
  6
SLD-Durchgehend
 62
     7
370
     0
100
AcDbMText
 10
90.9077668356
 20
81.9950038727
 30
0.0
 40
3.0
 41
0.0
 71
     1
 72
     1
  1
M
  7
SLDTEXTSTYLE0
 11
-1.059690869644414E-14
 21
1.0
 31
0.0
 73
     1
 44
1.0
  0
MTEXT
  5
3B2
330
3A7
100
AcDbEntity
  8
0
  6
SLD-Durchgehend
 62
     7
370
     0
100
AcDbMText
 10
90.9077668356
 20
85.4283371168
 30
0.0
 40
3.0
 41
0.0
 71
     1
 72
     1
  1
6
  7
SLDTEXTSTYLE0
 11
-1.059690869644414E-14
 21
1.0
 31
0.0
 73
     1
 44
1.0
  0
ENDBLK
  5
3A9
330
3A7
100
AcDbEntity
  8
0
100
AcDbBlockEnd
  0
BLOCK
  5
3B5
330
3B4
100
AcDbEntity
  8
0
100
AcDbBlockBegin
  2
_D_19
 70
     0
 10
0.0
 20
0.0
 30
0.0
  3
_D_19
  1

  0
SOLID
  5
3B7
330
3B4
100
AcDbEntity
  8
0
  6
SLD-Durchgehend
 62
     7
370
     0
100
AcDbTrace
 10
87.0958617988
 20
93.8575038995
 30
0.0
 11
86.6558617988
 21
91.3575038995
 31
0.0
 12
87.5358617988
 22
91.3575038995
 32
0.0
 13
87.5358617988
 23
91.3575038995
 33
0.0
  0
SOLID
  5
3B8
330
3B4
100
AcDbEntity
  8
0
  6
SLD-Durchgehend
 62
     7
370
     0
100
AcDbTrace
 10
87.0958617988
 20
75.8575038995
 30
0.0
 11
87.5358617988
 21
78.3575038995
 31
0.0
 12
86.6558617988
 22
78.3575038995
 32
0.0
 13
86.6558617988
 23
78.3575038995
 33
0.0
  0
LINE
  5
3B9
330
3B4
100
AcDbEntity
  8
0
  6
SLD-Durchgehend
 62
     7
370
     0
100
AcDbLine
 10
110.5001105063
 20
93.8575038995
 30
0.0
 11
86.0958617988
 21
93.8575038995
 31
0.0
  0
LINE
  5
3BA
330
3B4
100
AcDbEntity
  8
0
  6
SLD-Durchgehend
 62
     7
370
     0
100
AcDbLine
 10
110.5001097016
 20
75.8575038995
 30
0.0
 11
86.0958617988
 21
75.8575038995
 31
0.0
  0
LINE
  5
3BB
330
3B4
100
AcDbEntity
  8
0
  6
SLD-Durchgehend
 62
     7
370
     0
100
AcDbLine
 10
87.0958617988
 20
93.8575038995
 30
0.0
 11
87.0958617988
 21
75.8575038995
 31
0.0
  0
MTEXT
  5
3BC
330
3B4
100
AcDbEntity
  8
0
  6
SLD-Durchgehend
 62
     7
370
     0
100
AcDbMText
 10
83.2286586959
 20
80.3788583885
 30
0.0
 40
3.0
 41
0.0
 71
     1
 72
     1
  1
%%c
  7
SLDTEXTSTYLE0
 11
-1.059690869644414E-14
 21
1.0
 31
0.0
 73
     1
 44
1.0
  0
MTEXT
  5
3BD
330
3B4
100
AcDbEntity
  8
0
  6
SLD-Durchgehend
 62
     7
370
     0
100
AcDbMText
 10
83.2203253379
 20
84.7528167228
 30
0.0
 40
3.0
 41
0.0
 71
     1
 72
     1
  1
18
  7
SLDTEXTSTYLE0
 11
-1.059690869644414E-14
 21
1.0
 31
0.0
 73
     1
 44
1.0
  0
ENDBLK
  5
3B6
330
3B4
100
AcDbEntity
  8
0
100
AcDbBlockEnd
  0
BLOCK
  5
3C0
330
3BF
100
AcDbEntity
  8
0
100
AcDbBlockBegin
  2
_D_20
 70
     0
 10
0.0
 20
0.0
 30
0.0
  3
_D_20
  1

  0
SOLID
  5
3C2
330
3BF
100
AcDbEntity
  8
0
  6
SLD-Durchgehend
 62
     7
370
     0
100
AcDbTrace
 10
101.5001097016
 20
99.0306770475
 30
0.0
 11
104.0001097016
 21
98.5906770475
 31
0.0
 12
104.0001097016
 22
99.4706770475
 32
0.0
 13
104.0001097016
 23
99.4706770475
 33
0.0
  0
SOLID
  5
3C3
330
3BF
100
AcDbEntity
  8
0
  6
SLD-Durchgehend
 62
     7
370
     0
100
AcDbTrace
 10
113.5001097016
 20
99.0306770475
 30
0.0
 11
111.0001097016
 21
99.4706770475
 31
0.0
 12
111.0001097016
 22
98.5906770475
 32
0.0
 13
111.0001097016
 23
98.5906770475
 33
0.0
  0
LINE
  5
3C4
330
3BF
100
AcDbEntity
  8
0
  6
SLD-Durchgehend
 62
     7
370
     0
100
AcDbLine
 10
101.5001097016
 20
93.8575038995
 30
0.0
 11
101.5001097016
 21
100.0306770475
 31
0.0
  0
LINE
  5
3C5
330
3BF
100
AcDbEntity
  8
0
  6
SLD-Durchgehend
 62
     7
370
     0
100
AcDbLine
 10
113.5001097016
 20
88.8575038995
 30
0.0
 11
113.5001097016
 21
100.0306770475
 31
0.0
  0
LINE
  5
3C6
330
3BF
100
AcDbEntity
  8
0
  6
SLD-Durchgehend
 62
     7
370
     0
100
AcDbLine
 10
101.5001097016
 20
99.0306770475
 30
0.0
 11
113.5001097016
 21
99.0306770475
 31
0.0
  0
MTEXT
  5
3C7
330
3BF
100
AcDbEntity
  8
0
  6
SLD-Durchgehend
 62
     7
370
     0
100
AcDbMText
 10
105.208443125
 20
102.8978804996
 30
0.0
 40
3.0
 41
0.0
 71
     1
 72
     1
  1
12
  7
SLDTEXTSTYLE0
 73
     1
 44
1.0
  0
ENDBLK
  5
3C1
330
3BF
100
AcDbEntity
  8
0
100
AcDbBlockEnd
  0
ENDSEC
  0
SECTION
  2
ENTITIES
  0
HATCH
  5
B5
330
1F
100
AcDbEntity
  8
0
  6
Continuous
 62
    52
100
AcDbHatch
 10
0.0
 20
0.0
 30
0.0
210
0.0
220
0.0
230
1.0
  2
SOLID
 70
     1
 71
     0
 91
        1
 92
        0
 93
        6
 72
     1
 10
286.0007687940602
 20
26.69686333522489
 11
287.3952859047893
 21
26.69686333522489
 72
     2
 10
279.2166905884208
 20
22.19368183392315
 40
9.33638393504626
 50
28.83743273930608
 51
198.8193368338524
 73
     1
 72
     1
 10
270.3794255903911
 20
19.18190290159952
 11
270.7816097341536
 21
19.18190290159952
 72
     1
 10
270.7816097341536
 20
19.18190290159952
 11
272.8103449730124
 21
26.54854125382066
 72
     1
 10
272.8103449730124
 20
26.54854125382066
 11
274.6133250240622
 21
26.54854125382066
 72
     2
 10
280.3341692458886
 20
24.54038196427236
 40
6.06306542456898
 50
199.3423480985319
 51
339.1651749394906
 73
     0
 97
        0
 75
     0
 76
     1
 98
        1
 10
0.0
 20
0.0
  0
HATCH
  5
B6
330
1F
100
AcDbEntity
  8
0
  6
Continuous
 62
     7
100
AcDbHatch
 10
0.0
 20
0.0
 30
0.0
210
0.0
220
0.0
230
1.0
  2
SOLID
 70
     1
 71
     0
 91
        2
 92
        0
 93
        6
 72
     2
 10
280.3341692458886
 20
24.54038196427236
 40
5.933065424568984
 50
198.4548941224165
 51
340.0282228512785
 73
     0
 72
     1
 10
285.9104259280544
 20
26.56686333522489
 11
287.6123864120185
 21
26.56686333522489
 72
     2
 10
279.2166905884208
 20
22.19368183392315
 40
9.466383935046276
 50
27.51427472226141
 51
199.3834076115144
 73
     1
 72
     1
 10
270.286872564177
 20
19.05190290159952
 11
270.8806480560486
 21
19.05190290159952
 72
     1
 10
270.8806480560486
 20
19.05190290159952
 11
272.9093832949075
 21
26.41854125382066
 72
     1
 10
272.9093832949075
 20
26.41854125382066
 11
274.7062226385282
 21
26.41854125382066
 97
        0
 92
        0
 93
        6
 72
     2
 10
279.2166905884208
 20
22.19368183392315
 40
9.33638393504626
 50
161.1806631661484
 51
331.1625672606947
 73
     0
 72
     1
 10
287.3952859047893
 20
26.69686333522489
 11
286.0007687940602
 21
26.69686333522489
 72
     2
 10
280.3341692458886
 20
24.54038196427236
 40
6.06306542456898
 50
20.83482506051022
 51
160.6576519014689
 73
     1
 72
     1
 10
274.6133250240622
 20
26.54854125382066
 11
272.8103449730124
 21
26.54854125382066
 72
     1
 10
272.8103449730124
 20
26.54854125382066
 11
270.7816097341536
 21
19.18190290159952
 72
     1
 10
270.7816097341536
 20
19.18190290159952
 11
270.3794255903911
 21
19.18190290159952
 97
        0
 75
     0
 76
     1
 98
        1
 10
0.0
 20
0.0
  0
HATCH
  5
B7
330
1F
100
AcDbEntity
  8
0
  6
Continuous
 62
     7
100
AcDbHatch
 10
0.0
 20
0.0
 30
0.0
210
0.0
220
0.0
230
1.0
  2
SOLID
 70
     1
 71
     0
 91
        1
 92
        0
 93
       10
 72
     1
 10
275.878263272409
 20
26.17133921476776
 11
273.255752541679
 21
26.17133921476776
 72
     1
 10
273.255752541679
 20
26.17133921476776
 11
271.4249433061572
 21
19.1013435954011
 72
     1
 10
271.4249433061572
 20
19.1013435954011
 11
273.9979725360537
 21
19.1013435954011
 72
     1
 10
273.9979725360537
 20
19.1013435954011
 11
274.9875987755305
 21
22.90826414852663
 72
     1
 10
274.9875987755305
 20
22.90826414852663
 11
276.5215202651154
 21
19.1013435954011
 72
     1
 10
276.5215202651154
 20
19.1013435954011
 11
279.1935124966801
 21
19.1013435954011
 72
     1
 10
279.1935124966801
 20
19.1013435954011
 11
280.8758772296985
 21
26.07245782716464
 72
     1
 10
280.8758772296985
 20
26.07245782716464
 11
278.4512925023055
 21
26.07245782716464
 72
     1
 10
278.4512925023055
 20
26.07245782716464
 11
277.5606280054266
 21
22.16665660141341
 72
     1
 10
277.5606280054266
 20
22.16665660141341
 11
275.878263272409
 21
26.17133921476776
 97
        0
 75
     0
 76
     1
 98
        1
 10
0.0
 20
0.0
  0
HATCH
  5
B8
330
1F
100
AcDbEntity
  8
0
  6
Continuous
 62
     7
100
AcDbHatch
 10
0.0
 20
0.0
 30
0.0
210
0.0
220
0.0
230
1.0
  2
SOLID
 70
     1
 71
     0
 91
        2
 92
        0
 93
        3
 72
     1
 10
276.0761880166766
 20
19.05190290159952
 11
275.1360432780338
 21
21.3261669517193
 72
     1
 10
275.1360432780338
 20
21.3261669517193
 11
274.5549013500251
 21
19.05190290159952
 72
     1
 10
274.5549013500251
 20
19.05190290159952
 11
276.0761880166766
 21
19.05190290159952
 97
        0
 92
        0
 93
        3
 72
     1
 10
274.7222972997865
 20
19.18190290159952
 11
275.165226990836
 21
20.91528165906799
 72
     1
 10
275.165226990836
 20
20.91528165906799
 11
275.8817783160101
 21
19.18190290159952
 72
     1
 10
275.8817783160101
 20
19.18190290159952
 11
274.7222972997865
 21
19.18190290159952
 97
        0
 75
     0
 76
     1
 98
        1
 10
0.0
 20
0.0
  0
HATCH
  5
B9
330
1F
100
AcDbEntity
  8
0
  6
Continuous
 62
    52
100
AcDbHatch
 10
0.0
 20
0.0
 30
0.0
210
0.0
220
0.0
230
1.0
  2
SOLID
 70
     1
 71
     0
 91
        1
 92
        0
 93
        3
 72
     1
 10
275.8817783160101
 20
19.18190290159952
 11
275.165226990836
 21
20.91528165906799
 72
     1
 10
275.165226990836
 20
20.91528165906799
 11
274.7222972997865
 21
19.18190290159952
 72
     1
 10
274.7222972997865
 20
19.18190290159952
 11
275.8817783160101
 21
19.18190290159952
 97
        0
 75
     0
 76
     1
 98
        1
 10
0.0
 20
0.0
  0
HATCH
  5
BA
330
1F
100
AcDbEntity
  8
0
  6
Continuous
 62
     7
100
AcDbHatch
 10
0.0
 20
0.0
 30
0.0
210
0.0
220
0.0
230
1.0
  2
SOLID
 70
     1
 71
     0
 91
        1
 92
        0
 93
        8
 72
     1
 10
283.0530569710603
 20
26.12189852096661
 11
281.4696539806409
 21
26.12189852096661
 72
     1
 10
281.4696539806409
 20
26.12189852096661
 11
280.7274339862657
 21
23.25434757518244
 72
     1
 10
280.7274339862657
 20
23.25434757518244
 11
281.1727662347047
 21
19.00246292277559
 72
     1
 10
281.1727662347047
 20
19.00246292277559
 11
284.3395709564732
 21
19.00246292277559
 72
     1
 10
284.3395709564732
 20
19.00246292277559
 11
288.5454846776285
 21
26.07245782718087
 72
     1
 10
288.5454846776285
 20
26.07245782718087
 11
285.7745294443889
 21
26.07245782718087
 72
     1
 10
285.7745294443889
 20
26.07245782718087
 11
283.5478694612618
 21
22.0677752138452
 72
     1
 10
283.5478694612618
 20
22.0677752138452
 11
283.0530569710603
 21
26.12189852096661
 97
        0
 75
     0
 76
     1
 98
        1
 10
0.0
 20
0.0
  0
HATCH
  5
BB
330
1F
100
AcDbEntity
  8
0
  6
Continuous
 62
     7
100
AcDbHatch
 10
0.0
 20
0.0
 30
0.0
210
0.0
220
0.0
230
1.0
  2
SOLID
 70
     1
 71
     0
 91
        2
 92
        0
 93
        3
 72
     1
 10
285.032309450014
 20
19.05190290159952
 11
288.0887773529078
 21
19.05190290159952
 72
     2
 10
280.6015949770799
 20
21.88049322517953
 40
8.00367560234416
 50
339.303884922883
 51
377.0191257258722
 73
     1
 72
     1
 10
288.254766470138
 20
24.22309631691353
 11
285.032309450014
 21
19.05190290159952
 97
        0
 92
        0
 93
        3
 72
     2
 10
280.6015949770799
 20
21.88049322517953
 40
7.873675602344175
 50
345.0935417050617
 51
380.0436402959713
 73
     0
 72
     1
 10
287.9983765580399
 20
19.18190290159952
 11
285.266494884586
 21
19.18190290159952
 72
     1
 10
285.266494884586
 20
19.18190290159952
 11
288.2102984795192
 21
23.90593107979706
 97
        0
 75
     0
 76
     1
 98
        1
 10
0.0
 20
0.0
  0
HATCH
  5
BC
330
1F
100
AcDbEntity
  8
0
  6
Continuous
 62
    52
100
AcDbHatch
 10
0.0
 20
0.0
 30
0.0
210
0.0
220
0.0
230
1.0
  2
SOLID
 70
     1
 71
     0
 91
        1
 92
        0
 93
        3
 72
     1
 10
285.266494884586
 20
19.18190290159952
 11
287.9983765580399
 21
19.18190290159952
 72
     2
 10
280.6015949770799
 20
21.88049322517953
 40
7.873675602344175
 50
339.9563597040303
 51
374.9064582949399
 73
     1
 72
     1
 10
288.2102984795192
 20
23.90593107979706
 11
285.266494884586
 21
19.18190290159952
 97
        0
 75
     0
 76
     1
 98
        1
 10
0.0
 20
0.0
  0
LINE
  5
BD
330
1F
100
AcDbEntity
  8
0
  6
SLD-Durchgehend
 62
     7
370
     0
100
AcDbLine
 10
148.5
 20
191.5
 30
0.0
 11
148.5
 21
208.5
 31
0.0
  0
LINE
  5
BE
330
1F
100
AcDbEntity
  8
0
  6
SLD-Durchgehend
 62
     7
370
     0
100
AcDbLine
 10
5.0
 20
191.5
 30
0.0
 11
292.0
 21
191.5
 31
0.0
  0
LINE
  5
BF
330
1F
100
AcDbEntity
  8
0
  6
SLD-Durchgehend
 62
     7
370
     0
100
AcDbLine
 10
5.0
 20
191.5
 30
0.0
 11
5.0
 21
3.5
 31
0.0
  0
LINE
  5
C0
330
1F
100
AcDbEntity
  8
0
  6
SLD-Durchgehend
 62
     7
370
     0
100
AcDbLine
 10
5.0
 20
3.5
 30
0.0
 11
292.0
 21
3.5
 31
0.0
  0
LINE
  5
C1
330
1F
100
AcDbEntity
  8
0
  6
SLD-Durchgehend
 62
     7
370
     0
100
AcDbLine
 10
292.0
 20
191.5
 30
0.0
 11
292.0
 21
3.5
 31
0.0
  0
LINE
  5
C2
330
1F
100
AcDbEntity
  8
0
  6
SLD-Durchgehend
 62
     7
370
     0
100
AcDbLine
 10
104.0
 20
38.5
 30
0.0
 11
104.0
 21
3.5
 31
0.0
  0
LINE
  5
C3
330
1F
100
AcDbEntity
  8
0
  6
SLD-Durchgehend
 62
     7
370
     0
100
AcDbLine
 10
104.0
 20
3.5
 30
0.0
 11
292.0
 21
3.5
 31
0.0
  0
LINE
  5
C4
330
1F
100
AcDbEntity
  8
0
  6
SLD-Durchgehend
 62
     7
370
     0
100
AcDbLine
 10
292.0
 20
36.0
 30
0.0
 11
292.0
 21
3.5
 31
0.0
  0
LINE
  5
C5
330
1F
100
AcDbEntity
  8
0
  6
SLD-Durchgehend
 62
     7
370
     0
100
AcDbLine
 10
104.0
 20
3.5
 30
0.0
 11
292.0
 21
3.5
 31
0.0
  0
LINE
  5
C6
330
1F
100
AcDbEntity
  8
0
  6
SLD-Durchgehend
 62
     7
370
     0
100
AcDbLine
 10
292.0
 20
38.5
 30
0.0
 11
292.0
 21
3.5
 31
0.0
  0
LINE
  5
C7
330
1F
100
AcDbEntity
  8
0
  6
SLD-Durchgehend
 62
     7
370
     0
100
AcDbLine
 10
104.0
 20
38.5
 30
0.0
 11
292.0
 21
38.5
 31
0.0
  0
LINE
  5
C8
330
1F
100
AcDbEntity
  8
0
  6
SLD-Durchgehend
 62
     7
370
     0
100
AcDbLine
 10
227.0
 20
38.5
 30
0.0
 11
227.0
 21
3.5
 31
0.0
  0
LINE
  5
C9
330
1F
100
AcDbEntity
  8
0
  6
SLD-Durchgehend
 62
     7
370
     0
100
AcDbLine
 10
156.0
 20
38.5
 30
0.0
 11
156.0
 21
3.5
 31
0.0
  0
LINE
  5
CA
330
1F
100
AcDbEntity
  8
0
  6
SLD-Durchgehend
 62
     7
370
     0
100
AcDbLine
 10
104.0
 20
18.0
 30
0.0
 11
156.0
 21
18.0
 31
0.0
  0
LINE
  5
CB
330
1F
100
AcDbEntity
  8
0
  6
SLD-Durchgehend
 62
     7
370
     0
100
AcDbLine
 10
104.0
 20
10.75
 30
0.0
 11
156.0
 21
10.75
 31
0.0
  0
LINE
  5
CC
330
1F
100
AcDbEntity
  8
0
  6
SLD-Durchgehend
 62
     7
370
     0
100
AcDbLine
 10
270.2868725642
 20
19.0519029016
 30
0.0
 11
270.880648056
 21
19.0519029016
 31
0.0
  0
LINE
  5
CD
330
1F
100
AcDbEntity
  8
0
  6
SLD-Durchgehend
 62
     7
370
     0
100
AcDbLine
 10
292.0
 20
45.5
 30
0.0
 11
292.0
 21
37.5
 31
0.0
  0
LINE
  5
CE
330
1F
100
AcDbEntity
  8
0
  6
SLD-Durchgehend
 62
     7
370
     0
100
AcDbLine
 10
270.880648056
 20
19.0519029016
 30
0.0
 11
272.9093832949
 21
26.4185412538
 31
0.0
  0
LINE
  5
CF
330
1F
100
AcDbEntity
  8
0
  6
SLD-Durchgehend
 62
     7
370
     0
100
AcDbLine
 10
0.0
 20
0.0
 30
0.0
 11
297.0
 21
0.0
 31
0.0
  0
LINE
  5
D0
330
1F
100
AcDbEntity
  8
0
  6
SLD-Durchgehend
 62
     7
370
     0
100
AcDbLine
 10
0.0
 20
0.0
 30
0.0
 11
0.0
 21
210.0
 31
0.0
  0
LINE
  5
D1
330
1F
100
AcDbEntity
  8
0
  6
SLD-Durchgehend
 62
     7
370
     0
100
AcDbLine
 10
0.0
 20
210.0
 30
0.0
 11
297.0
 21
210.0
 31
0.0
  0
LINE
  5
D2
330
1F
100
AcDbEntity
  8
0
  6
SLD-Durchgehend
 62
     7
370
     0
100
AcDbLine
 10
297.0
 20
0.0
 30
0.0
 11
297.0
 21
210.0
 31
0.0
  0
LINE
  5
D3
330
1F
100
AcDbEntity
  8
0
  6
SLD-Durchgehend
 62
     7
370
     0
100
AcDbLine
 10
272.9093832949
 20
26.4185412538
 30
0.0
 11
274.7062226385
 21
26.4185412538
 31
0.0
  0
LINE
  5
D4
330
1F
100
AcDbEntity
  8
0
  6
SLD-Durchgehend
 62
     7
370
     0
100
AcDbLine
 10
285.9104259281
 20
26.5668633352
 30
0.0
 11
287.612386412
 21
26.5668633352
 31
0.0
  0
LINE
  5
D5
330
1F
100
AcDbEntity
  8
0
  6
SLD-Durchgehend
 62
     7
370
     0
100
AcDbLine
 10
273.2557525417
 20
26.1713392148
 30
0.0
 11
275.8782632724
 21
26.1713392148
 31
0.0
  0
LINE
  5
D6
330
1F
100
AcDbEntity
  8
0
  6
SLD-Durchgehend
 62
     7
370
     0
100
AcDbLine
 10
275.8782632724
 20
26.1713392148
 30
0.0
 11
277.5606280054
 21
22.1666566014
 31
0.0
  0
LINE
  5
D7
330
1F
100
AcDbEntity
  8
0
  6
SLD-Durchgehend
 62
     7
370
     0
100
AcDbLine
 10
277.5606280054
 20
22.1666566014
 30
0.0
 11
278.4512925023
 21
26.0724578272
 31
0.0
  0
LINE
  5
D8
330
1F
100
AcDbEntity
  8
0
  6
SLD-Durchgehend
 62
     7
370
     0
100
AcDbLine
 10
278.4512925023
 20
26.0724578272
 30
0.0
 11
280.8758772297
 21
26.0724578272
 31
0.0
  0
LINE
  5
D9
330
1F
100
AcDbEntity
  8
0
  6
SLD-Durchgehend
 62
     7
370
     0
100
AcDbLine
 10
280.8758772297
 20
26.0724578272
 30
0.0
 11
279.1935124967
 21
19.1013435954
 31
0.0
  0
LINE
  5
DA
330
1F
100
AcDbEntity
  8
0
  6
SLD-Durchgehend
 62
     7
370
     0
100
AcDbLine
 10
279.1935124967
 20
19.1013435954
 30
0.0
 11
276.5215202651
 21
19.1013435954
 31
0.0
  0
LINE
  5
DB
330
1F
100
AcDbEntity
  8
0
  6
SLD-Durchgehend
 62
     7
370
     0
100
AcDbLine
 10
276.5215202651
 20
19.1013435954
 30
0.0
 11
274.9875987755
 21
22.9082641485
 31
0.0
  0
LINE
  5
DC
330
1F
100
AcDbEntity
  8
0
  6
SLD-Durchgehend
 62
     7
370
     0
100
AcDbLine
 10
274.9875987755
 20
22.9082641485
 30
0.0
 11
273.9979725361
 21
19.1013435954
 31
0.0
  0
LINE
  5
DD
330
1F
100
AcDbEntity
  8
0
  6
SLD-Durchgehend
 62
     7
370
     0
100
AcDbLine
 10
273.9979725361
 20
19.1013435954
 30
0.0
 11
271.4249433062
 21
19.1013435954
 31
0.0
  0
LINE
  5
DE
330
1F
100
AcDbEntity
  8
0
  6
SLD-Durchgehend
 62
     7
370
     0
100
AcDbLine
 10
271.4249433062
 20
19.1013435954
 30
0.0
 11
273.2557525417
 21
26.1713392148
 31
0.0
  0
LINE
  5
DF
330
1F
100
AcDbEntity
  8
0
  6
SLD-Durchgehend
 62
     7
370
     0
100
AcDbLine
 10
275.136043278
 20
21.3261669517
 30
0.0
 11
276.0761880167
 21
19.0519029016
 31
0.0
  0
LINE
  5
E0
330
1F
100
AcDbEntity
  8
0
  6
SLD-Durchgehend
 62
     7
370
     0
100
AcDbLine
 10
276.0761880167
 20
19.0519029016
 30
0.0
 11
274.55490135
 21
19.0519029016
 31
0.0
  0
LINE
  5
E1
330
1F
100
AcDbEntity
  8
0
  6
SLD-Durchgehend
 62
     7
370
     0
100
AcDbLine
 10
274.55490135
 20
19.0519029016
 30
0.0
 11
275.136043278
 21
21.3261669517
 31
0.0
  0
LINE
  5
E2
330
1F
100
AcDbEntity
  8
0
  6
SLD-Durchgehend
 62
     7
370
     0
100
AcDbLine
 10
281.4696539806
 20
26.121898521
 30
0.0
 11
283.0530569711
 21
26.121898521
 31
0.0
  0
LINE
  5
E3
330
1F
100
AcDbEntity
  8
0
  6
SLD-Durchgehend
 62
     7
370
     0
100
AcDbLine
 10
283.0530569711
 20
26.121898521
 30
0.0
 11
283.5478694613
 21
22.0677752138
 31
0.0
  0
LINE
  5
E4
330
1F
100
AcDbEntity
  8
0
  6
SLD-Durchgehend
 62
     7
370
     0
100
AcDbLine
 10
283.5478694613
 20
22.0677752138
 30
0.0
 11
285.7745294444
 21
26.0724578272
 31
0.0
  0
LINE
  5
E5
330
1F
100
AcDbEntity
  8
0
  6
SLD-Durchgehend
 62
     7
370
     0
100
AcDbLine
 10
285.7745294444
 20
26.0724578272
 30
0.0
 11
288.5454846776
 21
26.0724578272
 31
0.0
  0
LINE
  5
E6
330
1F
100
AcDbEntity
  8
0
  6
SLD-Durchgehend
 62
     7
370
     0
100
AcDbLine
 10
288.5454846776
 20
26.0724578272
 30
0.0
 11
284.3395709565
 21
19.0024629228
 31
0.0
  0
LINE
  5
E7
330
1F
100
AcDbEntity
  8
0
  6
SLD-Durchgehend
 62
     7
370
     0
100
AcDbLine
 10
284.3395709565
 20
19.0024629228
 30
0.0
 11
281.1727662347
 21
19.0024629228
 31
0.0
  0
LINE
  5
E8
330
1F
100
AcDbEntity
  8
0
  6
SLD-Durchgehend
 62
     7
370
     0
100
AcDbLine
 10
281.1727662347
 20
19.0024629228
 30
0.0
 11
280.7274339863
 21
23.2543475752
 31
0.0
  0
LINE
  5
E9
330
1F
100
AcDbEntity
  8
0
  6
SLD-Durchgehend
 62
     7
370
     0
100
AcDbLine
 10
280.7274339863
 20
23.2543475752
 30
0.0
 11
281.4696539806
 21
26.121898521
 31
0.0
  0
LINE
  5
EA
330
1F
100
AcDbEntity
  8
0
  6
SLD-Durchgehend
 62
     7
370
     0
100
AcDbLine
 10
285.03230945
 20
19.0519029016
 30
0.0
 11
288.2547664701
 21
24.2230963169
 31
0.0
  0
LINE
  5
EB
330
1F
100
AcDbEntity
  8
0
  6
SLD-Durchgehend
 62
     7
370
     0
100
AcDbLine
 10
285.03230945
 20
19.0519029016
 30
0.0
 11
288.0887773529
 21
19.0519029016
 31
0.0
  0
LINE
  5
EC
330
1F
100
AcDbEntity
  8
0
  6
SLD-Durchgehend
 62
     7
370
     0
100
AcDbLine
 10
285.2664948846
 20
19.1819029016
 30
0.0
 11
287.998376558
 21
19.1819029016
 31
0.0
  0
LINE
  5
ED
330
1F
100
AcDbEntity
  8
0
  6
SLD-Durchgehend
 62
     7
370
     0
100
AcDbLine
 10
285.2664948846
 20
19.1819029016
 30
0.0
 11
288.2102984795
 21
23.9059310798
 31
0.0
  0
LINE
  5
EE
330
1F
100
AcDbEntity
  8
0
  6
SLD-Durchgehend
 62
     7
370
     0
100
AcDbLine
 10
286.0007687941
 20
26.6968633352
 30
0.0
 11
287.3952859048
 21
26.6968633352
 31
0.0
  0
LINE
  5
EF
330
1F
100
AcDbEntity
  8
0
  6
SLD-Durchgehend
 62
     7
370
     0
100
AcDbLine
 10
270.3794255904
 20
19.1819029016
 30
0.0
 11
270.7816097342
 21
19.1819029016
 31
0.0
  0
LINE
  5
F0
330
1F
100
AcDbEntity
  8
0
  6
SLD-Durchgehend
 62
     7
370
     0
100
AcDbLine
 10
270.7816097342
 20
19.1819029016
 30
0.0
 11
272.810344973
 21
26.5485412538
 31
0.0
  0
LINE
  5
F1
330
1F
100
AcDbEntity
  8
0
  6
SLD-Durchgehend
 62
     7
370
     0
100
AcDbLine
 10
272.810344973
 20
26.5485412538
 30
0.0
 11
274.6133250241
 21
26.5485412538
 31
0.0
  0
LINE
  5
F2
330
1F
100
AcDbEntity
  8
0
  6
SLD-Durchgehend
 62
     7
370
     0
100
AcDbLine
 10
275.1652269908
 20
20.9152816591
 30
0.0
 11
275.881778316
 21
19.1819029016
 31
0.0
  0
LINE
  5
F3
330
1F
100
AcDbEntity
  8
0
  6
SLD-Durchgehend
 62
     7
370
     0
100
AcDbLine
 10
275.881778316
 20
19.1819029016
 30
0.0
 11
274.7222972998
 21
19.1819029016
 31
0.0
  0
LINE
  5
F4
330
1F
100
AcDbEntity
  8
0
  6
SLD-Durchgehend
 62
     7
370
     0
100
AcDbLine
 10
274.7222972998
 20
19.1819029016
 30
0.0
 11
275.1652269908
 21
20.9152816591
 31
0.0
  0
LINE
  5
F5
330
1F
100
AcDbEntity
  8
0
  6
SLD-Durchgehend
 62
     7
370
     0
100
AcDbLine
 10
104.0
 20
25.25
 30
0.0
 11
156.0
 21
25.25
 31
0.0
  0
CIRCLE
  5
F6
330
1F
100
AcDbEntity
  8
0
  6
SLD-Durchgehend
 62
     7
370
     0
100
AcDbCircle
 10
108.5
 20
200.0
 30
0.0
 40
3.000000000000006
  0
CIRCLE
  5
F7
330
1F
100
AcDbEntity
  8
0
  6
SLD-Durchgehend
 62
     7
370
     0
100
AcDbCircle
 10
188.5
 20
200.0
 30
0.0
 40
2.999999999999993
  0
ARC
  5
F8
330
1F
100
AcDbEntity
  8
0
  6
SLD-Durchgehend
 62
     7
370
     0
100
AcDbCircle
 10
279.2166905884
 20
22.1936818339
 30
0.0
 40
9.466383935046293
100
AcDbArc
 50
27.5142747223
 51
199.3834076115
  0
ARC
  5
F9
330
1F
100
AcDbEntity
  8
0
  6
SLD-Durchgehend
 62
     7
370
     0
100
AcDbCircle
 10
280.3341692459
 20
24.5403819643
 30
0.0
 40
5.933065424569047
100
AcDbArc
 50
19.9717771487
 51
161.5451058776
  0
ARC
  5
FA
330
1F
100
AcDbEntity
  8
0
  6
SLD-Durchgehend
 62
     7
370
     0
100
AcDbCircle
 10
280.6015949771
 20
21.8804932252
 30
0.0
 40
8.003675602344165
100
AcDbArc
 50
339.3038849229
 51
17.0191257259
  0
CIRCLE
  5
FB
330
1F
100
AcDbEntity
  8
0
  6
SLD-Durchgehend
 62
     7
370
     0
100
AcDbCircle
 10
289.3866676737
 20
25.5286123403
 30
0.0
 40
0.6921638106894162
  0
ARC
  5
FC
330
1F
100
AcDbEntity
  8
0
  6
SLD-Durchgehend
 62
     7
370
     0
100
AcDbCircle
 10
280.6015949771
 20
21.8804932252
 30
0.0
 40
7.873675602344177
100
AcDbArc
 50
339.956359704
 51
14.9064582949
  0
ARC
  5
FD
330
1F
100
AcDbEntity
  8
0
  6
SLD-Durchgehend
 62
     7
370
     0
100
AcDbCircle
 10
280.3341692459
 20
24.5403819643
 30
0.0
 40
6.063065424569004
100
AcDbArc
 50
20.8348250605
 51
160.6576519015
  0
ARC
  5
FE
330
1F
100
AcDbEntity
  8
0
  6
SLD-Durchgehend
 62
     7
370
     0
100
AcDbCircle
 10
279.2166905884
 20
22.1936818339
 30
0.0
 40
9.33638393504628
100
AcDbArc
 50
28.8374327393
 51
198.8193368339
  0
INSERT
  5
FF
330
1F
100
AcDbEntity
  8
0
  6
Continuous
 62
     7
100
AcDbBlockReference
  2
Zuluft Text
 10
184.657255366
 20
110.457362616
 30
0.0
 41
0.8
 42
0.8
 43
0.8
  0
LEADER
  5
100
330
1F
100
AcDbEntity
  8
0
  6
Continuous
 62
     7
100
AcDbLeader
  3
SLDDIMSTYLE0
 76
     2
 10
171.9012395579
 20
102.192618484
 30
0.0
 10
184.657255366
 20
110.457362616
 30
0.0
  0
INSERT
  5
101
330
1F
100
AcDbEntity
  8
0
  6
Continuous
 62
     7
100
AcDbBlockReference
  2
Kolben schwingt-Text
 10
77.803165326
 20
97.6353521067
 30
0.0
 41
0.8
 42
0.8
 43
0.8
  0
INSERT
  5
102
330
1F
100
AcDbEntity
  8
0
  6
Continuous
 62
     7
100
AcDbBlockReference
  2
Pfeil
 10
169.8498323607
 20
113.1899074678
 30
0.0
 41
0.8
 42
0.8
 43
0.8
 50
90.0
  0
INSERT
  5
103
330
1F
100
AcDbEntity
  8
0
  6
Continuous
 62
     7
100
AcDbBlockReference
  2
Pfeil
 10
139.805898651
 20
122.5087903453
 30
0.0
 41
0.8
 42
0.8
 43
0.8
 50
270.0
  0
MTEXT
  5
104
330
1F
100
AcDbEntity
  8
0
  6
Continuous
 62
     7
370
     0
100
AcDbMText
 10
117.333368457
 20
7.4923828508
 30
0.0
 40
3.0
 41
0.0
 71
     1
 72
     1
  1
03318200
  7
SLDTEXTSTYLE0
 73
     1
 44
1.0
  0
MTEXT
  5
105
330
1F
100
AcDbEntity
  8
0
  6
Continuous
 62
     7
370
     0
100
AcDbMText
 10
159.5042038186
 20
12.4849420031
 30
0.0
 40
4.0
 41
0.0
 71
     1
 72
     1
  1
Vibrateur pneum. à piston
  7
SLDTEXTSTYLE0
 73
     1
 44
1.0
  0
MTEXT
  5
106
330
1F
100
AcDbEntity
  8
0
  6
Continuous
 62
     7
370
     0
100
AcDbMText
 10
105.3772893016
 20
10.4901396032
 30
0.0
 40
2.0
 41
0.0
 71
     1
 72
     1
  1
Bestell Nr.: / Part no.: / No d`article:
  7
SLDTEXTSTYLE0
 73
     1
 44
1.0
  0
INSERT
  5
110
330
1F
100
AcDbEntity
  8
0
  6
Continuous
 62
     7
370
     0
100
AcDbBlockReference
  2
SW_NOTE_5
 10
229.2177413053
 20
12.0976931256
 30
0.0
  0
MTEXT
  5
111
330
1F
100
AcDbEntity
  8
0
  6
Continuous
 62
     7
370
     0
100
AcDbMText
 10
229.2177413053
 20
17.8281708005
 30
0.0
 40
1.8520833333
 41
0.0
 71
     1
 72
     1
  1
Fritz-Lenges-Straße 3,  55252 Mainz-Kastel
  7
SLDTEXTSTYLE0
 73
     1
 44
1.0
  0
INSERT
  5
117
330
1F
100
AcDbEntity
  8
0
  6
Continuous
 62
     7
370
     0
100
AcDbBlockReference
  2
SW_NOTE_6
 10
229.2177413053
 20
18.0066254519
 30
0.0
  0
MTEXT
  5
118
330
1F
100
AcDbEntity
  8
0
  6
Continuous
 62
     7
370
     0
100
AcDbMText
 10
289.0748866834
 20
25.8708309295
 30
0.0
 40
0.65
 41
0.0
 71
     1
 72
     1
  1
R
  7
SLDTEXTSTYLE0
 73
     1
 44
1.0
  0
MTEXT
  5
119
330
1F
100
AcDbEntity
  8
0
  6
Continuous
 62
     7
370
     0
100
AcDbMText
 10
159.5042038186
 20
19.4879186679
 30
0.0
 40
4.0
 41
0.0
 71
     1
 72
     1
  1
Pneumatic linear vibrator
  7
SLDTEXTSTYLE0
 73
     1
 44
1.0
  0
MTEXT
  5
11A
330
1F
100
AcDbEntity
  8
0
  6
Continuous
 62
     7
370
     0
100
AcDbMText
 10
159.5042038186
 20
26.495794101
 30
0.0
 40
4.0
 41
0.0
 71
     1
 72
     1
  1
Druckluft-Kolbenvibrator
  7
SLDTEXTSTYLE0
 73
     1
 44
1.0
  0
MTEXT
  5
11C
330
1F
100
AcDbEntity
  8
0
  6
Continuous
 62
     7
370
     0
100
AcDbMText
 10
159.5042038186
 20
35.9994003142
 30
0.0
 40
4.0
 41
0.0
 71
     1
 72
     1
  1
NTK 18 AL KV
  7
SLDTEXTSTYLE3
 73
     1
 44
1.0
  0
MTEXT
  5
11D
330
1F
100
AcDbEntity
  8
0
  6
Continuous
 62
     7
370
     0
100
AcDbMText
 10
105.3772893016
 20
17.4931162681
 30
0.0
 40
2.0
 41
0.0
 71
     1
 72
     1
  1
Angebot Nr.: / Quotation no.: / Offre no.:
  7
SLDTEXTSTYLE0
 73
     1
 44
1.0
  0
MTEXT
  5
11E
330
1F
100
AcDbEntity
  8
0
  6
Continuous
 62
     7
370
     0
100
AcDbMText
 10
107.29574253
 20
29.4761667171
 30
0.0
 40
2.5
 41
0.0
 71
     1
 72
     1
  1
tous droits réservés
  7
SLDTEXTSTYLE0
 73
     1
 44
1.0
  0
MTEXT
  5
11F
330
1F
100
AcDbEntity
  8
0
  6
Continuous
 62
     7
370
     0
100
AcDbMText
 10
107.29574253
 20
33.4119842663
 30
0.0
 40
2.5
 41
0.0
 71
     1
 72
     1
  1
all rights reserved
  7
SLDTEXTSTYLE0
 73
     1
 44
1.0
  0
MTEXT
  5
120
330
1F
100
AcDbEntity
  8
0
  6
Continuous
 62
     7
370
     0
100
AcDbMText
 10
107.29574253
 20
37.4078205846
 30
0.0
 40
2.5
 41
0.0
 71
     1
 72
     1
  1
alle Schutzrechte vorbehalten
  7
SLDTEXTSTYLE0
 73
     1
 44
1.0
  0
MTEXT
  5
121
330
1F
100
AcDbEntity
  8
0
  6
Continuous
 62
     7
370
     0
100
AcDbMText
 10
105.3772893016
 20
24.5009917012
 30
0.0
 40
2.0
 41
0.0
 71
     1
 72
     1
  1
Datum: / Date: / Date:
  7
SLDTEXTSTYLE0
 73
     1
 44
1.0
  0
MTEXT
  5
122
330
1F
100
AcDbEntity
  8
0
  6
Continuous
 62
     7
370
     0
100
AcDbMText
 10
117.333368457
 20
21.9923321822
 30
0.0
 40
3.0
 41
0.0
 71
     1
 72
     1
  1
12.11.20
  7
SLDTEXTSTYLE0
 73
     1
 44
1.0
  0
LINE
  5
123
330
1F
100
AcDbEntity
  8
0
  6
SLD-Durchgehend
 62
     7
370
    15
100
AcDbLine
 10
48.8728575663
 20
132.6105570339
 30
0.0
 11
48.8517299306
 21
132.7211790735
 31
0.0
  0
LINE
  5
124
330
1F
100
AcDbEntity
  8
0
  6
SLD-Durchgehend
 62
     7
370
    15
100
AcDbLine
 10
45.9049930366
 20
132.1583837038
 30
0.0
 11
45.9261206723
 21
132.0477616642
 31
0.0
  0
LINE
  5
125
330
1F
100
AcDbEntity
  8
0
  6
SLD-Durchgehend
 62
     7
370
    15
100
AcDbLine
 10
61.7771596258
 20
138.2165296044
 30
0.0
 11
61.7560319901
 21
138.327151644
 31
0.0
  0
LINE
  5
126
330
1F
100
AcDbEntity
  8
0
  6
SLD-Durchgehend
 62
     7
370
    15
100
AcDbLine
 10
58.809294578
 20
137.7643560492
 30
0.0
 11
58.8304222137
 21
137.6537340096
 31
0.0
  0
LINE
  5
127
330
1F
100
AcDbEntity
  8
0
  6
SLD-Durchgehend
 62
     7
370
    15
100
AcDbLine
 10
83.3158090969
 20
133.6207297787
 30
0.0
 11
82.6804312691
 21
133.3447047246
 31
0.0
  0
LINE
  5
128
330
1F
100
AcDbEntity
  8
0
  6
SLD-Durchgehend
 62
     7
370
    15
100
AcDbLine
 10
83.353410351
 20
129.8210589794
 30
0.0
 11
84.7103894251
 21
130.4105668376
 31
0.0
  0
SPLINE
  5
129
330
1F
100
AcDbEntity
  8
0
  6
SLD-Durchgehend
 62
     7
370
    15
100
AcDbSpline
210
0.0
220
0.0
230
1.0
 70
     8
 71
     3
 72
    16
 73
    12
 74
     0
 42
0.000000001
 43
0.00000001
 40
0.0
 40
0.0
 40
0.0
 40
0.0
 40
0.004634778682889
 40
0.1369744197460625
 40
0.2694896251642092
 40
0.4026617479831072
 40
0.5373775163297052
 40
0.6755251948159895
 40
0.8222058617960888
 40
0.9137354424954964
 40
0.9999999999999999
 40
0.9999999999999999
 40
0.9999999999999999
 40
0.9999999999999999
 10
84.55270085439967
 20
132.2155021036953
 30
0.0
 10
84.55121498818322
 20
132.2192266798883
 30
0.0
 10
84.50730228452579
 20
132.3293013345245
 30
0.0
 10
84.40401764526571
 20
132.5426666874886
 30
0.0
 10
84.2491050547561
 20
132.8380775272352
 30
0.0
 10
84.08684963474045
 20
133.1016611766875
 30
0.0
 10
83.92494814524333
 20
133.3240114553597
 30
0.0
 10
83.7628285093963
 20
133.4996180429914
 30
0.0
 10
83.62001575680618
 20
133.6032440537391
 30
0.0
 10
83.46825833942253
 20
133.6562007902228
 30
0.0
 10
83.37355873197201
 20
133.6355610150863
 30
0.0
 10
83.32761109941733
 20
133.6255467306609
 30
0.0
  0
SPLINE
  5
12A
330
1F
100
AcDbEntity
  8
0
  6
SLD-Durchgehend
 62
     7
370
    15
100
AcDbSpline
210
0.0
220
0.0
230
1.0
 70
     8
 71
     3
 72
    16
 73
    12
 74
     0
 42
0.000000001
 43
0.00000001
 40
0.0
 40
0.0
 40
0.0
 40
0.0
 40
0.0189731122380415
 40
0.1091027494308038
 40
0.1978892411889097
 40
0.3066033509892047
 40
0.4501856361420765
 40
0.5951895525203087
 40
0.7338032022702811
 40
0.8697838132238888
 40
0.9999999999999999
 40
0.9999999999999999
 40
0.9999999999999999
 40
0.9999999999999999
 10
84.70978577858097
 20
130.4163961845128
 30
0.0
 10
84.71954353989052
 20
130.4188100671402
 30
0.0
 10
84.77565444957195
 20
130.4326908278788
 30
0.0
 10
84.8473584947597
 20
130.5193581084144
 30
0.0
 10
84.90191634348959
 20
130.6396622832183
 30
0.0
 10
84.92479806791034
 20
130.7981187576752
 30
0.0
 10
84.9157076970804
 20
131.010420351724
 30
0.0
 10
84.86802671630863
 20
131.2835547786264
 30
0.0
 10
84.78707509484114
 20
131.5868360564312
 30
0.0
 10
84.68230655123166
 20
131.9014813689017
 30
0.0
 10
84.59527453459069
 20
132.1123506322458
 30
0.0
 10
84.55270085439967
 20
132.2155021036953
 30
0.0
  0
LINE
  5
12B
330
1F
100
AcDbEntity
  8
0
  6
SLD-Durchgehend
 62
     7
370
    15
100
AcDbLine
 10
81.5551697704
 20
142.8392488748
 30
0.0
 11
80.1872849216
 21
142.2450032576
 31
0.0
  0
LINE
  5
12C
330
1F
100
AcDbEntity
  8
0
  6
SLD-Durchgehend
 62
     7
370
    15
100
AcDbLine
 10
81.5927710245
 20
139.0395780756
 30
0.0
 11
82.9497500986
 21
139.6290859337
 31
0.0
  0
SPLINE
  5
12D
330
1F
100
AcDbEntity
  8
0
  6
SLD-Durchgehend
 62
     7
370
    15
100
AcDbSpline
210
0.0
220
0.0
230
1.0
 70
     8
 71
     3
 72
    16
 73
    12
 74
     0
 42
0.000000001
 43
0.00000001
 40
0.0
 40
0.0
 40
0.0
 40
0.0
 40
0.0046346356323064
 40
0.1369742998246003
 40
0.2694896167916166
 40
0.4026617083059202
 40
0.5373775001969165
 40
0.675525202827397
 40
0.8222058954430109
 40
0.9137354274189607
 40
1.0
 40
1.0
 40
1.0
 40
1.0
 10
82.79206152790924
 20
141.4340211998257
 30
0.0
 10
82.79057568288603
 20
141.437745661547
 30
0.0
 10
82.74666228864145
 20
141.5478202341711
 30
0.0
 10
82.64337864324212
 20
141.7611854115059
 30
0.0
 10
82.48846571694665
 20
142.0565966686778
 30
0.0
 10
82.32621036886236
 20
142.3201798621928
 30
0.0
 10
82.16430888648601
 20
142.5425302196374
 30
0.0
 10
82.00218922120384
 20
142.7181368523942
 30
0.0
 10
81.85937661669526
 20
142.8217625725404
 30
0.0
 10
81.70761893311568
 20
142.8747199930828
 30
0.0
 10
81.61291939066824
 20
142.8540801485384
 30
0.0
 10
81.5669717729269
 20
142.8440658267913
 30
0.0
  0
SPLINE
  5
12E
330
1F
100
AcDbEntity
  8
0
  6
SLD-Durchgehend
 62
     7
370
    15
100
AcDbSpline
210
0.0
220
0.0
230
1.0
 70
     8
 71
     3
 72
    16
 73
    12
 74
     0
 42
0.000000001
 43
0.00000001
 40
0.0
 40
0.0
 40
0.0
 40
0.0
 40
0.0189731119133653
 40
0.1091026082962864
 40
0.1978892593405396
 40
0.3066031968806083
 40
0.4501856573615967
 40
0.5951895712584587
 40
0.7338030413135525
 40
0.869783815452205
 40
1.0
 40
1.0
 40
1.0
 40
1.0
 10
82.94914645209053
 20
139.6349152806432
 30
0.0
 10
82.95890421134939
 20
139.6373291649343
 30
0.0
 10
83.01501503761392
 20
139.6512099175214
 30
0.0
 10
83.08671947658367
 20
139.7378768469992
 30
0.0
 10
83.14127683317285
 20
139.8581813549327
 30
0.0
 10
83.16415893163249
 20
140.0166375773511
 30
0.0
 10
83.1550683257448
 20
140.2289393961864
 30
0.0
 10
83.10738745035158
 20
140.5020737229855
 30
0.0
 10
83.02643571652845
 20
140.8053550975831
 30
0.0
 10
82.92166729906653
 20
141.1200003190194
 30
0.0
 10
82.83463521473956
 20
141.3308697234813
 30
0.0
 10
82.79206152790924
 20
141.4340211998257
 30
0.0
  0
LINE
  5
12F
330
1F
100
AcDbEntity
  8
0
  6
SLD-Durchgehend
 62
     7
370
    15
100
AcDbLine
 10
76.1331853919
 20
149.7612124428
 30
0.0
 11
74.7653005431
 21
149.1669668256
 31
0.0
  0
LINE
  5
130
330
1F
100
AcDbEntity
  8
0
  6
SLD-Durchgehend
 62
     7
370
    15
100
AcDbLine
 10
76.9954813626
 20
146.3198109974
 30
0.0
 11
77.5277657201
 21
146.5510495017
 31
0.0
  0
SPLINE
  5
131
330
1F
100
AcDbEntity
  8
0
  6
SLD-Durchgehend
 62
     7
370
    15
100
AcDbSpline
210
0.0
220
0.0
230
1.0
 70
     8
 71
     3
 72
    16
 73
    12
 74
     0
 42
0.000000001
 43
0.00000001
 40
0.0
 40
0.0
 40
0.0
 40
0.0
 40
0.0046346357781957
 40
0.1369744370858914
 40
0.2694897582242308
 40
0.4026616842791724
 40
0.5373776575730371
 40
0.6755253645521372
 40
0.8222058898464003
 40
0.9137354247035206
 40
1.0
 40
1.0
 40
1.0
 40
1.0
 10
77.3700771494118
 20
148.3559847678192
 30
0.0
 10
77.36859130440183
 20
148.3597092295543
 30
0.0
 10
77.32467786792557
 20
148.469783909427
 30
0.0
 10
77.22139408765877
 20
148.6831491184892
 30
0.0
 10
77.0664812117789
 20
148.9785603511869
 30
0.0
 10
76.90422584520303
 20
149.2421436795241
 30
0.0
 10
76.74232437894385
 20
149.4644939310992
 30
0.0
 10
76.58020470767195
 20
149.6401006634074
 30
0.0
 10
76.43739215994556
 20
149.7437261463581
 30
0.0
 10
76.28563455421519
 20
149.7966835652181
 30
0.0
 10
76.19093501203912
 20
149.7760437178849
 30
0.0
 10
76.14498739442946
 20
149.7660293947848
 30
0.0
  0
SPLINE
  5
132
330
1F
100
AcDbEntity
  8
0
  6
SLD-Durchgehend
 62
     7
370
    15
100
AcDbSpline
210
0.0
220
0.0
230
1.0
 70
     8
 71
     3
 72
    16
 73
    12
 74
     0
 42
0.000000001
 43
0.00000001
 40
0.0
 40
0.0
 40
0.0
 40
0.0
 40
0.0189731137703883
 40
0.1091025222157253
 40
0.197889181950111
 40
0.3066031301307264
 40
0.4501856397491182
 40
0.5951895678384653
 40
0.7338030892981927
 40
0.8697838027070921
 40
1.0
 40
1.0
 40
1.0
 40
1.0
 10
77.52716207359309
 20
146.5568788486367
 30
0.0
 10
77.53691983384822
 20
146.5592927294867
 30
0.0
 10
77.59303061607915
 20
146.5731734499765
 30
0.0
 10
77.66473487778535
 20
146.6598408657916
 30
0.0
 10
77.71929227381008
 20
146.7801451161059
 30
0.0
 10
77.74217429689088
 20
146.938601521508
 30
0.0
 10
77.73308400743925
 20
147.1509028365275
 30
0.0
 10
77.68540313057424
 20
147.4240372716677
 30
0.0
 10
77.60445104891633
 20
147.7273189263863
 30
0.0
 10
77.49968295841772
 20
148.0419639042402
 30
0.0
 10
77.41265085662647
 20
148.2528332778679
 30
0.0
 10
77.3700771494118
 20
148.3559847678192
 30
0.0
  0
LINE
  5
133
330
1F
100
AcDbEntity
  8
0
  6
SLD-Durchgehend
 62
     7
370
    15
100
AcDbLine
 10
82.5202822402
 20
134.1832356679
 30
0.0
 11
83.0900994372
 21
134.4307794375
 31
0.0
  0
LINE
  5
134
330
1F
100
AcDbEntity
  8
0
  6
SLD-Durchgehend
 62
     7
370
    15
100
AcDbLine
 10
78.1094555146
 20
145.8956470964
 30
0.0
 11
77.5262029469
 21
145.6422666438
 31
0.0
  0
LINE
  5
135
330
1F
100
AcDbEntity
  8
0
  6
SLD-Durchgehend
 62
     7
370
    15
100
AcDbLine
 10
43.0061066996
 20
128.6832998575
 30
0.0
 11
38.5563467257
 21
126.7502055883
 31
0.0
  0
LINE
  5
136
330
1F
100
AcDbEntity
  8
0
  6
SLD-Durchgehend
 62
     7
370
    15
100
AcDbLine
 10
42.1025651308
 20
118.5872200742
 30
0.0
 11
46.5523251047
 21
120.5203143434
 31
0.0
  0
LINE
  5
137
330
1F
100
AcDbEntity
  8
0
  6
SLD-Durchgehend
 62
     7
370
    15
100
AcDbLine
 10
43.2086725181
 20
128.8258143528
 30
0.0
 11
42.986184105
 21
128.7291594593
 31
0.0
  0
LINE
  5
138
330
1F
100
AcDbEntity
  8
0
  6
SLD-Durchgehend
 62
     7
370
    15
100
AcDbLine
 10
46.5722476994
 20
120.4744547416
 30
0.0
 11
46.7947361125
 21
120.5711096351
 31
0.0
  0
ARC
  5
139
330
1F
100
AcDbEntity
  8
0
  6
SLD-Durchgehend
 62
     7
370
    15
100
AcDbCircle
 10
46.8705209532
 20
132.4684487243
 30
0.0
 40
1.014092931977876
100
AcDbArc
 50
197.8036537561
 51
265.9814874676
  0
ARC
  5
13A
330
1F
100
AcDbEntity
  8
0
  6
SLD-Durchgehend
 62
     7
370
    15
100
AcDbCircle
 10
47.8387823435
 20
132.6538299587
 30
0.0
 40
1.015184080602858
100
AcDbArc
 50
295.4884072753
 51
3.8038975562
  0
LWPOLYLINE
  5
13B
330
1F
100
AcDbEntity
  8
0
  6
SLD-Durchgehend
 62
     7
370
    15
100
AcDbPolyline
 90
        8
 70
   128
 43
0.0
 10
47.6446360516
 20
131.3681176483
 10
47.3002515528
 20
131.3201280393
 10
46.9612165221
 20
131.3265352959
 10
46.6458094889
 20
131.3869945122
 10
46.3710329846
 20
131.4982458901
 10
46.1517013365
 20
131.6542922422
 10
45.9996377358
 20
131.8467206288
 10
45.9261206723
 20
132.0477616642
  0
LWPOLYLINE
  5
13C
330
1F
100
AcDbEntity
  8
0
  6
SLD-Durchgehend
 62
     7
370
    15
100
AcDbPolyline
 90
        8
 70
   128
 43
0.0
 10
48.8728575663
 20
132.6105570339
 10
48.8844790461
 20
132.4778317429
 10
48.8414724755
 20
132.2427281644
 10
48.7207285073
 20
132.0122842694
 10
48.5287560138
 20
131.7989230929
 10
48.2759043456
 20
131.6141470195
 10
47.9758049737
 20
131.4679175083
 10
47.6446360516
 20
131.3681176483
  0
ARC
  5
13D
330
1F
100
AcDbEntity
  8
0
  6
SLD-Durchgehend
 62
     7
370
    15
100
AcDbCircle
 10
59.7748225944
 20
138.0744214231
 30
0.0
 40
1.014093134984528
100
AcDbArc
 50
197.8036710416
 51
265.9815002282
  0
ARC
  5
13E
330
1F
100
AcDbEntity
  8
0
  6
SLD-Durchgehend
 62
     7
370
    15
100
AcDbCircle
 10
60.7430829676
 20
138.2598033922
 30
0.0
 40
1.015185455550031
100
AcDbArc
 50
295.4884243983
 51
3.8038435812
  0
LWPOLYLINE
  5
13F
330
1F
100
AcDbEntity
  8
0
  6
SLD-Durchgehend
 62
     7
370
    15
100
AcDbPolyline
 90
        8
 70
   128
 43
0.0
 10
60.5489379168
 20
136.9740901344
 10
60.2045532237
 20
136.926100441
 10
59.8655184779
 20
136.9325078214
 10
59.5501111339
 20
136.9929669027
 10
59.2753348886
 20
137.1042183931
 10
59.0560028779
 20
137.2602645876
 10
58.9039395881
 20
137.4526931093
 10
58.8304222137
 20
137.6537340096
  0
LWPOLYLINE
  5
140
330
1F
100
AcDbEntity
  8
0
  6
SLD-Durchgehend
 62
     7
370
    15
100
AcDbPolyline
 90
        8
 70
   128
 43
0.0
 10
61.7771596258
 20
138.2165296044
 10
61.7887808983
 20
138.0838042234
 10
61.7457744313
 20
137.8487006899
 10
61.6250301524
 20
137.6182566599
 10
61.4330576588
 20
137.4048954834
 10
61.1802060424
 20
137.2201194325
 10
60.8801066188
 20
137.0738898987
 10
60.5489379168
 20
136.9740901344
  0
LINE
  5
141
330
1F
100
AcDbEntity
  8
0
  6
SLD-Durchgehend
 62
     7
370
    15
100
AcDbLine
 10
79.4564573153
 20
140.1324642992
 30
0.0
 11
72.2994378145
 21
149.2694563636
 31
0.0
  0
LINE
  5
142
330
1F
100
AcDbEntity
  8
0
  6
SLD-Durchgehend
 62
     7
370
    15
100
AcDbLine
 10
81.7805011791
 20
127.9640193395
 30
0.0
 11
79.4564573153
 21
140.1324642992
 31
0.0
  0
LINE
  5
143
330
1F
100
AcDbEntity
  8
0
  6
SLD-Durchgehend
 62
     7
370
    15
100
AcDbLine
 10
79.4564573153
 20
140.1324642992
 30
0.0
 11
81.2363613049
 21
140.9057020068
 31
0.0
  0
LINE
  5
144
330
1F
100
AcDbEntity
  8
0
  6
SLD-Durchgehend
 62
     7
370
    15
100
AcDbLine
 10
83.5604051686
 20
128.7372570472
 30
0.0
 11
81.2363613049
 21
140.9057020068
 31
0.0
  0
LINE
  5
145
330
1F
100
AcDbEntity
  8
0
  6
SLD-Durchgehend
 62
     7
370
    15
100
AcDbLine
 10
81.7805011791
 20
127.9640193395
 30
0.0
 11
83.5604051686
 21
128.7372570472
 31
0.0
  0
LINE
  5
146
330
1F
100
AcDbEntity
  8
0
  6
SLD-Durchgehend
 62
     7
370
    15
100
AcDbLine
 10
72.2994378145
 20
149.2694563636
 30
0.0
 11
74.0793418041
 21
150.0426940713
 31
0.0
  0
LINE
  5
147
330
1F
100
AcDbEntity
  8
0
  6
SLD-Durchgehend
 62
     7
370
    15
100
AcDbLine
 10
81.2363613049
 20
140.9057020068
 30
0.0
 11
74.0793418041
 21
150.0426940713
 31
0.0
  0
LWPOLYLINE
  5
148
330
1F
100
AcDbEntity
  8
0
  6
SLD-Durchgehend
 62
     7
370
    15
100
AcDbPolyline
 90
       12
 70
   128
 43
0.0
 10
78.1094555146
 20
145.8956470964
 10
78.2471887208
 20
145.9267374012
 10
78.4459670696
 20
145.8975903831
 10
78.6728236578
 20
145.7936870185
 10
78.9248010687
 20
145.6163816055
 10
79.1986143778
 20
145.3679859152
 10
79.4906938877
 20
145.0517382651
 10
79.7972320761
 20
144.6717609822
 10
80.1142325915
 20
144.2330082398
 10
80.4375630572
 20
143.741198905
 10
80.7630081371
 20
143.2027454169
 10
81.0815624125
 20
142.6335009581
  0
LWPOLYLINE
  5
149
330
1F
100
AcDbEntity
  8
0
  6
SLD-Durchgehend
 62
     7
370
    15
100
AcDbPolyline
 90
       14
 70
   128
 43
0.0
 10
82.5181088139
 20
139.4415693142
 10
82.5274811897
 20
139.416101504
 10
82.7542543526
 20
138.7694680661
 10
82.9529408546
 20
138.1410038282
 10
83.1209499801
 20
137.5389026697
 10
83.256091919
 20
136.9710131277
 10
83.3566047248
 20
136.4447388331
 10
83.4211780702
 20
135.9669405195
 10
83.4489702509
 20
135.5438469929
 10
83.43961861
 20
135.1809741593
 10
83.3932454899
 20
134.8830522793
 10
83.3104551194
 20
134.6539654909
 10
83.1923270167
 20
134.4966999863
 10
83.0900994372
 20
134.4307794375
  0
LWPOLYLINE
  5
14A
330
1F
100
AcDbEntity
  8
0
  6
SLD-Durchgehend
 62
     7
370
    15
100
AcDbPolyline
 90
       25
 70
   128
 43
0.0
 10
43.0061066996
 20
128.6832998575
 10
43.1540256857
 20
128.7039995672
 10
43.3346707881
 20
128.6493632363
 10
43.5422249705
 20
128.5193288319
 10
43.7728219965
 20
128.3163181879
 10
44.0221662037
 20
128.0441133916
 10
44.2856128297
 20
127.7077848779
 10
44.5582543542
 20
127.3135978211
 10
44.8350119474
 20
126.8688953872
 10
45.1107302073
 20
126.381961168
 10
45.3802729645
 20
125.8618662298
 10
45.6386191061
 20
125.3182988683
 10
45.8809562861
 20
124.7613843381
 10
46.1027700626
 20
124.201497435
 10
46.2999285022
 20
123.6490674282
 10
46.468759157
 20
123.1143849383
 10
46.6061165219
 20
122.6074106791
 10
46.7094423369
 20
122.1375880754
 10
46.7768116502
 20
121.7136692548
 10
46.8069696952
 20
121.3435507545
 10
46.7993542241
 20
121.0341277949
 10
46.7541076384
 20
120.7911635919
 10
46.6720724533
 20
120.619184749
 10
46.5547769516
 20
120.5213944337
 10
46.5523251047
 20
120.5203143434
  0
LWPOLYLINE
  5
14B
330
1F
100
AcDbEntity
  8
0
  6
SLD-Durchgehend
 62
     7
370
    15
100
AcDbPolyline
 90
       17
 70
   128
 43
0.0
 10
40.0470309721
 20
120.7986129358
 10
39.7700382176
 20
121.3253195388
 10
39.5039375068
 20
121.8781824712
 10
39.2539100265
 20
122.4464371947
 10
39.024823918
 20
123.0190197541
 10
38.8211393674
 20
123.5847818191
 10
38.6468224336
 20
124.1327075543
 10
38.5052670828
 20
124.6521287133
 10
38.3992294936
 20
125.1329318563
 10
38.3307739786
 20
125.5657559329
 10
38.3012336661
 20
125.9421733574
 10
38.3111837042
 20
126.2548550976
 10
38.3604304076
 20
126.4977130738
 10
38.4480146412
 20
126.666019188
 10
38.5722314131
 20
126.7564958696
 10
38.7306620661
 20
126.7673818378
 10
38.9202217664
 20
126.6984653496
  0
LWPOLYLINE
  5
14C
330
1F
100
AcDbEntity
  8
0
  6
SLD-Durchgehend
 62
     7
370
    15
100
AcDbPolyline
 90
       17
 70
   128
 43
0.0
 10
40.6118808844
 20
124.5388127267
 10
40.888873639
 20
124.0121061237
 10
41.1549743498
 20
123.4592431914
 10
41.4050018301
 20
122.8909884679
 10
41.6340879385
 20
122.3184059084
 10
41.8377724892
 20
121.7526438434
 10
42.012089423
 20
121.2047181082
 10
42.1536447738
 20
120.6852969492
 10
42.259682363
 20
120.2044938062
 10
42.3281378779
 20
119.7716697297
 10
42.3576781905
 20
119.3952523051
 10
42.3477281523
 20
119.082570565
 10
42.298481449
 20
118.8397125887
 10
42.2108972154
 20
118.6714064746
 10
42.0866804434
 20
118.580929793
 10
41.9282497905
 20
118.5700438248
 10
41.7386900901
 20
118.6389603129
  0
LINE
  5
14D
330
1F
100
AcDbEntity
  8
0
  6
SLD-Durchgehend
 62
     7
370
    15
100
AcDbLine
 10
44.6166640321
 20
126.2785972089
 30
0.0
 11
40.6118808844
 21
124.5388127267
 31
0.0
  0
ARC
  5
14E
330
1F
100
AcDbEntity
  8
0
  6
SLD-Durchgehend
 62
     7
370
    15
100
AcDbCircle
 10
39.2694639913
 20
123.8324933136
 30
0.0
 40
5.880133718169325
100
AcDbArc
 50
24.5819670378
 51
51.561335322
  0
LINE
  5
14F
330
1F
100
AcDbEntity
  8
0
  6
SLD-Durchgehend
 62
     7
370
    15
100
AcDbLine
 10
42.9250049141
 20
128.4382498318
 30
0.0
 11
38.9202217664
 21
126.6984653496
 31
0.0
  0
LWPOLYLINE
  5
150
330
1F
100
AcDbEntity
  8
0
  6
SLD-Durchgehend
 62
     7
370
    15
100
AcDbPolyline
 90
       29
 70
   128
 43
0.0
 10
41.0343139278
 20
121.7688575288
 10
40.965710349
 20
122.0580895758
 10
40.8652023489
 20
122.3779407715
 10
40.7378298019
 20
122.71237248
 10
40.5899796749
 20
123.0446149142
 10
40.4290657963
 20
123.3580080381
 10
40.2631570631
 20
123.6368370445
 10
40.1005728145
 20
123.8671203206
 10
39.9494657424
 20
124.0373103292
 10
39.8174129629
 20
124.1388731852
 10
39.7110361443
 20
124.1667160993
 10
39.6356694861
 20
124.1194428475
 10
39.5950921902
 20
123.9994239099
 10
39.5913389391
 20
123.8126775944
 10
39.6245979288
 20
123.5685681338
 10
39.6932015076
 20
123.2793360868
 10
39.7937095076
 20
122.959484891
 10
39.9210820546
 20
122.6250531826
 10
40.0689321817
 20
122.2928107483
 10
40.2298460603
 20
121.9794176244
 10
40.3957547934
 20
121.700588618
 10
40.558339042
 20
121.4703053419
 10
40.7094461142
 20
121.3001153333
 10
40.8414988937
 20
121.1985524773
 10
40.9478757122
 20
121.1707095632
 10
41.0232423705
 20
121.217982815
 10
41.0638196664
 20
121.3380017526
 10
41.0675729175
 20
121.5247480681
 10
41.0343139278
 20
121.7688575288
  0
LINE
  5
151
330
1F
100
AcDbEntity
  8
0
  6
SLD-Durchgehend
 62
     7
370
    15
100
AcDbLine
 10
41.7386900901
 20
118.6389603129
 30
0.0
 11
40.0470309721
 21
120.7986129358
 31
0.0
  0
LINE
  5
152
330
1F
100
AcDbEntity
  8
0
  6
SLD-Durchgehend
 62
     7
370
    15
100
AcDbLine
 10
38.9202217664
 20
126.6984653496
 30
0.0
 11
40.6118808844
 21
124.5388127267
 31
0.0
  0
LWPOLYLINE
  5
153
330
1F
100
AcDbEntity
  8
0
  6
SLD-Durchgehend
 62
     7
370
    15
100
AcDbPolyline
 90
       28
 70
   128
 43
0.0
 10
42.8576920632
 20
128.6188247193
 10
42.865091276
 20
128.6291780351
 10
42.9837047402
 20
128.7280671078
 10
43.1357651356
 20
128.7500916067
 10
43.318439962
 20
128.6948413869
 10
43.5283261475
 20
128.5633461232
 10
43.7615141415
 20
128.3580545113
 10
44.0136600131
 20
128.0827910435
 10
44.2800667243
 20
127.742683544
 10
44.555771613
 20
127.3440675836
 10
44.8356388514
 20
126.8943684433
 10
45.1144550619
 20
126.4019629459
 10
45.3870263969
 20
125.8760242275
 10
45.6482752994
 20
125.3263493883
 10
45.8933354221
 20
124.7631772886
 10
46.1176414672
 20
124.1969994564
 10
46.3170151987
 20
123.6383624417
 10
46.4877426932
 20
123.097672463
 10
46.6266434792
 20
122.5850017426
 10
46.731130238
 20
122.1099002676
 10
46.7992565259
 20
121.6812183021
 10
46.8297533554
 20
121.306941237
 10
46.8220524467
 20
120.9940414585
 10
46.7762973897
 20
120.7483475334
 10
46.6933405284
 20
120.5744361658
 10
46.5747270642
 20
120.4755470931
 10
46.4226666688
 20
120.4535225942
 10
46.403910501
 20
120.4558390335
  0
LINE
  5
154
330
1F
100
AcDbEntity
  8
0
  6
SLD-Durchgehend
 62
     7
370
    15
100
AcDbLine
 10
42.9250049141
 20
128.4382498318
 30
0.0
 11
44.6166640321
 21
126.2785972089
 31
0.0
  0
LINE
  5
155
330
1F
100
AcDbEntity
  8
0
  6
SLD-Durchgehend
 62
     7
370
    15
100
AcDbLine
 10
47.4181921338
 20
126.2141884415
 30
0.0
 11
79.4564573153
 21
140.1324642992
 31
0.0
  0
LINE
  5
156
330
1F
100
AcDbEntity
  8
0
  6
SLD-Durchgehend
 62
     7
370
    15
100
AcDbLine
 10
47.4181921338
 20
126.2141884415
 30
0.0
 11
40.261172633
 21
135.351180506
 31
0.0
  0
LINE
  5
157
330
1F
100
AcDbEntity
  8
0
  6
SLD-Durchgehend
 62
     7
370
    15
100
AcDbLine
 10
40.261172633
 20
135.351180506
 30
0.0
 11
72.2994378145
 21
149.2694563636
 31
0.0
  0
LINE
  5
158
330
1F
100
AcDbEntity
  8
0
  6
SLD-Durchgehend
 62
     7
370
    15
100
AcDbLine
 10
49.7422359976
 20
114.0457434819
 30
0.0
 11
81.7805011791
 21
127.9640193395
 31
0.0
  0
LINE
  5
159
330
1F
100
AcDbEntity
  8
0
  6
SLD-Durchgehend
 62
     7
370
    15
100
AcDbLine
 10
49.7422359976
 20
114.0457434819
 30
0.0
 11
47.4181921338
 21
126.2141884415
 31
0.0
  0
LINE
  5
15A
330
1F
100
AcDbEntity
  8
0
  6
SLD-Durchgehend
 62
     7
370
    15
100
AcDbLine
 10
40.261172633
 20
135.351180506
 30
0.0
 11
41.6474001553
 21
128.0930415487
 31
0.0
  0
LINE
  5
15B
330
1F
100
AcDbEntity
  8
0
  6
SLD-Durchgehend
 62
     7
370
    15
100
AcDbLine
 10
45.1484242848
 20
119.9104223696
 30
0.0
 11
49.7422359976
 21
114.0457434819
 31
0.0
  0
LWPOLYLINE
  5
15C
330
1F
100
AcDbEntity
  8
0
  6
SLD-Durchgehend
 62
     7
370
    15
100
AcDbPolyline
 90
       25
 70
   128
 43
0.0
 10
43.2086725181
 20
128.8258143528
 10
43.2782054853
 20
128.8454017336
 10
43.4459641761
 20
128.8287500842
 10
43.6427033158
 20
128.7351590849
 10
43.8647580945
 20
128.5663720841
 10
44.1079920888
 20
128.3255330379
 10
44.3678741945
 20
128.0171286762
 10
44.6395633561
 20
127.6469038333
 10
44.917998533
 20
127.2217551625
 10
45.1979929939
 20
126.7496021859
 10
45.4743309186
 20
126.2392404666
 10
45.7418647284
 20
125.7001769719
 10
45.9956108727
 20
125.1424531234
 10
46.2308422201
 20
124.57645894
 10
46.4431771055
 20
124.0127372959
 10
46.6286602702
 20
123.4617892456
 10
46.7838361451
 20
122.9338782492
 10
46.9058142401
 20
122.4388381459
 10
46.9923224413
 20
121.9858904625
 10
47.0417492614
 20
121.5834727731
 10
47.0531738638
 20
121.2390814997
 10
47.0263832672
 20
120.959132246
 10
46.9618769643
 20
120.7488392521
 10
46.8608563645
 20
120.6121203239
 10
46.7947361125
 20
120.5711096351
  0
ARC
  5
15D
330
1F
100
AcDbEntity
  8
0
  6
SLD-Durchgehend
 62
     8
370
     0
100
AcDbCircle
 10
47.1564374239
 20
133.5398731155
 30
0.0
 40
2.113392135449453
100
AcDbArc
 50
260.2752800023
 51
282.7680895409
  0
ARC
  5
15E
330
1F
100
AcDbEntity
  8
0
  6
SLD-Durchgehend
 62
     8
370
     0
100
AcDbCircle
 10
47.1989681195
 20
133.5001605639
 30
0.0
 40
2.065520956345101
100
AcDbArc
 50
281.8609169176
 51
301.4169176522
  0
LWPOLYLINE
  5
15F
330
1F
100
AcDbEntity
  8
0
  6
SLD-Durchgehend
 62
     8
370
     0
100
AcDbPolyline
 90
       27
 70
   128
 43
0.0
 10
47.59308018
 20
131.6165579379
 10
47.9135823526
 20
131.7141924026
 10
48.202161098
 20
131.8582815552
 10
48.4420451795
 20
132.0404514546
 10
48.6192933367
 20
132.2501150344
 10
48.7236043806
 20
132.4750872556
 10
48.7489155222
 20
132.702293337
 10
48.6937573131
 20
132.9185295945
 10
48.56133416
 20
133.1112285868
 10
48.3593426622
 20
133.2691916576
 10
48.09952087
 20
133.3832381184
 10
47.7969700574
 20
133.4467406683
 10
47.4692718223
 20
133.456007993
 10
47.1354723439
 20
133.4105022658
 10
46.8149701713
 20
133.3128678011
 10
46.5263914259
 20
133.1687786485
 10
46.2865073444
 20
132.9866087491
 10
46.1092591871
 20
132.7769451693
 10
46.0049481432
 20
132.551972948
 10
45.9796370016
 20
132.3247668666
 10
46.0347952108
 20
132.1085306091
 10
46.1672183638
 20
131.9158316168
 10
46.3692098617
 20
131.7578685461
 10
46.6290316538
 20
131.6438220853
 10
46.9315824665
 20
131.5803195354
 10
47.2592807016
 20
131.5710522107
 10
47.59308018
 20
131.6165579379
  0
ARC
  5
160
330
1F
100
AcDbEntity
  8
0
  6
SLD-Durchgehend
 62
     8
370
     0
100
AcDbCircle
 10
60.0607392558
 20
139.1458461086
 30
0.0
 40
2.113392637184364
100
AcDbArc
 50
260.2752828932
 51
282.7680873841
  0
ARC
  5
161
330
1F
100
AcDbEntity
  8
0
  6
SLD-Durchgehend
 62
     8
370
     0
100
AcDbCircle
 10
60.1032732354
 20
139.1061244047
 30
0.0
 40
2.06551182754713
100
AcDbArc
 50
281.8608779627
 51
301.4169544567
  0
LWPOLYLINE
  5
162
330
1F
100
AcDbEntity
  8
0
  6
SLD-Durchgehend
 62
     8
370
     0
100
AcDbPolyline
 90
       27
 70
   128
 43
0.0
 10
60.4973818963
 20
137.2225303593
 10
60.8178843861
 20
137.3201649619
 10
61.1064631574
 20
137.4642541257
 10
61.3463471354
 20
137.6464239801
 10
61.5235950854
 20
137.8560874699
 10
61.6279059221
 20
138.0810596011
 10
61.6532176853
 20
138.3082659525
 10
61.5980591653
 20
138.524502075
 10
61.4656360123
 20
138.7172010673
 10
61.2636442036
 20
138.875164003
 10
61.0038228259
 20
138.9892106439
 10
60.7012715989
 20
139.0527130137
 10
60.3735738818
 20
139.0619805635
 10
60.0397741961
 20
139.0164747462
 10
59.7192717127
 20
138.9188401465
 10
59.4306929156
 20
138.7747509715
 10
59.190808957
 20
138.5925811255
 10
59.0135610394
 20
138.3829176498
 10
58.9092501509
 20
138.157945496
 10
58.8839383877
 20
137.9307391446
 10
58.9390969595
 20
137.7145030446
 10
59.0715200607
 20
137.5218040298
 10
59.2735118694
 20
137.3638410941
 10
59.5333332471
 20
137.2497944533
 10
59.8358844482
 20
137.1862920722
 10
60.1635821783
 20
137.177024528
 10
60.4973818963
 20
137.2225303593
  0
LWPOLYLINE
  5
163
330
1F
100
AcDbEntity
  8
0
  6
SLD-Durchgehend
 62
     8
370
     0
100
AcDbPolyline
 90
       17
 70
   128
 43
0.0
 10
84.7103894251
 20
130.4105668376
 10
84.7453996049
 20
130.4351482717
 10
84.7964934489
 20
130.5423378065
 10
84.8109567048
 20
130.7184174357
 10
84.7881130014
 20
130.9551544833
 10
84.7290305286
 20
131.2414788292
 10
84.6364718314
 20
131.5640024879
 10
84.5147649327
 20
131.9076448168
 10
84.3696008333
 20
132.2563369117
 10
84.2077669665
 20
132.5937750467
 10
84.0368307145
 20
132.9041804778
 10
83.8647849621
 20
133.173038895
 10
83.6996740895
 20
133.3877791516
 10
83.5492185319
 20
133.5383603379
 10
83.4204537532
 20
133.617740994
 10
83.3194003357
 20
133.6222094009
 10
83.3158090969
 20
133.6207297787
  0
LWPOLYLINE
  5
164
330
1F
100
AcDbEntity
  8
0
  6
SLD-Durchgehend
 62
     8
370
     0
100
AcDbPolyline
 90
       17
 70
   128
 43
0.0
 10
82.9497500986
 20
139.6290859337
 10
82.9847602784
 20
139.6536673678
 10
83.035854188
 20
139.7608565592
 10
83.0503173783
 20
139.9369365318
 10
83.0274737405
 20
140.173673236
 10
82.9683912677
 20
140.4599975819
 10
82.8758325049
 20
140.7825215841
 10
82.7541256062
 20
141.126163913
 10
82.6089615068
 20
141.4748560078
 10
82.44712764
 20
141.8122941428
 10
82.2761914536
 20
142.1226992305
 10
82.1041457012
 20
142.3915576477
 10
81.9390346974
 20
142.6062985911
 10
81.7885792054
 20
142.756879434
 10
81.6598144923
 20
142.8362597467
 10
81.5587610092
 20
142.8407284971
 10
81.5551697704
 20
142.8392488748
  0
LWPOLYLINE
  5
165
330
1F
100
AcDbEntity
  8
0
  6
SLD-Durchgehend
 62
     8
370
     0
100
AcDbPolyline
 90
       17
 70
   128
 43
0.0
 10
77.5277657201
 20
146.5510495017
 10
77.5627756979
 20
146.5756311936
 10
77.6138696075
 20
146.6828203851
 10
77.6283327979
 20
146.8589003577
 10
77.60548916
 20
147.0956370618
 10
77.5464066872
 20
147.3819614078
 10
77.4538479245
 20
147.7044854099
 10
77.3321412277
 20
148.0481274809
 10
77.1869769263
 20
148.3968198337
 10
77.0251432615
 20
148.7342577108
 10
76.8542070751
 20
149.0446627985
 10
76.6821611207
 20
149.3135214736
 10
76.517050117
 20
149.528262417
 10
76.3665948269
 20
149.678843002
 10
76.2378299118
 20
149.7582235726
 10
76.1367764287
 20
149.7626923229
 10
76.1331853919
 20
149.7612124428
  0
LINE
  5
166
330
1F
100
AcDbEntity
  8
0
  6
SLD-Durchgehend
 62
     7
370
    15
100
AcDbLine
 10
131.5001112513
 20
93.8575035121
 30
0.0
 11
131.000110238
 21
93.8575035121
 31
0.0
  0
LINE
  5
167
330
1F
100
AcDbEntity
  8
0
  6
SLD-Durchgehend
 62
     7
370
    15
100
AcDbLine
 10
131.000110238
 20
75.8575042869
 30
0.0
 11
131.5001112513
 21
75.8575042869
 31
0.0
  0
LINE
  5
168
330
1F
100
AcDbEntity
  8
0
  6
SLD-Durchgehend
 62
     7
370
    15
100
AcDbLine
 10
131.000110238
 20
93.7575036819
 30
0.0
 11
130.0001082115
 21
93.7575036819
 31
0.0
  0
LINE
  5
169
330
1F
100
AcDbEntity
  8
0
  6
SLD-Durchgehend
 62
     7
370
    15
100
AcDbLine
 10
130.0001082115
 20
75.957504117
 30
0.0
 11
131.000110238
 21
75.957504117
 31
0.0
  0
ARC
  5
16A
330
1F
100
AcDbEntity
  8
0
  6
SLD-Durchgehend
 62
     7
370
    15
100
AcDbCircle
 10
211.1001097016
 20
100.4575038995
 30
0.0
 40
0.4000000000000057
100
AcDbArc
 50
0.0
 51
90.0
  0
ARC
  5
16B
330
1F
100
AcDbEntity
  8
0
  6
SLD-Durchgehend
 62
     7
370
    15
100
AcDbCircle
 10
211.1001097016
 20
94.2575038995
 30
0.0
 40
0.4000000000000057
100
AcDbArc
 50
270.0
 51
0.0
  0
LINE
  5
16C
330
1F
100
AcDbEntity
  8
0
  6
SLD-Durchgehend
 62
     7
370
    15
100
AcDbLine
 10
211.1001101427
 20
100.8575046594
 30
0.0
 11
207.5001088075
 21
100.8575046594
 31
0.0
  0
LINE
  5
16D
330
1F
100
AcDbEntity
  8
0
  6
SLD-Durchgehend
 62
     7
370
    15
100
AcDbLine
 10
207.5001088075
 20
93.8575035121
 30
0.0
 11
211.1001101427
 21
93.8575035121
 31
0.0
  0
ARC
  5
16E
330
1F
100
AcDbEntity
  8
0
  6
SLD-Durchgehend
 62
     7
370
    15
100
AcDbCircle
 10
211.1001097016
 20
75.4575038995
 30
0.0
 40
0.4000000000000057
100
AcDbArc
 50
0.0
 51
90.0
  0
ARC
  5
16F
330
1F
100
AcDbEntity
  8
0
  6
SLD-Durchgehend
 62
     7
370
    15
100
AcDbCircle
 10
211.1001097016
 20
69.2575038995
 30
0.0
 40
0.4000000000000057
100
AcDbArc
 50
270.0
 51
0.0
  0
LINE
  5
170
330
1F
100
AcDbEntity
  8
0
  6
SLD-Durchgehend
 62
     7
370
    15
100
AcDbLine
 10
211.1001101427
 20
75.8575042869
 30
0.0
 11
207.5001088075
 21
75.8575042869
 31
0.0
  0
LINE
  5
171
330
1F
100
AcDbEntity
  8
0
  6
SLD-Durchgehend
 62
     7
370
    15
100
AcDbLine
 10
207.5001088075
 20
68.8575031395
 30
0.0
 11
211.1001101427
 21
68.8575031395
 31
0.0
  0
LINE
  5
172
330
1F
100
AcDbEntity
  8
0
  6
SLD-Durchgehend
 62
     7
370
    15
100
AcDbLine
 10
131.000110238
 20
93.8575035121
 30
0.0
 11
131.000110238
 21
75.8575042869
 31
0.0
  0
LINE
  5
173
330
1F
100
AcDbEntity
  8
0
  6
SLD-Durchgehend
 62
     7
370
    15
100
AcDbLine
 10
130.0001082115
 20
75.957504117
 30
0.0
 11
130.0001082115
 21
76.8575035195
 31
0.0
  0
LINE
  5
174
330
1F
100
AcDbEntity
  8
0
  6
SLD-Durchgehend
 62
     7
370
    15
100
AcDbLine
 10
130.0001082115
 20
76.8575035195
 30
0.0
 11
121.0001085989
 21
76.8575035195
 31
0.0
  0
LINE
  5
175
330
1F
100
AcDbEntity
  8
0
  6
SLD-Durchgehend
 62
     7
370
    15
100
AcDbLine
 10
121.0001085989
 20
92.8575042795
 30
0.0
 11
121.0001085989
 21
76.8575035195
 31
0.0
  0
LINE
  5
176
330
1F
100
AcDbEntity
  8
0
  6
SLD-Durchgehend
 62
     7
370
    15
100
AcDbLine
 10
130.0001082115
 20
92.8575042795
 30
0.0
 11
121.0001085989
 21
92.8575042795
 31
0.0
  0
LINE
  5
177
330
1F
100
AcDbEntity
  8
0
  6
SLD-Durchgehend
 62
     7
370
    15
100
AcDbLine
 10
130.0001082115
 20
92.8575042795
 30
0.0
 11
130.0001082115
 21
93.7575036819
 31
0.0
  0
LINE
  5
178
330
1F
100
AcDbEntity
  8
0
  6
SLD-Durchgehend
 62
     7
370
    15
100
AcDbLine
 10
187.0339562289
 20
101.3575038101
 30
0.0
 11
203.5001081519
 21
101.3575038101
 31
0.0
  0
LINE
  5
179
330
1F
100
AcDbEntity
  8
0
  6
SLD-Durchgehend
 62
     7
370
    15
100
AcDbLine
 10
159.1385969065
 20
68.3575039889
 30
0.0
 11
203.5001081519
 21
68.3575039889
 31
0.0
  0
LINE
  5
17A
330
1F
100
AcDbEntity
  8
0
  6
SLD-Durchgehend
 62
     7
370
    15
100
AcDbLine
 10
131.5001112513
 20
68.3575039889
 30
0.0
 11
142.3574530624
 21
68.3575039889
 31
0.0
  0
LINE
  5
17B
330
1F
100
AcDbEntity
  8
0
  6
SLD-Durchgehend
 62
     7
370
    15
100
AcDbLine
 10
203.5001081519
 20
68.3575039889
 30
0.0
 11
203.5001081519
 21
101.3575038101
 31
0.0
  0
LINE
  5
17C
330
1F
100
AcDbEntity
  8
0
  6
SLD-Durchgehend
 62
     7
370
    15
100
AcDbLine
 10
131.5001112513
 20
68.3575039889
 30
0.0
 11
131.5001112513
 21
97.1040753807
 31
0.0
  0
SPLINE
  5
17D
330
1F
100
AcDbEntity
  8
0
  6
SLD-Durchgehend
 62
     7
370
     0
100
AcDbSpline
210
0.0
220
0.0
230
1.0
 70
     8
 71
     3
 72
    17
 73
    13
 74
     0
 42
0.000000001
 43
0.00000001
 40
0.5499533484601973
 40
0.5499533484601973
 40
0.5499533484601973
 40
0.5499533484601973
 40
0.5554572746871549
 40
0.6189846675745563
 40
0.6596062730479311
 40
0.7002385192647671
 40
0.770077309286144
 40
0.8518718068205583
 40
0.9300140855161005
 40
0.9569924908187263
 40
0.9726343536212714
 40
0.9911766857495701
 40
0.9911766857495701
 40
0.9911766857495701
 40
0.9911766857495701
 10
131.5001097016022
 20
97.10407536789882
 30
0.0
 10
131.7656589526535
 20
97.06139717244203
 30
0.0
 10
135.1028330020877
 20
96.55293356967717
 30
0.0
 10
139.2020437632603
 20
95.41525388344478
 30
0.0
 10
145.5512897678071
 20
95.70909173677767
 30
0.0
 10
151.8000092310243
 20
97.12008649354388
 30
0.0
 10
159.9932399971931
 20
98.25276162649955
 30
0.0
 10
169.8658952695914
 20
96.24461832014696
 30
0.0
 10
177.5525662660643
 20
99.31017500488066
 30
0.0
 10
182.7576951639454
 20
99.07927621261115
 30
0.0
 10
185.2881246567941
 20
99.71851605712091
 30
0.0
 10
186.5688371119204
 20
100.6970177102351
 30
0.0
 10
187.033957014137
 20
101.3575038979255
 30
0.0
  0
SPLINE
  5
17E
330
1F
100
AcDbEntity
  8
0
  6
SLD-Durchgehend
 62
     7
370
     0
100
AcDbSpline
210
0.0
220
0.0
230
1.0
 70
     8
 71
     3
 72
    11
 73
     7
 74
     0
 42
0.000000001
 43
0.00000001
 40
0.2049701049859224
 40
0.2049701049859224
 40
0.2049701049859224
 40
0.2049701049859224
 40
0.2814231626206054
 40
0.4505115122160701
 40
0.592068829125567
 40
0.7861373360675767
 40
0.7861373360675767
 40
0.7861373360675767
 40
0.7861373360675767
 10
159.1385964496332
 20
68.35750388681078
 30
0.0
 10
159.2890305550311
 20
69.6833659469985
 30
0.0
 10
158.7938079723055
 20
74.41436697337069
 30
0.0
 10
154.1931879126236
 20
80.16983624924283
 30
0.0
 10
144.8666024627352
 20
78.31982223347474
 30
0.0
 10
141.6912164134205
 20
71.24683344129645
 30
0.0
 10
142.3574535824676
 20
68.35750389940745
 30
0.0
  0
LINE
  5
17F
330
1F
100
AcDbEntity
  8
0
  6
SLD-Durchgehend
 62
     7
370
    15
100
AcDbLine
 10
166.4001097076
 20
97.3575040857
 30
0.0
 11
165.5001096066
 21
97.3575040857
 31
0.0
  0
SPLINE
  5
180
330
1F
100
AcDbEntity
  8
0
  6
SLD-Durchgehend
 62
     7
370
    15
100
AcDbSpline
210
0.0
220
0.0
230
1.0
 70
     8
 71
     3
 72
    10
 73
     6
 74
     0
 42
0.000000001
 43
0.00000001
 40
0.0
 40
0.0
 40
0.0
 40
0.0
 40
0.388904362850277
 40
0.7805390488931733
 40
1.0
 40
1.0
 40
1.0
 40
1.0
 10
170.6001097906366
 20
97.35750408574918
 30
0.0
 10
170.5986153357499
 20
97.35725399754499
 30
0.0
 10
170.5956159340787
 20
97.35675206537938
 30
0.0
 10
170.5783263164161
 20
97.35384328058366
 30
0.0
 10
170.558652905114
 20
97.35061565493993
 30
0.0
 10
170.5515876516685
 20
97.34945652738193
 30
0.0
  0
SPLINE
  5
181
330
1F
100
AcDbEntity
  8
0
  6
SLD-Durchgehend
 62
     7
370
    15
100
AcDbSpline
210
0.0
220
0.0
230
1.0
 70
     8
 71
     3
 72
    22
 73
    18
 74
     0
 42
0.000000001
 43
0.00000001
 40
0.0
 40
0.0
 40
0.0
 40
0.0
 40
0.0536824311870403
 40
0.1196018681895269
 40
0.1837835202304034
 40
0.2484054798854788
 40
0.3137054339449824
 40
0.379931781328938
 40
0.4446732139238747
 40
0.5103347325720129
 40
0.5764643521910499
 40
0.6435578602680729
 40
0.7083246897366324
 40
0.7740342867870547
 40
0.8402248834767088
 40
0.9074067320740371
 40
1.0
 40
1.0
 40
1.0
 40
1.0
 10
167.9030943475183
 20
97.19445651128868
 30
0.0
 10
167.8569999496223
 20
97.19677388599811
 30
0.0
 10
167.7543038537203
 20
97.20193688511
 30
0.0
 10
167.6025055159099
 20
97.21219489545949
 30
0.0
 10
167.4475421201949
 20
97.22440140421456
 30
0.0
 10
167.3004661187615
 20
97.23782705735215
 30
0.0
 10
167.1602156586243
 20
97.25222722990624
 30
0.0
 10
167.0293588549146
 20
97.26709393070773
 30
0.0
 10
166.9086138440471
 20
97.28201750696165
 30
0.0
 10
166.7990413836051
 20
97.29655834798524
 30
0.0
 10
166.7003043598729
 20
97.31047586774551
 30
0.0
 10
166.6149374083707
 20
97.32313197856797
 30
0.0
 10
166.5431876575973
 20
97.33420936755473
 30
0.0
 10
166.4854003778856
 20
97.3434259755064
 30
0.0
 10
166.441734329587
 20
97.35056074836075
 30
0.0
 10
166.4077494271748
 20
97.35621491008116
 30
0.0
 10
166.4029126997301
 20
97.35703109073322
 30
0.0
 10
166.4001097075626
 20
97.35750408574918
 30
0.0
  0
LINE
  5
182
330
1F
100
AcDbEntity
  8
0
  6
SLD-Durchgehend
 62
     7
370
    15
100
AcDbLine
 10
153.6001100309
 20
76.3575034375
 30
0.0
 11
153.6001100309
 21
68.3575039889
 31
0.0
  0
LINE
  5
183
330
1F
100
AcDbEntity
  8
0
  6
SLD-Durchgehend
 62
     7
370
    15
100
AcDbLine
 10
151.5001089416
 20
77.3367500092
 30
0.0
 11
153.6001100309
 21
76.3575034375
 31
0.0
  0
LINE
  5
184
330
1F
100
AcDbEntity
  8
0
  6
SLD-Durchgehend
 62
     7
370
    15
100
AcDbLine
 10
149.4001087837
 20
76.3575034375
 30
0.0
 11
151.5001089416
 21
77.3367500092
 31
0.0
  0
LINE
  5
185
330
1F
100
AcDbEntity
  8
0
  6
SLD-Durchgehend
 62
     7
370
    15
100
AcDbLine
 10
149.4001087837
 20
68.3575039889
 30
0.0
 11
149.4001087837
 21
76.3575034375
 31
0.0
  0
LINE
  5
186
330
1F
100
AcDbEntity
  8
0
  6
SLD-Durchgehend
 62
     7
370
    15
100
AcDbLine
 10
153.6001100309
 20
68.3575039889
 30
0.0
 11
159.1385969065
 21
68.3575039889
 31
0.0
  0
LINE
  5
187
330
1F
100
AcDbEntity
  8
0
  6
SLD-Durchgehend
 62
     7
370
    15
100
AcDbLine
 10
142.3574530624
 20
68.3575039889
 30
0.0
 11
149.4001087837
 21
68.3575039889
 31
0.0
  0
LINE
  5
188
330
1F
100
AcDbEntity
  8
0
  6
SLD-Durchgehend
 62
     7
370
    15
100
AcDbLine
 10
149.4001087837
 20
76.3575034375
 30
0.0
 11
153.6001100309
 21
76.3575034375
 31
0.0
  0
LINE
  5
189
330
1F
100
AcDbEntity
  8
0
  6
SLD-Durchgehend
 62
     7
370
    15
100
AcDbLine
 10
149.4001087837
 20
68.3575039889
 30
0.0
 11
153.6001100309
 21
68.3575039889
 31
0.0
  0
LINE
  5
18A
330
1F
100
AcDbEntity
  8
0
  6
SLD-Durchgehend
 62
     7
370
    15
100
AcDbLine
 10
145.5001098208
 20
95.8575038399
 30
0.0
 11
141.6001089953
 21
95.8575038399
 31
0.0
  0
SPLINE
  5
18B
330
1F
100
AcDbEntity
  8
0
  6
SLD-Durchgehend
 62
     7
370
    15
100
AcDbSpline
210
0.0
220
0.0
230
1.0
 70
     8
 71
     3
 72
    20
 73
    16
 74
     0
 42
0.000000001
 43
0.00000001
 40
0.0
 40
0.0
 40
0.0
 40
0.0
 40
0.0679444908205169
 40
0.1363674596516535
 40
0.2062948340215908
 40
0.2767390647632047
 40
0.3446822972227666
 40
0.4828367117332146
 40
0.5532012188599008
 40
0.6218958978313299
 40
0.7615795940393373
 40
0.8327335521578121
 40
0.9019476427597564
 40
0.9716493541940905
 40
1.0
 40
1.0
 40
1.0
 40
1.0
 10
141.6001089952871
 20
95.85750383988002
 30
0.0
 10
141.5987486099286
 20
95.85724365991453
 30
0.0
 10
141.5960182591195
 20
95.85672146774681
 30
0.0
 10
141.5737614463598
 20
95.8524928136742
 30
0.0
 10
141.5377664655639
 20
95.84574447906056
 30
0.0
 10
141.4871628223302
 20
95.8364529787562
 30
0.0
 10
141.4018096529682
 20
95.82121643894153
 30
0.0
 10
141.2898350425267
 20
95.80217517189332
 30
0.0
 10
141.1533941991241
 20
95.78085116901484
 30
0.0
 10
141.0008953142963
 20
95.75849885131481
 30
0.0
 10
140.8259969517126
 20
95.73559378972683
 30
0.0
 10
140.6329565303418
 20
95.71408459391611
 30
0.0
 10
140.4796595994603
 20
95.69926416311046
 30
0.0
 10
140.3530415613544
 20
95.68832910117808
 30
0.0
 10
140.2752988614885
 20
95.68319183683708
 30
0.0
 10
140.2528205059454
 20
95.68170645937303
 30
0.0
  0
LINE
  5
18C
330
1F
100
AcDbEntity
  8
0
  6
SLD-Durchgehend
 62
     7
370
    15
100
AcDbLine
 10
141.6001089953
 20
95.8575038399
 30
0.0
 11
141.6001089953
 21
101.3575038101
 31
0.0
  0
LINE
  5
18D
330
1F
100
AcDbEntity
  8
0
  6
SLD-Durchgehend
 62
     7
370
    15
100
AcDbLine
 10
137.400110542
 20
101.3575038101
 30
0.0
 11
137.400110542
 21
96.0296075951
 31
0.0
  0
LINE
  5
18E
330
1F
100
AcDbEntity
  8
0
  6
SLD-Durchgehend
 62
     7
370
    15
100
AcDbLine
 10
141.6001089953
 20
101.3575038101
 30
0.0
 11
137.400110542
 21
101.3575038101
 31
0.0
  0
LINE
  5
18F
330
1F
100
AcDbEntity
  8
0
  6
SLD-Durchgehend
 62
     7
370
    15
100
AcDbLine
 10
170.6001097906
 20
97.3575040857
 30
0.0
 11
170.6001097906
 21
101.3575038101
 31
0.0
  0
LINE
  5
190
330
1F
100
AcDbEntity
  8
0
  6
SLD-Durchgehend
 62
     7
370
    15
100
AcDbLine
 10
166.4001097076
 20
101.3575038101
 30
0.0
 11
166.4001097076
 21
97.3575040857
 31
0.0
  0
LINE
  5
191
330
1F
100
AcDbEntity
  8
0
  6
SLD-Durchgehend
 62
     7
370
    15
100
AcDbLine
 10
170.6001097906
 20
101.3575038101
 30
0.0
 11
166.4001097076
 21
101.3575038101
 31
0.0
  0
LINE
  5
192
330
1F
100
AcDbEntity
  8
0
  6
SLD-Durchgehend
 62
     7
370
    15
100
AcDbLine
 10
165.5001096066
 20
97.3575040857
 30
0.0
 11
165.5001096066
 21
97.2765516649
 31
0.0
  0
LINE
  5
193
330
1F
100
AcDbEntity
  8
0
  6
SLD-Durchgehend
 62
     7
370
    15
100
AcDbLine
 10
141.6001089953
 20
101.3575038101
 30
0.0
 11
166.4001097076
 21
101.3575038101
 31
0.0
  0
LINE
  5
194
330
1F
100
AcDbEntity
  8
0
  6
SLD-Durchgehend
 62
     7
370
    15
100
AcDbLine
 10
170.6001097906
 20
101.3575038101
 30
0.0
 11
187.0339562289
 21
101.3575038101
 31
0.0
  0
LINE
  5
195
330
1F
100
AcDbEntity
  8
0
  6
SLD-Durchgehend
 62
     7
370
    15
100
AcDbLine
 10
131.5001112513
 20
101.3575038101
 30
0.0
 11
137.400110542
 21
101.3575038101
 31
0.0
  0
LINE
  5
196
330
1F
100
AcDbEntity
  8
0
  6
SLD-Durchgehend
 62
     7
370
    15
100
AcDbLine
 10
131.5001112513
 20
101.3575038101
 30
0.0
 11
131.5001112513
 21
97.1040753807
 31
0.0
  0
LINE
  5
197
330
1F
100
AcDbEntity
  8
0
  6
SLD-Durchgehend
 62
     7
370
    15
100
AcDbLine
 10
211.5001094632
 20
94.5201376612
 30
0.0
 11
211.5001094632
 21
94.2575037639
 31
0.0
  0
LINE
  5
198
330
1F
100
AcDbEntity
  8
0
  6
SLD-Durchgehend
 62
     7
370
    15
100
AcDbLine
 10
211.5001094632
 20
100.4575034763
 30
0.0
 11
211.5001094632
 21
94.5201376612
 31
0.0
  0
LINE
  5
199
330
1F
100
AcDbEntity
  8
0
  6
SLD-Durchgehend
 62
     7
370
    15
100
AcDbLine
 10
211.5001094632
 20
69.5201372887
 30
0.0
 11
211.5001094632
 21
69.2575043227
 31
0.0
  0
LINE
  5
19A
330
1F
100
AcDbEntity
  8
0
  6
SLD-Durchgehend
 62
     7
370
    15
100
AcDbLine
 10
211.5001094632
 20
75.4575040351
 30
0.0
 11
211.5001094632
 21
69.5201372887
 31
0.0
  0
LINE
  5
19B
330
1F
100
AcDbEntity
  8
0
  6
SLD-Durchgehend
 62
     7
370
    15
100
AcDbLine
 10
203.5001081519
 20
101.3575038101
 30
0.0
 11
207.5001088075
 21
101.3575038101
 31
0.0
  0
LINE
  5
19C
330
1F
100
AcDbEntity
  8
0
  6
SLD-Durchgehend
 62
     7
370
    15
100
AcDbLine
 10
207.5001088075
 20
68.3575039889
 30
0.0
 11
207.5001088075
 21
101.3575038101
 31
0.0
  0
LINE
  5
19D
330
1F
100
AcDbEntity
  8
0
  6
SLD-Durchgehend
 62
     7
370
    15
100
AcDbLine
 10
203.5001081519
 20
68.3575039889
 30
0.0
 11
207.5001088075
 21
68.3575039889
 31
0.0
  0
LINE
  5
19E
330
1F
100
AcDbEntity
  8
0
  6
SLD-Durchgehend
 62
     7
370
    15
100
AcDbLine
 10
211.5001094632
 20
94.2575037639
 30
0.0
 11
211.5001094632
 21
75.4575040351
 31
0.0
  0
INSERT
  5
19F
330
1F
100
AcDbEntity
  8
0
  6
Continuous
 62
     7
100
AcDbBlockReference
  2
Block1
 10
97.9866132073
 20
111.4635466052
 30
0.0
 41
0.8
 42
0.8
 43
0.8
  0
LEADER
  5
1A0
330
1F
100
AcDbEntity
  8
0
  6
Continuous
 62
     7
100
AcDbLeader
  3
SLDDIMSTYLE0
 76
     2
 10
136.0389524277
 20
101.3575038995
 30
0.0
 10
112.943119943
 20
110.3289836576
 30
0.0
212
14.95650673562555
222
-1.134562947642294
232
0.0
  0
HATCH
  5
1A1
330
1F
100
AcDbEntity
  8
0
  6
SLD-Durchgehend
 62
     7
370
     0
100
AcDbHatch
 10
0.0
 20
0.0
 30
0.0
210
0.0
220
0.0
230
1.0
  2
ANSI31
 70
     0
 71
     0
 91
        1
 92
        0
 93
        7
 72
     4
 94
        3
 73
     1
 74
     0
 95
       10
 96
        6
 40
0.6596062730479311
 40
0.6596062730479311
 40
0.6596062730479311
 40
0.6596062730479311
 40
0.7002385192647671
 40
0.770077309286144
 40
0.8168873721590454
 40
0.8168873721590454
 40
0.8168873721590454
 40
0.8168873721590454
 10
145.5001098469543
 20
95.85750391887456
 42
1.0
 10
147.2312724186704
 20
96.08844093396596
 42
1.0
 10
151.8000092310241
 20
97.12008649354387
 42
1.0
 10
158.5024083292317
 20
98.04666124852714
 42
1.0
 10
163.504919616258
 20
97.42095576974054
 42
1.0
 10
165.5001096823841
 20
97.27655208436428
 42
1.0
 72
     1
 10
165.5001096823841
 20
97.27655208436427
 11
165.5001097016021
 21
97.35750389948467
 72
     1
 10
165.5001097016021
 20
97.35750389948467
 11
166.4001097016021
 21
97.35750389948467
 72
     1
 10
166.4001097016021
 20
97.35750389948467
 11
166.4001097016021
 21
101.3575038994847
 72
     1
 10
166.4001097016021
 20
101.3575038994847
 11
141.6001097016021
 21
101.3575038994846
 72
     1
 10
141.6001097016021
 20
101.3575038994846
 11
141.6001097016021
 21
95.85750389948457
 72
     1
 10
141.6001097016021
 20
95.85750389948457
 11
145.5001098469544
 21
95.85750391887457
 97
        0
 75
     0
 76
     1
 52
0.0
 41
1.0
 77
     0
 78
     1
 53
45.0
 43
0.0
 44
0.0
 45
-2.245064030267288
 46
2.245064030267288
 79
     0
 98
        1
 10
0.0
 20
0.0
  0
HATCH
  5
1A2
330
1F
100
AcDbEntity
  8
0
  6
SLD-Durchgehend
 62
     7
370
     0
100
AcDbHatch
 10
0.0
 20
0.0
 30
0.0
210
0.0
220
0.0
230
1.0
  2
ANSI31
 70
     0
 71
     0
 91
        1
 92
        0
 93
        4
 72
     1
 10
170.6001097016021
 20
101.3575038994847
 11
170.6001097016021
 21
97.35750389948468
 72
     1
 10
170.6001097016021
 20
97.35750389948468
 11
170.7222374900971
 21
97.35750397741919
 72
     4
 94
        3
 73
     1
 74
     0
 95
       11
 96
        7
 40
0.8580406758841606
 40
0.8580406758841606
 40
0.8580406758841606
 40
0.8580406758841606
 40
0.9300140855161005
 40
0.9569924908187263
 40
0.9726343536212714
 40
0.9911766857495692
 40
0.9911766857495692
 40
0.9911766857495692
 40
0.9911766857495692
 10
170.7222374900971
 20
97.35750397741919
 42
1.0
 10
173.7376909405544
 20
97.78183192031658
 42
1.0
 10
177.8184579641186
 20
99.2983800862227
 42
1.0
 10
182.7576951639454
 20
99.07927621261126
 42
1.0
 10
185.288124656794
 20
99.71851605712102
 42
1.0
 10
186.5688371119203
 20
100.6970177102352
 42
1.0
 10
187.0339570141369
 20
101.3575038979255
 42
1.0
 72
     1
 10
187.0339570141369
 20
101.3575038979255
 11
170.6001097016021
 21
101.3575038994847
 97
        0
 75
     0
 76
     1
 52
0.0
 41
1.0
 77
     0
 78
     1
 53
45.0
 43
0.0
 44
0.0
 45
-2.245064030267288
 46
2.245064030267288
 79
     0
 98
        1
 10
0.0
 20
0.0
  0
HATCH
  5
1A3
330
1F
100
AcDbEntity
  8
0
  6
SLD-Durchgehend
 62
     7
370
     0
100
AcDbHatch
 10
0.0
 20
0.0
 30
0.0
210
0.0
220
0.0
230
1.0
  2
ANSI31
 70
     0
 71
     0
 91
        1
 92
        0
 93
        4
 72
     1
 10
131.5001097016021
 20
101.3575038994845
 11
131.5001097016016
 21
97.10407536789883
 72
     4
 94
        3
 73
     1
 74
     0
 95
        9
 96
        5
 40
0.5499533484601935
 40
0.5499533484601935
 40
0.5499533484601935
 40
0.5499533484601935
 40
0.5554572746871549
 40
0.5950468677006853
 40
0.5950468677006853
 40
0.5950468677006853
 40
0.5950468677006853
 10
131.5001097016016
 20
97.10407536789883
 42
1.0
 10
131.7656589526531
 20
97.06139717244203
 42
1.0
 10
133.9456103738006
 20
96.72925208889838
 42
1.0
 10
135.8027357479118
 20
96.30845498440992
 42
1.0
 10
137.4001096847151
 20
96.02960727046097
 42
1.0
 72
     1
 10
137.4001096847151
 20
96.02960727046097
 11
137.4001097016021
 21
101.3575038994846
 72
     1
 10
137.4001097016021
 20
101.3575038994846
 11
131.5001097016021
 21
101.3575038994845
 97
        0
 75
     0
 76
     1
 52
0.0
 41
1.0
 77
     0
 78
     1
 53
45.0
 43
0.0
 44
0.0
 45
-2.245064030267288
 46
2.245064030267288
 79
     0
 98
        1
 10
0.0
 20
0.0
  0
HATCH
  5
1A4
330
1F
100
AcDbEntity
  8
0
  6
SLD-Durchgehend
 62
     7
370
     0
100
AcDbHatch
 10
0.0
 20
0.0
 30
0.0
210
0.0
220
0.0
230
1.0
  2
ANSI31
 70
     0
 71
     0
 91
        1
 92
        0
 93
        7
 72
     1
 10
142.3574535824677
 20
68.35750389940735
 11
149.4001097016022
 21
68.35750389948464
 72
     1
 10
149.4001097016022
 20
68.35750389948464
 11
149.4001097016022
 21
76.35750389948464
 72
     1
 10
149.4001097016022
 20
76.35750389948464
 11
151.5001097016022
 21
77.33674998161015
 72
     1
 10
151.5001097016022
 20
77.33674998161015
 11
153.6001097016022
 21
76.35750389948466
 72
     1
 10
153.6001097016022
 20
76.35750389948466
 11
153.6001097016022
 21
68.35750389948467
 72
     1
 10
153.6001097016022
 20
68.35750389948467
 11
159.1385964496332
 21
68.35750388681053
 72
     4
 94
        3
 73
     1
 74
     0
 95
       11
 96
        7
 40
0.204970104985922
 40
0.204970104985922
 40
0.204970104985922
 40
0.204970104985922
 40
0.2814231626206054
 40
0.4505115122160701
 40
0.592068829125567
 40
0.7861373360675772
 40
0.7861373360675772
 40
0.7861373360675772
 40
0.7861373360675772
 10
159.1385964496333
 20
68.35750388681079
 42
1.0
 10
159.2890305550312
 20
69.68336594699852
 42
1.0
 10
158.7938079723056
 20
74.4143669733707
 42
1.0
 10
154.1931879126236
 20
80.16983624924285
 42
1.0
 10
144.8666024627352
 20
78.31982223347472
 42
1.0
 10
141.6912164134206
 20
71.24683344129639
 42
1.0
 10
142.3574535824677
 20
68.35750389940739
 42
1.0
 97
        0
 75
     0
 76
     1
 52
0.0
 41
1.0
 77
     0
 78
     1
 53
45.0
 43
0.0
 44
0.0
 45
-2.245064030267288
 46
2.245064030267288
 79
     0
 98
        1
 10
0.0
 20
0.0
  0
DIMENSION
  5
1A5
330
1F
100
AcDbEntity
  8
0
  6
SLD-Durchgehend
 62
     7
370
     0
100
AcDbDimension
  2
_D
 10
154.0001097016
 20
61.6945215146
 30
0.0
 11
160.0286229814
 21
61.6945215146
 31
0.0
 70
   160
  1
M<>
 71
     2
 42
-1.0
  3
SLDDIMSTYLE1
100
AcDbAlignedDimension
 13
149.0001097016
 23
68.3575038995
 33
0.0
 14
154.0001097016
 24
68.3575038995
 34
0.0
 50
0.0
100
AcDbRotatedDimension
  0
DIMENSION
  5
1B3
330
1F
100
AcDbEntity
  8
0
  6
SLD-Durchgehend
 62
     7
370
     0
100
AcDbDimension
  2
_D_1
 10
140.3652265807
 20
74.8575038995
 30
0.0
 11
140.3652265807
 21
71.6075038995
 31
0.0
 70
   160
  1
<>
 71
     2
 42
-1.0
  3
SLDDIMSTYLE1
100
AcDbAlignedDimension
 13
149.0001097016
 23
68.3575038995
 33
0.0
 14
149.0001097016
 24
74.8575038995
 34
0.0
 50
90.0
100
AcDbRotatedDimension
  0
DIMENSION
  5
1BF
330
1F
100
AcDbEntity
  8
0
  6
SLD-Durchgehend
 62
     7
370
     0
100
AcDbDimension
  2
_D_2
 10
211.5001097016
 20
133.2019002498
 30
0.0
 11
171.5001097016
 21
133.2019002498
 31
0.0
 70
   160
  1
<>
 71
     2
 42
-1.0
  3
SLDDIMSTYLE2
100
AcDbAlignedDimension
 13
131.5001097016
 23
101.3575038995
 33
0.0
 14
211.5001097016
 24
98.0598590364
 34
0.0
 50
0.0
100
AcDbRotatedDimension
  0
DIMENSION
  5
1CA
330
1F
100
AcDbEntity
  8
0
  6
SLD-Durchgehend
 62
     7
370
     0
100
AcDbDimension
  2
_D_3
 10
131.5001097016
 20
61.6945215146
 30
0.0
 11
126.2501097016
 21
61.6945215146
 31
0.0
 70
   160
  1
<>
 71
     2
 42
-1.0
  3
SLDDIMSTYLE2
100
AcDbAlignedDimension
 13
121.0001097016
 23
76.8575038995
 33
0.0
 14
131.5001097016
 24
68.3575038995
 34
0.0
 50
0.0
100
AcDbRotatedDimension
  0
DIMENSION
  5
1D4
330
1F
100
AcDbEntity
  8
0
  6
SLD-Durchgehend
 62
     7
370
     0
100
AcDbDimension
  2
_D_4
 10
131.5001097016
 20
112.2019002498
 30
0.0
 11
135.5001097016
 21
112.2019002498
 31
0.0
 70
   160
  1
<>
 71
     2
 42
-1.0
  3
SLDDIMSTYLE2
100
AcDbAlignedDimension
 13
139.5001097016
 23
103.3575038995
 33
0.0
 14
131.5001097016
 24
101.3575038995
 34
0.0
 50
0.0
100
AcDbRotatedDimension
  0
DIMENSION
  5
1DE
330
1F
100
AcDbEntity
  8
0
  6
SLD-Durchgehend
 62
     7
370
     0
100
AcDbDimension
  2
_D_5
 10
168.5001097016
 20
123.5042129008
 30
0.0
 11
150.0001097016
 21
123.5042129008
 31
0.0
 70
   160
  1
<>
 71
     2
 42
-1.0
  3
SLDDIMSTYLE2
100
AcDbAlignedDimension
 13
131.5001097016
 23
101.3575038995
 33
0.0
 14
168.5001097016
 24
103.3575038995
 34
0.0
 50
0.0
100
AcDbRotatedDimension
  0
DIMENSION
  5
1E8
330
1F
100
AcDbEntity
  8
0
  6
SLD-Durchgehend
 62
     7
370
     0
100
AcDbDimension
  2
_D_6
 10
171.0001097016
 20
106.6156250622
 30
0.0
 11
162.2472883998
 21
106.6156250622
 31
0.0
 70
   160
  1
M<>
 71
     2
 42
-1.0
  3
SLDDIMSTYLE1
100
AcDbAlignedDimension
 13
166.0001097016
 23
101.3575038995
 33
0.0
 14
171.0001097016
 24
101.3575038995
 34
0.0
 50
0.0
100
AcDbRotatedDimension
  0
DIMENSION
  5
1F5
330
1F
100
AcDbEntity
  8
0
  6
SLD-Durchgehend
 62
     7
370
     0
100
AcDbDimension
  2
_D_7
 10
142.0001097016
 20
106.6156250622
 30
0.0
 11
146.301499904
 21
106.6156250622
 31
0.0
 70
   160
  1
M<>
 71
     2
 42
-1.0
  3
SLDDIMSTYLE1
100
AcDbAlignedDimension
 13
137.0001097016
 23
101.3575038995
 33
0.0
 14
142.0001097016
 24
101.3575038995
 34
0.0
 50
0.0
100
AcDbRotatedDimension
  0
DIMENSION
  5
202
330
1F
100
AcDbEntity
  8
0
  6
SLD-Durchgehend
 62
     7
370
     0
100
AcDbDimension
  2
_D_8
 10
162.2472883998
 20
97.3575038995
 30
0.0
 11
162.2472883998
 21
99.3575038995
 31
0.0
 70
   160
  1
<>
 71
     2
 42
-1.0
  3
SLDDIMSTYLE1
100
AcDbAlignedDimension
 13
131.5001097016
 23
101.3575038995
 33
0.0
 14
165.5001097016
 24
97.3575038995
 34
0.0
 50
90.0
100
AcDbRotatedDimension
  0
DIMENSION
  5
20D
330
1F
100
AcDbEntity
  8
0
  6
SLD-Durchgehend
 62
     7
370
     0
100
AcDbDimension
  2
_D_9
 10
150.0001097016
 20
101.3575038995
 30
0.0
 11
150.0001097016
 21
98.6075039189
 31
0.0
 70
   160
  1
<>
 71
     2
 42
-1.0
  3
SLDDIMSTYLE1
100
AcDbAlignedDimension
 13
145.500109847
 23
95.8575039189
 33
0.0
 14
141.6001097016
 24
101.3575038995
 34
0.0
 50
90.0
100
AcDbRotatedDimension
  0
LINE
  5
219
330
1F
100
AcDbEntity
  8
0
  6
SLD-Durchgehend
 62
     7
370
     0
100
AcDbLine
 10
137.0001093589
 20
101.3575038101
 30
0.0
 11
137.0001093589
 21
96.1010856713
 31
0.0
  0
LINE
  5
21A
330
1F
100
AcDbEntity
  8
0
  6
SLD-Durchgehend
 62
     7
370
     0
100
AcDbLine
 10
142.0001101784
 20
95.8575038399
 30
0.0
 11
142.0001101784
 21
101.3575038101
 31
0.0
  0
LINE
  5
21B
330
1F
100
AcDbEntity
  8
0
  6
SLD-Durchgehend
 62
     7
370
     0
100
AcDbLine
 10
171.0001098096
 20
97.3985009055
 30
0.0
 11
171.0001098096
 21
101.3575038101
 31
0.0
  0
LINE
  5
21C
330
1F
100
AcDbEntity
  8
0
  6
SLD-Durchgehend
 62
     7
370
     0
100
AcDbLine
 10
166.0001096886
 20
101.3575038101
 30
0.0
 11
166.0001096886
 21
97.3575040857
 31
0.0
  0
LINE
  5
21D
330
1F
100
AcDbEntity
  8
0
  6
SLD-Durchgehend
 62
     7
370
     0
100
AcDbLine
 10
149.0001094632
 20
68.3575039889
 30
0.0
 11
149.0001094632
 21
74.857504123
 31
0.0
  0
LINE
  5
21E
330
1F
100
AcDbEntity
  8
0
  6
SLD-Durchgehend
 62
     7
370
     0
100
AcDbLine
 10
154.0001093514
 20
74.857504123
 30
0.0
 11
154.0001093514
 21
68.3575039889
 31
0.0
  0
LINE
  5
21F
330
1F
100
AcDbEntity
  8
0
  6
SLD-Durchgehend
 62
     7
370
     0
100
AcDbLine
 10
153.6001100309
 20
74.857504123
 30
0.0
 11
154.0001093514
 21
74.857504123
 31
0.0
  0
LINE
  5
220
330
1F
100
AcDbEntity
  8
0
  6
SLD-Durchgehend
 62
     7
370
     0
100
AcDbLine
 10
149.0001094632
 20
74.857504123
 30
0.0
 11
149.4001087837
 21
74.857504123
 31
0.0
  0
LINE
  5
221
330
1F
100
AcDbEntity
  8
0
  6
SLD-Durchgehend
 62
     7
370
     0
100
AcDbLine
 10
153.6000967026
 20
74.857504123
 30
0.0
 11
149.4001087837
 21
74.857504123
 31
0.0
  0
LINE
  5
222
330
1F
100
AcDbEntity
  8
0
  6
SLD-Punktstrich
 62
     7
370
     0
100
AcDbLine
 10
151.5001097016
 20
78.3575038995
 30
0.0
 11
151.5001097016
 21
66.3575038995
 31
0.0
  0
LINE
  5
223
330
1F
100
AcDbEntity
  8
0
  6
SLD-Punktstrich
 62
     7
370
     0
100
AcDbLine
 10
168.5001097016
 20
95.3575038995
 30
0.0
 11
168.5001097016
 21
103.3575038995
 31
0.0
  0
LINE
  5
224
330
1F
100
AcDbEntity
  8
0
  6
SLD-Punktstrich
 62
     7
370
     0
100
AcDbLine
 10
139.5001097016
 20
93.8575038995
 30
0.0
 11
139.5001097016
 21
103.3575038995
 31
0.0
  0
LINE
  5
225
330
1F
100
AcDbEntity
  8
0
  6
SLD-Durchgehend
 62
     7
370
    15
100
AcDbLine
 10
211.1001101427
 20
179.0654031171
 30
0.0
 11
207.5001088075
 21
179.0654031171
 31
0.0
  0
LINE
  5
226
330
1F
100
AcDbEntity
  8
0
  6
SLD-Durchgehend
 62
     7
370
    15
100
AcDbLine
 10
207.5001088075
 20
172.0654019697
 30
0.0
 11
211.1001101427
 21
172.0654019697
 31
0.0
  0
ARC
  5
227
330
1F
100
AcDbEntity
  8
0
  6
SLD-Durchgehend
 62
     7
370
    15
100
AcDbCircle
 10
211.1001097016
 20
178.6654023572
 30
0.0
 40
0.4000000000000057
100
AcDbArc
 50
0.0
 51
90.0
  0
ARC
  5
228
330
1F
100
AcDbEntity
  8
0
  6
SLD-Durchgehend
 62
     7
370
    15
100
AcDbCircle
 10
211.1001097016
 20
172.4654023572
 30
0.0
 40
0.4000000000000057
100
AcDbArc
 50
270.0
 51
0.0
  0
LINE
  5
229
330
1F
100
AcDbEntity
  8
0
  6
SLD-Durchgehend
 62
     7
370
    15
100
AcDbLine
 10
211.1001101427
 20
154.0654027446
 30
0.0
 11
207.5001088075
 21
154.0654027446
 31
0.0
  0
LINE
  5
22A
330
1F
100
AcDbEntity
  8
0
  6
SLD-Durchgehend
 62
     7
370
    15
100
AcDbLine
 10
207.5001088075
 20
147.0654015972
 30
0.0
 11
211.1001101427
 21
147.0654015972
 31
0.0
  0
ARC
  5
22B
330
1F
100
AcDbEntity
  8
0
  6
SLD-Durchgehend
 62
     7
370
    15
100
AcDbCircle
 10
211.1001097016
 20
153.6654023572
 30
0.0
 40
0.4000000000000057
100
AcDbArc
 50
0.0
 51
90.0
  0
ARC
  5
22C
330
1F
100
AcDbEntity
  8
0
  6
SLD-Durchgehend
 62
     7
370
    15
100
AcDbCircle
 10
211.1001097016
 20
147.4654023572
 30
0.0
 40
0.4000000000000057
100
AcDbArc
 50
270.0
 51
0.0
  0
LINE
  5
22D
330
1F
100
AcDbEntity
  8
0
  6
SLD-Durchgehend
 62
     7
370
    15
100
AcDbLine
 10
131.5001112513
 20
172.0654019697
 30
0.0
 11
131.000110238
 21
172.0654019697
 31
0.0
  0
LINE
  5
22E
330
1F
100
AcDbEntity
  8
0
  6
SLD-Durchgehend
 62
     7
370
    15
100
AcDbLine
 10
131.000110238
 20
154.0654027446
 30
0.0
 11
131.5001112513
 21
154.0654027446
 31
0.0
  0
LINE
  5
22F
330
1F
100
AcDbEntity
  8
0
  6
SLD-Durchgehend
 62
     7
370
    15
100
AcDbLine
 10
131.000110238
 20
171.9654021396
 30
0.0
 11
121.0001085989
 21
171.9654021396
 31
0.0
  0
LINE
  5
230
330
1F
100
AcDbEntity
  8
0
  6
SLD-Durchgehend
 62
     7
370
    15
100
AcDbLine
 10
121.0001085989
 20
154.1654025747
 30
0.0
 11
131.000110238
 21
154.1654025747
 31
0.0
  0
LINE
  5
231
330
1F
100
AcDbEntity
  8
0
  6
SLD-Durchgehend
 62
     7
370
    15
100
AcDbLine
 10
211.5001094632
 20
176.8141431345
 30
0.0
 11
211.5001094632
 21
172.4654022216
 31
0.0
  0
LINE
  5
232
330
1F
100
AcDbEntity
  8
0
  6
SLD-Durchgehend
 62
     7
370
    15
100
AcDbLine
 10
211.5001094632
 20
178.665401934
 30
0.0
 11
211.5001094632
 21
176.8141431345
 31
0.0
  0
LINE
  5
233
330
1F
100
AcDbEntity
  8
0
  6
SLD-Durchgehend
 62
     7
370
    15
100
AcDbLine
 10
211.5001094632
 20
151.814142762
 30
0.0
 11
211.5001094632
 21
147.4654027803
 31
0.0
  0
LINE
  5
234
330
1F
100
AcDbEntity
  8
0
  6
SLD-Durchgehend
 62
     7
370
    15
100
AcDbLine
 10
211.5001094632
 20
153.6654024928
 30
0.0
 11
211.5001094632
 21
151.814142762
 31
0.0
  0
LINE
  5
235
330
1F
100
AcDbEntity
  8
0
  6
SLD-Durchgehend
 62
     7
370
    15
100
AcDbLine
 10
203.5001081519
 20
179.5654022677
 30
0.0
 11
207.5001088075
 21
179.5654022677
 31
0.0
  0
LINE
  5
236
330
1F
100
AcDbEntity
  8
0
  6
SLD-Durchgehend
 62
     7
370
    15
100
AcDbLine
 10
207.5001088075
 20
146.5654024466
 30
0.0
 11
207.5001088075
 21
179.5654022677
 31
0.0
  0
LINE
  5
237
330
1F
100
AcDbEntity
  8
0
  6
SLD-Durchgehend
 62
     7
370
    15
100
AcDbLine
 10
203.5001081519
 20
146.5654024466
 30
0.0
 11
203.5001081519
 21
179.5654022677
 31
0.0
  0
LINE
  5
238
330
1F
100
AcDbEntity
  8
0
  6
SLD-Durchgehend
 62
     7
370
    15
100
AcDbLine
 10
203.5001081519
 20
146.5654024466
 30
0.0
 11
207.5001088075
 21
146.5654024466
 31
0.0
  0
LINE
  5
239
330
1F
100
AcDbEntity
  8
0
  6
SLD-Durchgehend
 62
     7
370
    15
100
AcDbLine
 10
211.5001094632
 20
172.4654022216
 30
0.0
 11
211.5001094632
 21
153.6654024928
 31
0.0
  0
LINE
  5
23A
330
1F
100
AcDbEntity
  8
0
  6
SLD-Durchgehend
 62
     7
370
    15
100
AcDbLine
 10
131.000110238
 20
172.0654019697
 30
0.0
 11
131.000110238
 21
154.0654027446
 31
0.0
  0
LINE
  5
23B
330
1F
100
AcDbEntity
  8
0
  6
SLD-Durchgehend
 62
     7
370
    15
100
AcDbLine
 10
121.0001085989
 20
159.165402463
 30
0.0
 11
121.0001085989
 21
154.1654025747
 31
0.0
  0
LINE
  5
23C
330
1F
100
AcDbEntity
  8
0
  6
SLD-Durchgehend
 62
     7
370
    15
100
AcDbLine
 10
130.0001082115
 20
159.165402463
 30
0.0
 11
121.0001085989
 21
159.165402463
 31
0.0
  0
LINE
  5
23D
330
1F
100
AcDbEntity
  8
0
  6
SLD-Durchgehend
 62
     7
370
    15
100
AcDbLine
 10
130.0001082115
 20
159.165402463
 30
0.0
 11
130.0001082115
 21
166.9654022514
 31
0.0
  0
LINE
  5
23E
330
1F
100
AcDbEntity
  8
0
  6
SLD-Durchgehend
 62
     7
370
    15
100
AcDbLine
 10
130.0001082115
 20
166.9654022514
 30
0.0
 11
121.0001085989
 21
166.9654022514
 31
0.0
  0
LINE
  5
23F
330
1F
100
AcDbEntity
  8
0
  6
SLD-Durchgehend
 62
     7
370
    15
100
AcDbLine
 10
121.0001085989
 20
171.9654021396
 30
0.0
 11
121.0001085989
 21
166.9654022514
 31
0.0
  0
LINE
  5
240
330
1F
100
AcDbEntity
  8
0
  6
SLD-Durchgehend
 62
     7
370
    15
100
AcDbLine
 10
121.0001085989
 20
166.9654022514
 30
0.0
 11
121.0001085989
 21
159.165402463
 31
0.0
  0
LINE
  5
241
330
1F
100
AcDbEntity
  8
0
  6
SLD-Durchgehend
 62
     7
370
    15
100
AcDbLine
 10
131.5001112513
 20
179.5654022677
 30
0.0
 11
203.5001081519
 21
179.5654022677
 31
0.0
  0
CIRCLE
  5
242
330
1F
100
AcDbEntity
  8
0
  6
SLD-Durchgehend
 62
     7
370
    15
100
AcDbCircle
 10
151.5001097016
 20
175.0654023572
 30
0.0
 40
2.099999999999994
  0
CIRCLE
  5
243
330
1F
100
AcDbEntity
  8
0
  6
SLD-Durchgehend
 62
     7
370
    15
100
AcDbCircle
 10
151.5001097016
 20
151.0654023572
 30
0.0
 40
2.099999999999994
  0
LINE
  5
244
330
1F
100
AcDbEntity
  8
0
  6
SLD-Durchgehend
 62
     7
370
    15
100
AcDbLine
 10
131.5001112513
 20
146.5654024466
 30
0.0
 11
203.5001081519
 21
146.5654024466
 31
0.0
  0
LINE
  5
245
330
1F
100
AcDbEntity
  8
0
  6
SLD-Durchgehend
 62
     7
370
    15
100
AcDbLine
 10
131.5001112513
 20
146.5654024466
 30
0.0
 11
131.5001112513
 21
179.5654022677
 31
0.0
  0
DIMENSION
  5
246
330
1F
100
AcDbEntity
  8
0
  6
SLD-Durchgehend
 62
     7
370
     0
100
AcDbDimension
  2
_D_10
 10
151.5001097016
 20
184.5669966017
 30
0.0
 11
141.5001097016
 21
184.5669966017
 31
0.0
 70
   160
  1
<>
 71
     2
 42
-1.0
  3
SLDDIMSTYLE2
100
AcDbAlignedDimension
 13
131.5001097016
 23
179.5654023572
 33
0.0
 14
151.5001097016
 24
175.0654023572
 34
0.0
100
AcDbRotatedDimension
  0
DIMENSION
  5
250
330
1F
100
AcDbEntity
  8
0
  6
SLD-Durchgehend
 62
     7
370
     0
100
AcDbDimension
  2
_D_11
 10
154.0001097016
 20
168.4835090817
 30
0.0
 11
143.0438824968
 21
168.4835090817
 31
0.0
 70
   160
  1
M<>
 71
     2
 42
-1.0
  3
SLDDIMSTYLE1
100
AcDbAlignedDimension
 13
149.0001097016
 23
175.0654023572
 33
0.0
 14
154.0001097016
 24
175.0654023572
 34
0.0
100
AcDbRotatedDimension
  0
DIMENSION
  5
25D
330
1F
100
AcDbEntity
  8
0
  6
SLD-Durchgehend
 62
     7
370
     0
100
AcDbDimension
  2
_D_12
 10
178.1081589841
 20
146.5654023572
 30
0.0
 11
178.1081589841
 21
163.0654023572
 31
0.0
 70
   160
  1
(<>)
 71
     2
 42
-1.0
  3
SLDDIMSTYLE2
100
AcDbAlignedDimension
 13
203.5001097016
 23
179.5654023572
 33
0.0
 14
203.5001097016
 24
146.5654023572
 34
0.0
 50
90.0
100
AcDbRotatedDimension
  0
DIMENSION
  5
267
330
1F
100
AcDbEntity
  8
0
  6
SLD-Durchgehend
 62
     7
370
     0
100
AcDbDimension
  2
_D_13
 10
163.1400548351
 20
151.0654023572
 30
0.0
 11
163.1400548351
 21
163.0654023572
 31
0.0
 70
   160
  1
<>
 71
     2
 42
-1.0
  3
SLDDIMSTYLE2
100
AcDbAlignedDimension
 13
151.5001097016
 23
175.0654023572
 33
0.0
 14
151.5001097016
 24
151.0654023572
 34
0.0
 50
90.0
100
AcDbRotatedDimension
  0
INSERT
  5
27C
330
1F
100
AcDbEntity
  8
0
  6
Continuous
 62
     7
370
     0
100
AcDbBlockReference
  2
SW_CENTERMARKSYMBOL_0
 10
151.5001097016
 20
175.0654023572
 30
0.0
  0
INSERT
  5
288
330
1F
100
AcDbEntity
  8
0
  6
Continuous
 62
     7
370
     0
100
AcDbBlockReference
  2
SW_CENTERMARKSYMBOL_1
 10
151.5001097016
 20
151.0654023572
 30
0.0
  0
ARC
  5
289
330
1F
100
AcDbEntity
  8
0
  6
SLD-Durchgehend
 62
     7
370
     0
100
AcDbCircle
 10
151.5001097016
 20
175.0654023572
 30
0.0
 40
2.500000305473987
100
AcDbArc
 50
75.0
 51
345.0
  0
ARC
  5
28A
330
1F
100
AcDbEntity
  8
0
  6
SLD-Durchgehend
 62
     7
370
     0
100
AcDbCircle
 10
151.5001097016
 20
151.0654023572
 30
0.0
 40
2.499999582767602
100
AcDbArc
 50
75.0
 51
345.0
  0
LINE
  5
28B
330
1F
100
AcDbEntity
  8
0
  6
SLD-Durchgehend
 62
     7
370
    15
100
AcDbLine
 10
50.0680695261
 20
101.3575038101
 30
0.0
 11
50.0680695261
 21
101.6575033005
 31
0.0
  0
LINE
  5
28C
330
1F
100
AcDbEntity
  8
0
  6
SLD-Durchgehend
 62
     7
370
    15
100
AcDbLine
 10
44.0680694739
 20
101.6575033005
 30
0.0
 11
44.0680694739
 21
101.3575038101
 31
0.0
  0
ARC
  5
28D
330
1F
100
AcDbEntity
  8
0
  6
SLD-Durchgehend
 62
     7
370
    15
100
AcDbCircle
 10
49.8680695
 20
101.6575038995
 30
0.0
 40
0.2000000000000242
100
AcDbArc
 50
0.0
 51
90.0
  0
ARC
  5
28E
330
1F
100
AcDbEntity
  8
0
  6
SLD-Durchgehend
 62
     7
370
    15
100
AcDbCircle
 10
44.2680695
 20
101.6575038995
 30
0.0
 40
0.2000000000000242
100
AcDbArc
 50
90.0
 51
180.0
  0
LINE
  5
28F
330
1F
100
AcDbEntity
  8
0
  6
SLD-Durchgehend
 62
     7
370
    15
100
AcDbLine
 10
44.2680695998
 20
101.8575048234
 30
0.0
 11
49.8680694001
 21
101.8575048234
 31
0.0
  0
LINE
  5
290
330
1F
100
AcDbEntity
  8
0
  6
SLD-Durchgehend
 62
     7
370
    15
100
AcDbLine
 10
36.1639492186
 20
71.6551486562
 30
0.0
 11
35.9742667499
 21
73.3883986409
 31
0.0
  0
LINE
  5
291
330
1F
100
AcDbEntity
  8
0
  6
SLD-Durchgehend
 62
     7
370
    15
100
AcDbLine
 10
35.9742667499
 20
73.3883986409
 30
0.0
 11
34.3783868449
 21
74.0907536979
 31
0.0
  0
LINE
  5
292
330
1F
100
AcDbEntity
  8
0
  6
SLD-Durchgehend
 62
     7
370
    15
100
AcDbLine
 10
32.9721903401
 20
73.0598587702
 30
0.0
 11
34.3783868449
 21
74.0907536979
 31
0.0
  0
LINE
  5
293
330
1F
100
AcDbEntity
  8
0
  6
SLD-Durchgehend
 62
     7
370
    15
100
AcDbLine
 10
33.1618728089
 20
71.3266097169
 30
0.0
 11
32.9721903401
 21
73.0598587702
 31
0.0
  0
LINE
  5
294
330
1F
100
AcDbEntity
  8
0
  6
SLD-Durchgehend
 62
     7
370
    15
100
AcDbLine
 10
33.1618728089
 20
71.3266097169
 30
0.0
 11
34.7577517825
 21
70.6242546599
 31
0.0
  0
LINE
  5
295
330
1F
100
AcDbEntity
  8
0
  6
SLD-Durchgehend
 62
     7
370
    15
100
AcDbLine
 10
36.1639492186
 20
71.6551486562
 30
0.0
 11
34.7577517825
 21
70.6242546599
 31
0.0
  0
CIRCLE
  5
296
330
1F
100
AcDbEntity
  8
0
  6
SLD-Durchgehend
 62
     7
370
    15
100
AcDbCircle
 10
34.5680695
 20
72.3575038995
 30
0.0
 40
3.499999999999997
  0
ARC
  5
297
330
1F
100
AcDbEntity
  8
0
  6
SLD-Durchgehend
 62
     7
370
    15
100
AcDbCircle
 10
34.5680695
 20
72.3575038995
 30
0.0
 40
1.510000000000094
100
AcDbArc
 50
186.2454444599
 51
246.2454444599
  0
ARC
  5
298
330
1F
100
AcDbEntity
  8
0
  6
SLD-Durchgehend
 62
     7
370
    15
100
AcDbCircle
 10
34.5680695
 20
72.3575038995
 30
0.0
 40
1.510000000000137
100
AcDbArc
 50
126.2454444599
 51
186.2454444599
  0
ARC
  5
299
330
1F
100
AcDbEntity
  8
0
  6
SLD-Durchgehend
 62
     7
370
    15
100
AcDbCircle
 10
34.5680695
 20
72.3575038995
 30
0.0
 40
1.510000000000137
100
AcDbArc
 50
66.2454444599
 51
126.2454444599
  0
ARC
  5
29A
330
1F
100
AcDbEntity
  8
0
  6
SLD-Durchgehend
 62
     7
370
    15
100
AcDbCircle
 10
34.5680695
 20
72.3575038995
 30
0.0
 40
1.510000000000073
100
AcDbArc
 50
6.2454444599
 51
66.2454444599
  0
ARC
  5
29B
330
1F
100
AcDbEntity
  8
0
  6
SLD-Durchgehend
 62
     7
370
    15
100
AcDbCircle
 10
34.5680695
 20
72.3575038995
 30
0.0
 40
1.509999999999942
100
AcDbArc
 50
306.2454444599
 51
6.2454444599
  0
ARC
  5
29C
330
1F
100
AcDbEntity
  8
0
  6
SLD-Durchgehend
 62
     7
370
    15
100
AcDbCircle
 10
34.5680695
 20
72.3575038995
 30
0.0
 40
1.509999999999937
100
AcDbArc
 50
246.2454444599
 51
306.2454444599
  0
LINE
  5
29D
330
1F
100
AcDbEntity
  8
0
  6
SLD-Durchgehend
 62
     7
370
    15
100
AcDbLine
 10
61.1639486598
 20
71.6551486562
 30
0.0
 11
60.9742661911
 21
73.3883986409
 31
0.0
  0
LINE
  5
29E
330
1F
100
AcDbEntity
  8
0
  6
SLD-Durchgehend
 62
     7
370
    15
100
AcDbLine
 10
60.9742661911
 20
73.3883986409
 30
0.0
 11
59.3783872175
 21
74.0907536979
 31
0.0
  0
LINE
  5
29F
330
1F
100
AcDbEntity
  8
0
  6
SLD-Durchgehend
 62
     7
370
    15
100
AcDbLine
 10
57.9721897813
 20
73.0598587702
 30
0.0
 11
59.3783872175
 21
74.0907536979
 31
0.0
  0
LINE
  5
2A0
330
1F
100
AcDbEntity
  8
0
  6
SLD-Durchgehend
 62
     7
370
    15
100
AcDbLine
 10
58.1618722501
 20
71.3266097169
 30
0.0
 11
57.9721897813
 21
73.0598587702
 31
0.0
  0
LINE
  5
2A1
330
1F
100
AcDbEntity
  8
0
  6
SLD-Durchgehend
 62
     7
370
    15
100
AcDbLine
 10
58.1618722501
 20
71.3266097169
 30
0.0
 11
59.757752155
 21
70.6242546599
 31
0.0
  0
LINE
  5
2A2
330
1F
100
AcDbEntity
  8
0
  6
SLD-Durchgehend
 62
     7
370
    15
100
AcDbLine
 10
61.1639486598
 20
71.6551486562
 30
0.0
 11
59.757752155
 21
70.6242546599
 31
0.0
  0
CIRCLE
  5
2A3
330
1F
100
AcDbEntity
  8
0
  6
SLD-Durchgehend
 62
     7
370
    15
100
AcDbCircle
 10
59.5680695
 20
72.3575038995
 30
0.0
 40
3.5
  0
ARC
  5
2A4
330
1F
100
AcDbEntity
  8
0
  6
SLD-Durchgehend
 62
     7
370
    15
100
AcDbCircle
 10
59.5680695
 20
72.3575038995
 30
0.0
 40
1.509999999999935
100
AcDbArc
 50
306.2454444599
 51
6.2454444599
  0
ARC
  5
2A5
330
1F
100
AcDbEntity
  8
0
  6
SLD-Durchgehend
 62
     7
370
    15
100
AcDbCircle
 10
59.5680695
 20
72.3575038995
 30
0.0
 40
1.509999999999943
100
AcDbArc
 50
246.2454444599
 51
306.2454444599
  0
ARC
  5
2A6
330
1F
100
AcDbEntity
  8
0
  6
SLD-Durchgehend
 62
     7
370
    15
100
AcDbCircle
 10
59.5680695
 20
72.3575038995
 30
0.0
 40
1.510000000000103
100
AcDbArc
 50
186.2454444599
 51
246.2454444599
  0
ARC
  5
2A7
330
1F
100
AcDbEntity
  8
0
  6
SLD-Durchgehend
 62
     7
370
    15
100
AcDbCircle
 10
59.5680695
 20
72.3575038995
 30
0.0
 40
1.510000000000145
100
AcDbArc
 50
126.2454444599
 51
186.2454444599
  0
ARC
  5
2A8
330
1F
100
AcDbEntity
  8
0
  6
SLD-Durchgehend
 62
     7
370
    15
100
AcDbCircle
 10
59.5680695
 20
72.3575038995
 30
0.0
 40
1.510000000000145
100
AcDbArc
 50
66.2454444599
 51
126.2454444599
  0
ARC
  5
2A9
330
1F
100
AcDbEntity
  8
0
  6
SLD-Durchgehend
 62
     7
370
    15
100
AcDbCircle
 10
59.5680695
 20
72.3575038995
 30
0.0
 40
1.510000000000068
100
AcDbArc
 50
6.2454444599
 51
66.2454444599
  0
LINE
  5
2AA
330
1F
100
AcDbEntity
  8
0
  6
SLD-Durchgehend
 62
     7
370
    15
100
AcDbLine
 10
36.1639492186
 20
96.6551490287
 30
0.0
 11
35.9742667499
 21
98.3883980821
 31
0.0
  0
LINE
  5
2AB
330
1F
100
AcDbEntity
  8
0
  6
SLD-Durchgehend
 62
     7
370
    15
100
AcDbLine
 10
35.9742667499
 20
98.3883980821
 30
0.0
 11
34.3783868449
 21
99.0907531391
 31
0.0
  0
LINE
  5
2AC
330
1F
100
AcDbEntity
  8
0
  6
SLD-Durchgehend
 62
     7
370
    15
100
AcDbLine
 10
32.9721903401
 20
98.0598591428
 30
0.0
 11
34.3783868449
 21
99.0907531391
 31
0.0
  0
LINE
  5
2AD
330
1F
100
AcDbEntity
  8
0
  6
SLD-Durchgehend
 62
     7
370
    15
100
AcDbLine
 10
33.1618728089
 20
96.3266091581
 30
0.0
 11
32.9721903401
 21
98.0598591428
 31
0.0
  0
LINE
  5
2AE
330
1F
100
AcDbEntity
  8
0
  6
SLD-Durchgehend
 62
     7
370
    15
100
AcDbLine
 10
33.1618728089
 20
96.3266091581
 30
0.0
 11
34.7577517825
 21
95.6242541011
 31
0.0
  0
LINE
  5
2AF
330
1F
100
AcDbEntity
  8
0
  6
SLD-Durchgehend
 62
     7
370
    15
100
AcDbLine
 10
36.1639492186
 20
96.6551490287
 30
0.0
 11
34.7577517825
 21
95.6242541011
 31
0.0
  0
CIRCLE
  5
2B0
330
1F
100
AcDbEntity
  8
0
  6
SLD-Durchgehend
 62
     7
370
    15
100
AcDbCircle
 10
34.5680695
 20
97.3575038995
 30
0.0
 40
3.499999999999997
  0
ARC
  5
2B1
330
1F
100
AcDbEntity
  8
0
  6
SLD-Durchgehend
 62
     7
370
    15
100
AcDbCircle
 10
34.5680695
 20
97.3575038995
 30
0.0
 40
1.510000000000096
100
AcDbArc
 50
186.2454444599
 51
246.2454444599
  0
ARC
  5
2B2
330
1F
100
AcDbEntity
  8
0
  6
SLD-Durchgehend
 62
     7
370
    15
100
AcDbCircle
 10
34.5680695
 20
97.3575038995
 30
0.0
 40
1.510000000000137
100
AcDbArc
 50
126.2454444599
 51
186.2454444599
  0
ARC
  5
2B3
330
1F
100
AcDbEntity
  8
0
  6
SLD-Durchgehend
 62
     7
370
    15
100
AcDbCircle
 10
34.5680695
 20
97.3575038995
 30
0.0
 40
1.510000000000137
100
AcDbArc
 50
66.2454444599
 51
126.2454444599
  0
ARC
  5
2B4
330
1F
100
AcDbEntity
  8
0
  6
SLD-Durchgehend
 62
     7
370
    15
100
AcDbCircle
 10
34.5680695
 20
97.3575038995
 30
0.0
 40
1.510000000000073
100
AcDbArc
 50
6.2454444599
 51
66.2454444599
  0
ARC
  5
2B5
330
1F
100
AcDbEntity
  8
0
  6
SLD-Durchgehend
 62
     7
370
    15
100
AcDbCircle
 10
34.5680695
 20
97.3575038995
 30
0.0
 40
1.509999999999942
100
AcDbArc
 50
306.2454444599
 51
6.2454444599
  0
ARC
  5
2B6
330
1F
100
AcDbEntity
  8
0
  6
SLD-Durchgehend
 62
     7
370
    15
100
AcDbCircle
 10
34.5680695
 20
97.3575038995
 30
0.0
 40
1.509999999999927
100
AcDbArc
 50
246.2454444599
 51
306.2454444599
  0
LINE
  5
2B7
330
1F
100
AcDbEntity
  8
0
  6
SLD-Durchgehend
 62
     7
370
    15
100
AcDbLine
 10
61.1639486598
 20
96.6551490287
 30
0.0
 11
60.9742661911
 21
98.3883980821
 31
0.0
  0
LINE
  5
2B8
330
1F
100
AcDbEntity
  8
0
  6
SLD-Durchgehend
 62
     7
370
    15
100
AcDbLine
 10
60.9742661911
 20
98.3883980821
 30
0.0
 11
59.3783872175
 21
99.0907531391
 31
0.0
  0
LINE
  5
2B9
330
1F
100
AcDbEntity
  8
0
  6
SLD-Durchgehend
 62
     7
370
    15
100
AcDbLine
 10
57.9721897813
 20
98.0598591428
 30
0.0
 11
59.3783872175
 21
99.0907531391
 31
0.0
  0
LINE
  5
2BA
330
1F
100
AcDbEntity
  8
0
  6
SLD-Durchgehend
 62
     7
370
    15
100
AcDbLine
 10
58.1618722501
 20
96.3266091581
 30
0.0
 11
57.9721897813
 21
98.0598591428
 31
0.0
  0
LINE
  5
2BB
330
1F
100
AcDbEntity
  8
0
  6
SLD-Durchgehend
 62
     7
370
    15
100
AcDbLine
 10
58.1618722501
 20
96.3266091581
 30
0.0
 11
59.757752155
 21
95.6242541011
 31
0.0
  0
LINE
  5
2BC
330
1F
100
AcDbEntity
  8
0
  6
SLD-Durchgehend
 62
     7
370
    15
100
AcDbLine
 10
61.1639486598
 20
96.6551490287
 30
0.0
 11
59.757752155
 21
95.6242541011
 31
0.0
  0
CIRCLE
  5
2BD
330
1F
100
AcDbEntity
  8
0
  6
SLD-Durchgehend
 62
     7
370
    15
100
AcDbCircle
 10
59.5680695
 20
97.3575038995
 30
0.0
 40
3.5
  0
ARC
  5
2BE
330
1F
100
AcDbEntity
  8
0
  6
SLD-Durchgehend
 62
     7
370
    15
100
AcDbCircle
 10
59.5680695
 20
97.3575038995
 30
0.0
 40
1.510000000000103
100
AcDbArc
 50
186.2454444599
 51
246.2454444599
  0
ARC
  5
2BF
330
1F
100
AcDbEntity
  8
0
  6
SLD-Durchgehend
 62
     7
370
    15
100
AcDbCircle
 10
59.5680695
 20
97.3575038995
 30
0.0
 40
1.510000000000141
100
AcDbArc
 50
126.2454444599
 51
186.2454444599
  0
ARC
  5
2C0
330
1F
100
AcDbEntity
  8
0
  6
SLD-Durchgehend
 62
     7
370
    15
100
AcDbCircle
 10
59.5680695
 20
97.3575038995
 30
0.0
 40
1.510000000000141
100
AcDbArc
 50
66.2454444599
 51
126.2454444599
  0
ARC
  5
2C1
330
1F
100
AcDbEntity
  8
0
  6
SLD-Durchgehend
 62
     7
370
    15
100
AcDbCircle
 10
59.5680695
 20
97.3575038995
 30
0.0
 40
1.510000000000068
100
AcDbArc
 50
6.2454444599
 51
66.2454444599
  0
ARC
  5
2C2
330
1F
100
AcDbEntity
  8
0
  6
SLD-Durchgehend
 62
     7
370
    15
100
AcDbCircle
 10
59.5680695
 20
97.3575038995
 30
0.0
 40
1.509999999999935
100
AcDbArc
 50
306.2454444599
 51
6.2454444599
  0
ARC
  5
2C3
330
1F
100
AcDbEntity
  8
0
  6
SLD-Durchgehend
 62
     7
370
    15
100
AcDbCircle
 10
59.5680695
 20
97.3575038995
 30
0.0
 40
1.50999999999994
100
AcDbArc
 50
246.2454444599
 51
306.2454444599
  0
CIRCLE
  5
2C4
330
1F
100
AcDbEntity
  8
0
  6
SLD-Durchgehend
 62
     7
370
    15
100
AcDbCircle
 10
47.0680695
 20
88.8575038995
 30
0.0
 40
2.678460969082664
  0
CIRCLE
  5
2C5
330
1F
100
AcDbEntity
  8
0
  6
SLD-Durchgehend
 62
     7
370
    15
100
AcDbCircle
 10
47.0680695
 20
88.8575038995
 30
0.0
 40
2.999999999999993
  0
CIRCLE
  5
2C6
330
1F
100
AcDbEntity
  8
0
  6
SLD-Durchgehend
 62
     7
370
    15
100
AcDbCircle
 10
47.0680695
 20
84.8575038995
 30
0.0
 40
12.5
  0
LINE
  5
2C7
330
1F
100
AcDbEntity
  8
0
  6
SLD-Durchgehend
 62
     7
370
    15
100
AcDbLine
 10
30.5680695894
 20
68.3575039889
 30
0.0
 11
30.5680695894
 21
101.3575038101
 31
0.0
  0
LINE
  5
2C8
330
1F
100
AcDbEntity
  8
0
  6
SLD-Durchgehend
 62
     7
370
    15
100
AcDbLine
 10
30.5680695894
 20
101.3575038101
 30
0.0
 11
63.5680694106
 21
101.3575038101
 31
0.0
  0
LINE
  5
2C9
330
1F
100
AcDbEntity
  8
0
  6
SLD-Durchgehend
 62
     7
370
    15
100
AcDbLine
 10
63.5680694106
 20
101.3575038101
 30
0.0
 11
63.5680694106
 21
68.3575039889
 31
0.0
  0
LINE
  5
2CA
330
1F
100
AcDbEntity
  8
0
  6
SLD-Durchgehend
 62
     7
370
    15
100
AcDbLine
 10
63.5680694106
 20
68.3575039889
 30
0.0
 11
30.5680695894
 21
68.3575039889
 31
0.0
  0
INSERT
  5
2D6
330
1F
100
AcDbEntity
  8
0
  6
SLD-Durchgehend
 62
     7
370
     0
100
AcDbBlockReference
  2
SW_CENTERMARKSYMBOL_2
 10
34.5680695
 20
97.3575038995
 30
0.0
  0
INSERT
  5
2E2
330
1F
100
AcDbEntity
  8
0
  6
SLD-Durchgehend
 62
     7
370
     0
100
AcDbBlockReference
  2
SW_CENTERMARKSYMBOL_3
 10
47.0680695
 20
84.8575038995
 30
0.0
  0
INSERT
  5
2EE
330
1F
100
AcDbEntity
  8
0
  6
SLD-Durchgehend
 62
     7
370
     0
100
AcDbBlockReference
  2
SW_CENTERMARKSYMBOL_4
 10
47.0680695
 20
88.8575038995
 30
0.0
  0
INSERT
  5
2FA
330
1F
100
AcDbEntity
  8
0
  6
SLD-Durchgehend
 62
     7
370
     0
100
AcDbBlockReference
  2
SW_CENTERMARKSYMBOL_5
 10
59.5680695
 20
97.3575038995
 30
0.0
  0
INSERT
  5
306
330
1F
100
AcDbEntity
  8
0
  6
SLD-Durchgehend
 62
     7
370
     0
100
AcDbBlockReference
  2
SW_CENTERMARKSYMBOL_6
 10
59.5680695
 20
72.3575038995
 30
0.0
  0
INSERT
  5
312
330
1F
100
AcDbEntity
  8
0
  6
SLD-Durchgehend
 62
     7
370
     0
100
AcDbBlockReference
  2
SW_CENTERMARKSYMBOL_7
 10
34.5680695
 20
72.3575038995
 30
0.0
  0
ARC
  5
313
330
1F
100
AcDbEntity
  8
0
  6
SLD-Durchgehend
 62
     7
370
    15
100
AcDbCircle
 10
257.0792944164
 20
101.6575038995
 30
0.0
 40
0.2000000000000455
100
AcDbArc
 50
0.0
 51
90.0
  0
ARC
  5
314
330
1F
100
AcDbEntity
  8
0
  6
SLD-Durchgehend
 62
     7
370
    15
100
AcDbCircle
 10
251.4792944164
 20
101.6575038995
 30
0.0
 40
0.2000000000000028
100
AcDbArc
 50
90.0
 51
180.0
  0
LINE
  5
315
330
1F
100
AcDbEntity
  8
0
  6
SLD-Durchgehend
 62
     7
370
    15
100
AcDbLine
 10
257.2792944425
 20
101.3575038101
 30
0.0
 11
257.2792944425
 21
101.6575033005
 31
0.0
  0
LINE
  5
316
330
1F
100
AcDbEntity
  8
0
  6
SLD-Durchgehend
 62
     7
370
    15
100
AcDbLine
 10
251.2792943903
 20
101.6575033005
 30
0.0
 11
251.2792943903
 21
101.3575038101
 31
0.0
  0
CIRCLE
  5
317
330
1F
100
AcDbEntity
  8
0
  6
SLD-Durchgehend
 62
     7
370
    15
100
AcDbCircle
 10
254.2792944164
 20
84.8575038995
 30
0.0
 40
3.249999999999943
  0
LINE
  5
318
330
1F
100
AcDbEntity
  8
0
  6
SLD-Durchgehend
 62
     7
370
    15
100
AcDbLine
 10
258.1792943106
 20
76.8575035195
 30
0.0
 11
250.3792945222
 21
76.8575035195
 31
0.0
  0
LINE
  5
319
330
1F
100
AcDbEntity
  8
0
  6
SLD-Durchgehend
 62
     7
370
    15
100
AcDbLine
 10
250.3792945222
 20
92.8575042795
 30
0.0
 11
258.1792943106
 21
92.8575042795
 31
0.0
  0
ARC
  5
31A
330
1F
100
AcDbEntity
  8
0
  6
SLD-Durchgehend
 62
     7
370
    15
100
AcDbCircle
 10
254.2792944164
 20
84.8575038995
 30
0.0
 40
8.89999999999999
100
AcDbArc
 50
115.9892335838
 51
244.0107664162
  0
ARC
  5
31B
330
1F
100
AcDbEntity
  8
0
  6
SLD-Durchgehend
 62
     7
370
    15
100
AcDbCircle
 10
254.2792944164
 20
84.8575038995
 30
0.0
 40
8.89999999999999
100
AcDbArc
 50
295.9892335838
 51
64.0107664162
  0
CIRCLE
  5
31C
330
1F
100
AcDbEntity
  8
0
  6
SLD-Durchgehend
 62
     7
370
    15
100
AcDbCircle
 10
254.2792944164
 20
84.8575038995
 30
0.0
 40
2.5
  0
ARC
  5
31D
330
1F
100
AcDbEntity
  8
0
  6
SLD-Durchgehend
 62
     7
370
    15
100
AcDbCircle
 10
254.2792944164
 20
84.8575038995
 30
0.0
 40
8.89999999999999
100
AcDbArc
 50
64.0107664162
 51
115.9892335838
  0
ARC
  5
31E
330
1F
100
AcDbEntity
  8
0
  6
SLD-Durchgehend
 62
     7
370
    15
100
AcDbCircle
 10
254.2792944164
 20
84.8575038995
 30
0.0
 40
8.89999999999999
100
AcDbArc
 50
244.0107664162
 51
295.9892335838
  0
CIRCLE
  5
31F
330
1F
100
AcDbEntity
  8
0
  6
SLD-Durchgehend
 62
     7
370
    15
100
AcDbCircle
 10
254.2792944164
 20
84.8575038995
 30
0.0
 40
9.0
  0
LINE
  5
320
330
1F
100
AcDbEntity
  8
0
  6
SLD-Durchgehend
 62
     7
370
    15
100
AcDbLine
 10
237.7792945058
 20
68.3575039889
 30
0.0
 11
238.1788430662
 21
68.3575039889
 31
0.0
  0
LINE
  5
321
330
1F
100
AcDbEntity
  8
0
  6
SLD-Durchgehend
 62
     7
370
    15
100
AcDbLine
 10
237.7792945058
 20
101.3575038101
 30
0.0
 11
237.7792945058
 21
68.3575039889
 31
0.0
  0
LINE
  5
322
330
1F
100
AcDbEntity
  8
0
  6
SLD-Durchgehend
 62
     7
370
    15
100
AcDbLine
 10
270.779294327
 20
68.3575039889
 30
0.0
 11
270.779294327
 21
101.3575038101
 31
0.0
  0
LINE
  5
323
330
1F
100
AcDbEntity
  8
0
  6
SLD-Durchgehend
 62
     7
370
    15
100
AcDbLine
 10
270.0289668442
 20
68.3575039889
 30
0.0
 11
270.779294327
 21
68.3575039889
 31
0.0
  0
SPLINE
  5
324
330
1F
100
AcDbEntity
  8
0
  6
SLD-Durchgehend
 62
     7
370
     0
100
AcDbSpline
210
0.0
220
0.0
230
1.0
 70
     8
 71
     3
 72
    15
 73
    11
 74
     0
 42
0.000000001
 43
0.00000001
 40
0.3166629578668573
 40
0.3166629578668573
 40
0.3166629578668573
 40
0.3166629578668573
 40
0.3462234501092484
 40
0.4106007474336104
 40
0.458987807520969
 40
0.6155764146411009
 40
0.7667772109844855
 40
0.8056197192324219
 40
0.8855978882351543
 40
0.9079448073065879
 40
0.9079448073065879
 40
0.9079448073065879
 40
0.9079448073065879
 10
270.0289666219267
 20
68.35750389640742
 30
0.0
 10
270.1585511336634
 20
69.23275564198558
 30
0.0
 10
270.3505035322127
 20
72.25268516277738
 30
0.0
 10
271.0889732315218
 20
76.58536739273065
 30
0.0
 10
263.6755747908969
 20
82.75071216011017
 30
0.0
 10
254.2323139069148
 20
66.95361003202952
 30
0.0
 10
245.8540787821936
 20
80.46103611688953
 30
0.0
 10
236.9809024917621
 20
77.49017205166672
 30
0.0
 10
238.3500026870006
 20
72.59190872811111
 30
0.0
 10
238.1740993200198
 20
69.06910692230197
 30
0.0
 10
238.1788422018384
 20
68.3575038994886
 30
0.0
  0
LINE
  5
325
330
1F
100
AcDbEntity
  8
0
  6
SLD-Durchgehend
 62
     7
370
    15
100
AcDbLine
 10
270.779294327
 20
101.3575038101
 30
0.0
 11
237.7792945058
 21
101.3575038101
 31
0.0
  0
LINE
  5
326
330
1F
100
AcDbEntity
  8
0
  6
SLD-Durchgehend
 62
     7
370
    15
100
AcDbLine
 10
268.3792946787
 20
76.3575034375
 30
0.0
 11
268.3792946787
 21
68.3575039889
 31
0.0
  0
LINE
  5
327
330
1F
100
AcDbEntity
  8
0
  6
SLD-Durchgehend
 62
     7
370
    15
100
AcDbLine
 10
266.2792945207
 20
77.3367500092
 30
0.0
 11
268.3792946787
 21
76.3575034375
 31
0.0
  0
LINE
  5
328
330
1F
100
AcDbEntity
  8
0
  6
SLD-Durchgehend
 62
     7
370
    15
100
AcDbLine
 10
264.1792943628
 20
76.3575034375
 30
0.0
 11
266.2792945207
 21
77.3367500092
 31
0.0
  0
LINE
  5
329
330
1F
100
AcDbEntity
  8
0
  6
SLD-Durchgehend
 62
     7
370
    15
100
AcDbLine
 10
264.1792943628
 20
68.3575039889
 30
0.0
 11
264.1792943628
 21
76.3575034375
 31
0.0
  0
LINE
  5
32A
330
1F
100
AcDbEntity
  8
0
  6
SLD-Durchgehend
 62
     7
370
    15
100
AcDbLine
 10
244.3792944701
 20
76.3575034375
 30
0.0
 11
244.3792944701
 21
68.3575039889
 31
0.0
  0
LINE
  5
32B
330
1F
100
AcDbEntity
  8
0
  6
SLD-Durchgehend
 62
     7
370
    15
100
AcDbLine
 10
242.2792943121
 20
77.3367500092
 30
0.0
 11
244.3792944701
 21
76.3575034375
 31
0.0
  0
LINE
  5
32C
330
1F
100
AcDbEntity
  8
0
  6
SLD-Durchgehend
 62
     7
370
    15
100
AcDbLine
 10
240.1792941541
 20
76.3575034375
 30
0.0
 11
242.2792943121
 21
77.3367500092
 31
0.0
  0
LINE
  5
32D
330
1F
100
AcDbEntity
  8
0
  6
SLD-Durchgehend
 62
     7
370
    15
100
AcDbLine
 10
240.1792941541
 20
68.3575039889
 30
0.0
 11
240.1792941541
 21
76.3575034375
 31
0.0
  0
LINE
  5
32E
330
1F
100
AcDbEntity
  8
0
  6
SLD-Durchgehend
 62
     7
370
    15
100
AcDbLine
 10
244.3792944701
 20
68.3575039889
 30
0.0
 11
264.1792943628
 21
68.3575039889
 31
0.0
  0
LINE
  5
32F
330
1F
100
AcDbEntity
  8
0
  6
SLD-Durchgehend
 62
     7
370
    15
100
AcDbLine
 10
268.3792946787
 20
68.3575039889
 30
0.0
 11
270.0289668442
 21
68.3575039889
 31
0.0
  0
LINE
  5
330
330
1F
100
AcDbEntity
  8
0
  6
SLD-Durchgehend
 62
     7
370
    15
100
AcDbLine
 10
238.1788430662
 20
68.3575039889
 30
0.0
 11
240.1792941541
 21
68.3575039889
 31
0.0
  0
LINE
  5
331
330
1F
100
AcDbEntity
  8
0
  6
SLD-Durchgehend
 62
     7
370
    15
100
AcDbLine
 10
240.1792941541
 20
76.3575034375
 30
0.0
 11
244.3792944701
 21
76.3575034375
 31
0.0
  0
LINE
  5
332
330
1F
100
AcDbEntity
  8
0
  6
SLD-Durchgehend
 62
     7
370
    15
100
AcDbLine
 10
240.1792941541
 20
68.3575039889
 30
0.0
 11
244.3792944701
 21
68.3575039889
 31
0.0
  0
LINE
  5
333
330
1F
100
AcDbEntity
  8
0
  6
SLD-Durchgehend
 62
     7
370
    15
100
AcDbLine
 10
264.1792943628
 20
76.3575034375
 30
0.0
 11
268.3792946787
 21
76.3575034375
 31
0.0
  0
LINE
  5
334
330
1F
100
AcDbEntity
  8
0
  6
SLD-Durchgehend
 62
     7
370
    15
100
AcDbLine
 10
264.1792943628
 20
68.3575039889
 30
0.0
 11
268.3792946787
 21
68.3575039889
 31
0.0
  0
LINE
  5
335
330
1F
100
AcDbEntity
  8
0
  6
SLD-Durchgehend
 62
     7
370
    15
100
AcDbLine
 10
256.9642296453
 20
101.8575048234
 30
0.0
 11
257.0792943166
 21
101.8575048234
 31
0.0
  0
LINE
  5
336
330
1F
100
AcDbEntity
  8
0
  6
SLD-Durchgehend
 62
     7
370
    15
100
AcDbLine
 10
251.4792945162
 20
101.8575048234
 30
0.0
 11
256.9642296453
 21
101.8575048234
 31
0.0
  0
HATCH
  5
337
330
1F
100
AcDbEntity
  8
0
  6
SLD-Durchgehend
 62
     7
370
     0
100
AcDbHatch
 10
0.0
 20
0.0
 30
0.0
210
0.0
220
0.0
230
1.0
  2
ANSI31
 70
     0
 71
     0
 91
        1
 92
        0
 93
       12
 72
     1
 10
268.3792944164091
 20
68.35750389948467
 11
270.0289666219269
 21
68.35750389640744
 72
     4
 94
        3
 73
     1
 74
     0
 95
       15
 96
       11
 40
0.3166629578668582
 40
0.3166629578668582
 40
0.3166629578668582
 40
0.3166629578668582
 40
0.3462234501092484
 40
0.4106007474336104
 40
0.458987807520969
 40
0.6155764146411009
 40
0.7667772109844855
 40
0.8056197192324219
 40
0.8855978882351543
 40
0.9079448073065871
 40
0.9079448073065871
 40
0.9079448073065871
 40
0.9079448073065871
 10
270.0289666219269
 20
68.35750389640744
 42
1.0
 10
270.1585511336635
 20
69.23275564198556
 42
1.0
 10
270.3505035322129
 20
72.25268516277734
 42
1.0
 10
271.0889732315219
 20
76.58536739273057
 42
1.0
 10
263.675574790897
 20
82.75071216011008
 42
1.0
 10
254.232313906915
 20
66.95361003202939
 42
1.0
 10
245.8540787821937
 20
80.46103611688937
 42
1.0
 10
236.9809024917623
 20
77.49017205166655
 42
1.0
 10
238.3500026870008
 20
72.59190872811094
 42
1.0
 10
238.17409932002
 20
69.06910692230186
 42
1.0
 10
238.1788422018385
 20
68.3575038994885
 42
1.0
 72
     1
 10
238.1788422018385
 20
68.35750389948844
 11
240.1792944164091
 21
68.35750389948456
 72
     1
 10
240.1792944164091
 20
68.35750389948456
 11
240.1792944164091
 21
76.35750389948457
 72
     1
 10
240.1792944164091
 20
76.35750389948457
 11
242.2792944164091
 21
77.33674998161007
 72
     1
 10
242.2792944164091
 20
77.33674998161007
 11
244.3792944164091
 21
76.35750389948458
 72
     1
 10
244.3792944164091
 20
76.35750389948458
 11
244.3792944164091
 21
68.35750389948458
 72
     1
 10
244.3792944164091
 20
68.35750389948458
 11
264.1792944164092
 21
68.35750389948464
 72
     1
 10
264.1792944164092
 20
68.35750389948464
 11
264.1792944164091
 21
76.35750389948464
 72
     1
 10
264.1792944164091
 20
76.35750389948464
 11
266.2792944164091
 21
77.33674998161015
 72
     1
 10
266.2792944164091
 20
77.33674998161015
 11
268.379294416409
 21
76.35750389948467
 72
     1
 10
268.379294416409
 20
76.35750389948467
 11
268.3792944164091
 21
68.35750389948467
 97
        0
 75
     0
 76
     1
 52
0.0
 41
1.0
 77
     0
 78
     1
 53
45.0
 43
0.0
 44
0.0
 45
-2.245064030267288
 46
2.245064030267288
 79
     0
 98
        1
 10
0.0
 20
0.0
  0
DIMENSION
  5
338
330
1F
100
AcDbEntity
  8
0
  6
SLD-Durchgehend
 62
     7
370
     0
100
AcDbDimension
  2
_D_14
 10
231.3365810651
 20
76.8575038995
 30
0.0
 11
231.3365810651
 21
84.8575038995
 31
0.0
 70
   160
  1
SW<>
 71
     2
 42
-1.0
  3
SLDDIMSTYLE2
100
AcDbAlignedDimension
 13
250.3792944164
 23
92.8575038995
 33
0.0
 14
250.3792944164
 24
76.8575038995
 34
0.0
 50
90.0
100
AcDbRotatedDimension
  0
DIMENSION
  5
343
330
1F
100
AcDbEntity
  8
0
  6
SLD-Durchgehend
 62
     7
370
     0
100
AcDbDimension
  2
_D_15
 10
237.7792944164
 20
107.780950226
 30
0.0
 11
254.2792944164
 21
107.780950226
 31
0.0
 70
   160
  1
<>
 71
     2
 42
-1.0
  3
SLDDIMSTYLE2
100
AcDbAlignedDimension
 13
270.7792944164
 23
101.3575038995
 33
0.0
 14
237.7792944164
 24
101.3575038995
 34
0.0
 50
0.0
100
AcDbRotatedDimension
  0
DIMENSION
  5
34D
330
1F
100
AcDbEntity
  8
0
  6
SLD-Durchgehend
 62
     7
370
     0
100
AcDbDimension
  2
_D_16
 10
221.8222128207
 20
68.3575038995
 30
0.0
 11
221.8222128207
 21
84.8575038995
 31
0.0
 70
   160
  1
<>
 71
     2
 42
-1.0
  3
SLDDIMSTYLE2
100
AcDbAlignedDimension
 13
237.7792944164
 23
101.3575038995
 33
0.0
 14
237.7792944164
 24
68.3575038995
 34
0.0
 50
90.0
100
AcDbRotatedDimension
  0
INSERT
  5
362
330
1F
100
AcDbEntity
  8
0
  6
Continuous
 62
     7
370
     0
100
AcDbBlockReference
  2
SW_CENTERMARKSYMBOL_8
 10
254.2792944164
 20
84.8575038995
 30
0.0
  0
LINE
  5
363
330
1F
100
AcDbEntity
  8
0
  6
SLD-Durchgehend
 62
     7
370
     0
100
AcDbLine
 10
263.7792941109
 20
68.3575039889
 30
0.0
 11
263.7792941109
 21
74.857504123
 31
0.0
  0
LINE
  5
364
330
1F
100
AcDbEntity
  8
0
  6
SLD-Durchgehend
 62
     7
370
     0
100
AcDbLine
 10
268.7792939992
 20
74.857504123
 30
0.0
 11
268.7792939992
 21
68.3575039889
 31
0.0
  0
LINE
  5
365
330
1F
100
AcDbEntity
  8
0
  6
SLD-Durchgehend
 62
     7
370
     0
100
AcDbLine
 10
268.3792946787
 20
74.857504123
 30
0.0
 11
268.7792939992
 21
74.857504123
 31
0.0
  0
LINE
  5
366
330
1F
100
AcDbEntity
  8
0
  6
SLD-Durchgehend
 62
     7
370
     0
100
AcDbLine
 10
263.7792941109
 20
74.857504123
 30
0.0
 11
264.1792943628
 21
74.857504123
 31
0.0
  0
LINE
  5
367
330
1F
100
AcDbEntity
  8
0
  6
SLD-Durchgehend
 62
     7
370
     0
100
AcDbLine
 10
268.3792114258
 20
74.857504123
 30
0.0
 11
264.1792943628
 21
74.857504123
 31
0.0
  0
LINE
  5
368
330
1F
100
AcDbEntity
  8
0
  6
SLD-Durchgehend
 62
     7
370
     0
100
AcDbLine
 10
239.7792948336
 20
68.3575039889
 30
0.0
 11
239.7792948336
 21
74.857504123
 31
0.0
  0
LINE
  5
369
330
1F
100
AcDbEntity
  8
0
  6
SLD-Durchgehend
 62
     7
370
     0
100
AcDbLine
 10
244.7792947219
 20
74.857504123
 30
0.0
 11
244.7792947219
 21
68.3575039889
 31
0.0
  0
LINE
  5
36A
330
1F
100
AcDbEntity
  8
0
  6
SLD-Durchgehend
 62
     7
370
     0
100
AcDbLine
 10
244.3792944701
 20
74.857504123
 30
0.0
 11
244.7792947219
 21
74.857504123
 31
0.0
  0
LINE
  5
36B
330
1F
100
AcDbEntity
  8
0
  6
SLD-Durchgehend
 62
     7
370
     0
100
AcDbLine
 10
239.7792948336
 20
74.857504123
 30
0.0
 11
240.1792941541
 21
74.857504123
 31
0.0
  0
LINE
  5
36C
330
1F
100
AcDbEntity
  8
0
  6
SLD-Durchgehend
 62
     7
370
     0
100
AcDbLine
 10
244.3792819977
 20
74.857504123
 30
0.0
 11
240.1792941541
 21
74.857504123
 31
0.0
  0
ARC
  5
36D
330
1F
100
AcDbEntity
  8
0
  6
SLD-Durchgehend
 62
     7
370
     0
100
AcDbCircle
 10
254.2792944164
 20
84.8575038995
 30
0.0
 40
3.000000026077083
100
AcDbArc
 50
75.0
 51
345.0
  0
LINE
  5
36E
330
1F
100
AcDbEntity
  8
0
  6
SLD-Punktstrich
 62
     7
370
     0
100
AcDbLine
 10
242.2792944164
 20
78.3575038995
 30
0.0
 11
242.2792944164
 21
66.3575038995
 31
0.0
  0
LINE
  5
36F
330
1F
100
AcDbEntity
  8
0
  6
SLD-Punktstrich
 62
     7
370
     0
100
AcDbLine
 10
266.2792944164
 20
78.3575038995
 30
0.0
 11
266.2792944164
 21
66.3575038995
 31
0.0
  0
LINE
  5
370
330
1F
100
AcDbEntity
  8
0
  6
SLD-Naht
 62
     7
370
    15
100
AcDbLine
 10
131.5001100592
 20
93.8575035121
 30
0.0
 11
111.5001105063
 21
93.8575035121
 31
0.0
  0
LINE
  5
371
330
1F
100
AcDbEntity
  8
0
  6
SLD-Naht
 62
     7
370
    15
100
AcDbLine
 10
111.5001105063
 20
75.8575042869
 30
0.0
 11
131.5001100592
 21
75.8575042869
 31
0.0
  0
LINE
  5
372
330
1F
100
AcDbEntity
  8
0
  6
SLD-Naht
 62
     7
370
    15
100
AcDbLine
 10
111.5001105063
 20
93.7575036819
 30
0.0
 11
110.5001084797
 21
93.7575036819
 31
0.0
  0
LINE
  5
373
330
1F
100
AcDbEntity
  8
0
  6
SLD-Naht
 62
     7
370
    15
100
AcDbLine
 10
110.5001084797
 20
75.957504117
 30
0.0
 11
111.5001105063
 21
75.957504117
 31
0.0
  0
LWPOLYLINE
  5
374
330
1F
100
AcDbEntity
  8
0
  6
SLD-Durchgehend
 62
     7
370
     0
100
AcDbPolyline
 90
      441
 70
   128
 43
0.0
 10
131.5001100592
 20
69.8197465549
 10
131.5805837803
 20
69.8721232052
 10
131.6608377092
 20
69.9247867028
 10
131.7408681206
 20
69.9777342539
 10
131.8206712894
 20
70.0309649269
 10
131.9002509408
 20
70.0844759281
 10
131.9781877391
 20
70.1373033385
 10
132.05590102
 20
70.1903971072
 10
132.1333945088
 20
70.2437553714
 10
132.2106607549
 20
70.2973772
 10
132.2892681055
 20
70.3523624848
 10
132.3676370375
 20
70.4076178531
 10
132.4457675509
 20
70.4631405111
 10
132.5236559205
 20
70.5189295273
 10
132.6012984209
 20
70.5749830391
 10
132.6786950521
 20
70.6312973212
 10
132.7558420889
 20
70.6878714423
 10
132.8327432565
 20
70.7447035398
 10
132.9093911044
 20
70.8017917509
 10
132.9857856326
 20
70.8591332819
 10
133.0619231157
 20
70.9167262699
 10
133.1378035538
 20
70.9745688523
 10
133.2134269468
 20
71.0326600979
 10
133.2887858443
 20
71.0909962814
 10
133.3576366596
 20
71.1446851651
 10
133.4262639575
 20
71.1985770772
 10
133.4946677379
 20
71.252670155
 10
133.5628442757
 20
71.3069643985
 10
133.6307935707
 20
71.3614560823
 10
133.6985156231
 20
71.4161452065
 10
133.7721348099
 20
71.4760283168
 10
133.8454746
 20
71.536142395
 10
133.9185387187
 20
71.5964846472
 10
133.9913234405
 20
71.6570541422
 10
134.0638287656
 20
71.7178471546
 10
134.1360509686
 20
71.7788627531
 10
134.2079863243
 20
71.8400981437
 10
134.2736743681
 20
71.8964226703
 10
134.3391239934
 20
71.9529297362
 10
134.4043277495
 20
72.0096165474
 10
134.4692856364
 20
72.0664821725
 10
134.5339976542
 20
72.1235247488
 10
134.5984600775
 20
72.1807433452
 10
134.6626729064
 20
72.2381360988
 10
134.7266361408
 20
72.2957011472
 10
134.7903460555
 20
72.3534375589
 10
134.8537989251
 20
72.4113434713
 10
134.9170022003
 20
72.4694160904
 10
134.9799447052
 20
72.5276563476
 10
135.0390538864
 20
72.5827189322
 10
135.0979320995
 20
72.6379268031
 10
135.1565774821
 20
72.6932780977
 10
135.2149918966
 20
72.7487728159
 10
135.2731697552
 20
72.8044081639
 10
135.3401895903
 20
72.8689544062
 10
135.4068909131
 20
72.9336859818
 10
135.4732737236
 20
72.9986000966
 10
135.5393342964
 20
73.0636958192
 10
135.605070769
 20
73.1289712872
 10
135.6704831414
 20
73.1944237064
 10
135.7355676882
 20
73.2600512142
 10
135.794941365
 20
73.3203618015
 10
135.854035645
 20
73.3808167438
 10
135.9128505282
 20
73.4414141785
 10
135.971384152
 20
73.5021522428
 10
136.0296365164
 20
73.5630290742
 10
136.0876038961
 20
73.6240437414
 10
136.1452881537
 20
73.6851953129
 10
136.2026837014
 20
73.746480995
 10
136.2597924016
 20
73.8078989248
 10
136.3166105293
 20
73.8694491024
 10
136.3731380843
 20
73.9311296652
 10
136.429373204
 20
73.9929378192
 10
136.4821251772
 20
74.0513308133
 10
136.5346163802
 20
74.1098346348
 10
136.5868412249
 20
74.1684492837
 10
136.6388034366
 20
74.227171966
 10
136.6904974274
 20
74.2860026817
 10
136.7450338148
 20
74.3485149156
 10
136.7992665909
 20
74.4111444961
 10
136.8531957559
 20
74.4738904919
 10
136.9068194471
 20
74.5367519717
 10
136.9601376645
 20
74.5997261415
 10
137.0131466828
 20
74.6628120701
 10
137.0628439181
 20
74.7223934318
 10
137.1122636192
 20
74.7820725824
 10
137.1614076488
 20
74.8418457966
 10
137.210270419
 20
74.9017140056
 10
137.2588537924
 20
74.9616744156
 10
137.3071577691
 20
75.0217260952
 10
137.355176761
 20
75.0818681131
 10
137.4029126309
 20
75.1420986067
 10
137.4503635161
 20
75.2024166445
 10
137.4975294165
 20
75.2628203641
 10
137.543572142
 20
75.3222284998
 10
137.5893354706
 20
75.3817167293
 10
137.6348212652
 20
75.4412850524
 10
137.6800239377
 20
75.5009306754
 10
137.7256270789
 20
75.5615616377
 10
137.7709377848
 20
75.6222698997
 10
137.8159541927
 20
75.6830554615
 10
137.8606781654
 20
75.7439155291
 10
137.9051059775
 20
75.8048501025
 10
137.9484515928
 20
75.8647676717
 10
137.9915103607
 20
75.9247532274
 10
138.0342804186
 20
75.984807701
 10
138.0767617665
 20
76.0449273671
 10
138.1198093586
 20
76.106342503
 10
138.1625533395
 20
76.1678237627
 10
138.2049918465
 20
76.2293702151
 10
138.2471248798
 20
76.2909809287
 10
138.2889505766
 20
76.3526540409
 10
138.3304652117
 20
76.4143886204
 10
138.3716725104
 20
76.4761837359
 10
138.4125668846
 20
76.5380375247
 10
138.4531501971
 20
76.5999490555
 10
138.4934187226
 20
76.6619164656
 10
138.533372461
 20
76.7239388238
 10
138.5730114125
 20
76.7860151987
 10
138.6123318516
 20
76.8481437276
 10
138.6513337784
 20
76.9103234793
 10
138.6938672803
 20
76.9787784825
 10
138.7360114895
 20
77.0472916934
 10
138.7777664058
 20
77.1158612493
 10
138.819128304
 20
77.1844862188
 10
138.860097184
 20
77.2531642738
 10
138.8969999097
 20
77.3156439114
 10
138.9335748099
 20
77.3781645271
 10
138.9698200218
 20
77.4407251897
 10
139.0057355456
 20
77.5033240366
 10
139.0413195185
 20
77.565960602
 10
139.076570078
 20
77.628633489
 10
139.111487224
 20
77.6913408349
 10
139.1432006203
 20
77.7488518666
 10
139.1746327572
 20
77.8063899066
 10
139.2057799093
 20
77.8639544892
 10
139.2366439395
 20
77.921543752
 10
139.2672211222
 20
77.9791572291
 10
139.2975133203
 20
78.0367935236
 10
139.327518671
 20
78.0944521698
 10
139.3572353117
 20
78.1521317708
 10
139.3866632424
 20
78.2098313953
 10
139.4158006005
 20
78.2675501119
 10
139.4446473859
 20
78.3252869892
 10
139.4732017361
 20
78.3830406304
 10
139.4998580508
 20
78.4375090311
 10
139.5262517326
 20
78.4919909361
 10
139.552384644
 20
78.5464854139
 10
139.5782549225
 20
78.6009915332
 10
139.6038607053
 20
78.6555083628
 10
139.6331582509
 20
78.7185984823
 10
139.6621000312
 20
78.781700709
 10
139.6906860463
 20
78.8448136459
 10
139.7189144336
 20
78.9079363617
 10
139.7467851929
 20
78.9710669938
 10
139.7742964618
 20
79.0342046107
 10
139.8014463775
 20
79.0973482813
 10
139.826014667
 20
79.1552332389
 10
139.8502793454
 20
79.2131214562
 10
139.8742366873
 20
79.2710110705
 10
139.8978866927
 20
79.3289011504
 10
139.9212274991
 20
79.3867912303
 10
139.944260969
 20
79.4446794476
 10
139.9669833772
 20
79.5025658022
 10
139.9893965863
 20
79.5604484315
 10
140.011496871
 20
79.6183268699
 10
140.0332842313
 20
79.6761997204
 10
140.0547568046
 20
79.7340665172
 10
140.0759164534
 20
79.7919258635
 10
140.095576673
 20
79.8464710984
 10
140.1149556331
 20
79.9010079513
 10
140.1340533338
 20
79.9555359568
 10
140.1528660499
 20
80.0100537176
 10
140.1713975064
 20
80.0645607683
 10
140.1907392137
 20
80.1223581816
 10
140.2097605459
 20
80.1801420908
 10
140.2284596406
 20
80.2379101674
 10
140.2468364976
 20
80.2956628773
 10
140.2648892544
 20
80.353397892
 10
140.2826179109
 20
80.4111147459
 10
140.2990352653
 20
80.4655160914
 10
140.3151601844
 20
80.5198997419
 10
140.3309963934
 20
80.5742643002
 10
140.3465383045
 20
80.6286097664
 10
140.361789643
 20
80.6829347435
 10
140.3767466836
 20
80.7372383001
 10
140.3914094262
 20
80.7915199707
 10
140.4057778709
 20
80.8457783583
 10
140.4198482923
 20
80.9000134628
 10
140.4336244158
 20
80.9542236543
 10
140.4468640976
 20
81.0074412889
 10
140.4598150693
 20
81.0606333121
 10
140.4724791937
 20
81.1137994911
 10
140.484854608
 20
81.1669384289
 10
140.4973063909
 20
81.2216855279
 10
140.5094489746
 20
81.2764021262
 10
140.5212842219
 20
81.3310875251
 10
140.5328065447
 20
81.3857410263
 10
140.5440178059
 20
81.4403614654
 10
140.5549180053
 20
81.4949479114
 10
140.5655052803
 20
81.5494998983
 10
140.575779631
 20
81.6040162622
 10
140.5862029932
 20
81.6610893394
 10
140.5962817661
 20
81.7181216712
 10
140.606014087
 20
81.7751118607
 10
140.6153980933
 20
81.8320592093
 10
140.6244319223
 20
81.8889623202
 10
140.6331174366
 20
81.9458204947
 10
140.641450911
 20
82.0026328015
 10
140.6494342081
 20
82.0593978438
 10
140.6570636027
 20
82.1161149229
 10
140.6643390946
 20
82.1727831076
 10
140.6712588213
 20
82.2294012337
 10
140.6778246455
 20
82.2859681371
 10
140.6836882524
 20
82.3392551552
 10
140.6892352097
 20
82.3924951415
 10
140.694461792
 20
82.4456869318
 10
140.6993717246
 20
82.4988300606
 10
140.7039594196
 20
82.5519235964
 10
140.7084744714
 20
82.6081799037
 10
140.7126281701
 20
82.6643782362
 10
140.716418653
 20
82.7205176625
 10
140.7198459201
 20
82.7765974841
 10
140.7229099713
 20
82.832616537
 10
140.7256052189
 20
82.8885738897
 10
140.7278124534
 20
82.9412759208
 10
140.729693725
 20
82.9939214905
 10
140.731247171
 20
83.0465094346
 10
140.7324709289
 20
83.099039171
 10
140.7333668612
 20
83.1515095356
 10
140.7339331053
 20
83.2039200627
 10
140.7341677986
 20
83.2562695882
 10
140.7340709411
 20
83.3085574136
 10
140.7336425327
 20
83.360782724
 10
140.7328825735
 20
83.412944588
 10
140.7318096898
 20
83.464112498
 10
140.7304145686
 20
83.5152176601
 10
140.7286953472
 20
83.5662592595
 10
140.7266520254
 20
83.6172364812
 10
140.7240815751
 20
83.6722131512
 10
140.7211311452
 20
83.7271127544
 10
140.717798873
 20
83.7819344756
 10
140.7140866213
 20
83.8366771509
 10
140.7099906646
 20
83.8913397907
 10
140.705511003
 20
83.9459214635
 10
140.7009344839
 20
83.9973091074
 10
140.696015238
 20
84.0486230022
 10
140.6907532655
 20
84.099862333
 10
140.6851485662
 20
84.1510262267
 10
140.679197415
 20
84.2021138683
 10
140.6728998117
 20
84.253124443
 10
140.6662557565
 20
84.3040570194
 10
140.6592652492
 20
84.3549108409
 10
140.6519264273
 20
84.4056850633
 10
140.6442374282
 20
84.4563787846
 10
140.6363472633
 20
84.506088127
 10
140.628118097
 20
84.5557182488
 10
140.6195499293
 20
84.6052683351
 10
140.6106427602
 20
84.6547376
 10
140.6012233637
 20
84.7050224561
 10
140.5914500646
 20
84.7552218561
 10
140.581322863
 20
84.8053349523
 10
140.5708398961
 20
84.8553609169
 10
140.5600011639
 20
84.9052989011
 10
140.5490096949
 20
84.9542586889
 10
140.5376717739
 20
85.003132002
 10
140.5259892635
 20
85.0519180399
 10
140.5139603011
 20
85.1006160242
 10
140.5013278417
 20
85.1502162273
 10
140.4883340292
 20
85.1997230652
 10
140.4749751382
 20
85.249135665
 10
140.461254894
 20
85.2984532117
 10
140.4471677087
 20
85.347674803
 10
140.4327173077
 20
85.3967997987
 10
140.4179018281
 20
85.4458280533
 10
140.4036227904
 20
85.4918924902
 10
140.3890252404
 20
85.5378717111
 10
140.374109178
 20
85.5837659488
 10
140.3588746034
 20
85.6295754361
 10
140.343323379
 20
85.6753004641
 10
140.3274573676
 20
85.7209411493
 10
140.3112802945
 20
85.7664978408
 10
140.2931213669
 20
85.8165134137
 10
140.2745880477
 20
85.8664278799
 10
140.2556821994
 20
85.9162415304
 10
140.2364019595
 20
85.9659547146
 10
140.2167510532
 20
86.0155677815
 10
140.1967313431
 20
86.0650809641
 10
140.1763428293
 20
86.1144946116
 10
140.1555910997
 20
86.1638089569
 10
140.1344742917
 20
86.2130244655
 10
140.1129961304
 20
86.2621413703
 10
140.0915514968
 20
86.3102855087
 10
140.0697604112
 20
86.3583351179
 10
140.0476247363
 20
86.4062905471
 10
140.0251463346
 20
86.4541519127
 10
140.0019098364
 20
86.5027874402
 10
139.9783212982
 20
86.5513261101
 10
139.9543825828
 20
86.5997683882
 10
139.9300974153
 20
86.6481145072
 10
139.9054639332
 20
86.6963647
 10
139.8809366219
 20
86.7436604035
 10
139.8560777597
 20
86.7908642554
 10
139.8308892094
 20
86.8379767212
 10
139.8053728335
 20
86.884997801
 10
139.7790015034
 20
86.9328845452
 10
139.7522930346
 20
86.9806772257
 10
139.7252474271
 20
87.0283756099
 10
139.697868406
 20
87.0759803961
 10
139.6701578341
 20
87.1234915844
 10
139.6421157114
 20
87.1709096405
 10
139.6137457632
 20
87.21823503
 10
139.5851113193
 20
87.2653648417
 10
139.5561546378
 20
87.3124029181
 10
139.526873856
 20
87.3593494921
 10
139.497274562
 20
87.4062047965
 10
139.4673567556
 20
87.4529695298
 10
139.4376643293
 20
87.4988106239
 10
139.4076682918
 20
87.544565105
 10
139.3773705058
 20
87.5902325074
 10
139.3467728339
 20
87.6358135297
 10
139.3152419768
 20
87.6822360019
 10
139.2834019206
 20
87.7285690672
 10
139.2512526654
 20
87.7748129583
 10
139.2187997989
 20
87.8209683738
 10
139.1860414587
 20
87.8670350808
 10
139.1529813699
 20
87.913013545
 10
139.1196213953
 20
87.958904232
 10
139.0859615348
 20
88.0047076076
 10
139.0520055138
 20
88.0504236716
 10
139.0177533321
 20
88.096052657
 10
138.9832087152
 20
88.1415952622
 10
138.9483716629
 20
88.1870514873
 10
138.9132440381
 20
88.2324217978
 10
138.8778295659
 20
88.2777066595
 10
138.8385407917
 20
88.3274211242
 10
138.7989092909
 20
88.3770329106
 10
138.758936926
 20
88.4265422515
 10
138.718623697
 20
88.4759498454
 10
138.6779733293
 20
88.5252554595
 10
138.6408098333
 20
88.5698937505
 10
138.6033706658
 20
88.6144489209
 10
138.5656614147
 20
88.6589214365
 10
138.5276820801
 20
88.7033117629
 10
138.489432662
 20
88.7476201329
 10
138.4516079269
 20
88.7910579491
 10
138.4135261469
 20
88.8344166028
 10
138.3751929097
 20
88.8776974912
 10
138.3366044901
 20
88.9209006141
 10
138.2903419726
 20
88.9722318548
 10
138.2437255524
 20
89.0234531994
 10
138.196758955
 20
89.0745655793
 10
138.1494459055
 20
89.1255694601
 10
138.1017882667
 20
89.1764653075
 10
138.0537897639
 20
89.2272540528
 10
138.0054541223
 20
89.2779356959
 10
137.9567813419
 20
89.328510237
 10
137.907775148
 20
89.3789795387
 10
137.8584411286
 20
89.4293426695
 10
137.808777421
 20
89.4796010266
 10
137.7587896131
 20
89.5297550756
 10
137.711364805
 20
89.5769479844
 10
137.6636568747
 20
89.6240486923
 10
137.6156658225
 20
89.6710576649
 10
137.5673972361
 20
89.7179753679
 10
137.5188511156
 20
89.764802267
 10
137.4670621298
 20
89.8143686514
 10
137.4149695329
 20
89.8638335216
 10
137.3625733249
 20
89.913197809
 10
137.309877231
 20
89.9624619792
 10
137.2568831138
 20
90.011626498
 10
137.2035965614
 20
90.0606918308
 10
137.1530853502
 20
90.1068630788
 10
137.1023189567
 20
90.1529472481
 10
137.0512973808
 20
90.1989443387
 10
137.0000224851
 20
90.2448548163
 10
136.9484998576
 20
90.2906791466
 10
136.8907019787
 20
90.3417212117
 10
136.8326004885
 20
90.3926575716
 10
136.7741972499
 20
90.4434882264
 10
136.715495988
 20
90.4942141074
 10
136.6564985655
 20
90.5448352146
 10
136.5972087078
 20
90.595352945
 10
136.53763014
 20
90.6457672986
 10
136.4777665876
 20
90.6960792068
 10
136.4154089533
 20
90.7481294285
 10
136.3527514331
 20
90.8000706854
 10
136.2897977523
 20
90.8519034433
 10
136.2265516363
 20
90.9036286335
 10
136.1630168103
 20
90.9552467215
 10
136.0991951369
 20
91.0067581731
 10
136.0350940667
 20
91.0581639196
 10
135.964261397
 20
91.1145890291
 10
135.8930971764
 20
91.1708874787
 10
135.8216051303
 20
91.2270606655
 10
135.7497927092
 20
91.283109055
 10
135.6776636384
 20
91.3390340443
 10
135.6052216433
 20
91.3948356333
 10
135.5324741743
 20
91.4505152191
 10
135.4594230942
 20
91.5060741986
 10
135.3860739909
 20
91.5615121062
 10
135.3124324523
 20
91.6168308045
 10
135.2398265444
 20
91.6710463512
 10
135.1669468276
 20
91.7251482765
 10
135.09379889
 20
91.7791375118
 10
135.0203864567
 20
91.8330145228
 10
134.9453740112
 20
91.8877567324
 10
134.8700970702
 20
91.942384855
 10
134.7945593588
 20
91.9968993562
 10
134.7187683277
 20
92.0513016331
 10
134.6427277021
 20
92.1055916856
 10
134.5678083889
 20
92.1588041979
 10
134.4926581077
 20
92.2119105394
 10
134.4172768585
 20
92.2649116415
 10
134.3416795425
 20
92.3178084354
 10
134.2513934068
 20
92.3806452352
 10
134.1608092479
 20
92.443336283
 10
134.0699307911
 20
92.5058834414
 10
133.9787654869
 20
92.5682871762
 10
133.8873245113
 20
92.6305498156
 10
133.7956153147
 20
92.692672291
 10
133.6952708952
 20
92.7602835159
 10
133.5946210019
 20
92.8277317594
 10
133.493680536
 20
92.8950188841
 10
133.3924606733
 20
92.96214489
 10
133.2909651391
 20
93.0291135024
 10
133.1892125599
 20
93.0959265839
 10
133.0872029357
 20
93.1625841345
 10
132.9747177951
 20
93.2357320721
 10
132.8619532578
 20
93.3086974706
 10
132.7489242248
 20
93.3814821924
 10
132.6356418721
 20
93.454089963
 10
132.5221211009
 20
93.5265226449
 10
132.4083730869
 20
93.5987821008
 10
132.2944127314
 20
93.6708711247
 10
132.1802549355
 20
93.7427925105
 10
132.0659146003
 20
93.8145471896
 10
131.9513991766
 20
93.8861388873
 10
131.8012029223
 20
93.979647399
 10
131.6507607989
 20
94.072884896
 10
131.5001100592
 20
94.1658569659
  0
LINE
  5
375
330
1F
100
AcDbEntity
  8
0
  6
SLD-Durchgehend
 62
     7
370
    15
100
AcDbLine
 10
111.5001105063
 20
79.603403357
 30
0.0
 11
111.5001105063
 21
75.8575042869
 31
0.0
  0
LINE
  5
376
330
1F
100
AcDbEntity
  8
0
  6
SLD-Durchgehend
 62
     7
370
    15
100
AcDbLine
 10
111.5001105063
 20
93.8575035121
 30
0.0
 11
111.5001105063
 21
91.0180164661
 31
0.0
  0
SPLINE
  5
377
330
1F
100
AcDbEntity
  8
0
  6
SLD-Durchgehend
 62
     7
370
     0
100
AcDbSpline
210
0.0
220
0.0
230
1.0
 70
     8
 71
     3
 72
    35
 73
    31
 74
     0
 42
0.000000001
 43
0.00000001
 40
0.0
 40
0.0
 40
0.0
 40
0.0
 40
0.0707062704571177
 40
0.1414025865147022
 40
0.2119080105461565
 40
0.2474378433914284
 40
0.282861176126859
 40
0.31791770396418
 40
0.3380585331656079
 40
0.3580236078925135
 40
0.3781158974165891
 40
0.3980177414148852
 40
0.4127726595629662
 40
0.4276305184102239
 40
0.4462535854782835
 40
0.4651384943440211
 40
0.4923766287519459
 40
0.5197672589679362
 40
0.5596763011640756
 40
0.5989631564156402
 40
0.6475568387486551
 40
0.6948995415940421
 40
0.7261405210359239
 40
0.7579053510193635
 40
0.7908261316758466
 40
0.8245238541384026
 40
0.8682177449494841
 40
0.9120835813864054
 40
0.9560858775639596
 40
1.0
 40
1.0
 40
1.0
 40
1.0
 10
111.5001105062648
 20
79.60340335696914
 30
0.0
 10
112.2339489751543
 20
79.5920566474097
 30
0.0
 10
113.7015225993052
 20
79.5693648257401
 30
0.0
 10
115.9013013711074
 20
79.54909194891265
 30
0.0
 10
117.7355550977079
 20
79.63508622320394
 30
0.0
 10
119.1955548592734
 20
79.79693254756648
 30
0.0
 10
120.2805361384515
 20
79.98628628277498
 30
0.0
 10
121.1899957553093
 20
80.23492074279717
 30
0.0
 10
121.9181284295921
 20
80.51781867177307
 30
0.0
 10
122.4743919419788
 20
80.80615979173092
 30
0.0
 10
122.9815625458648
 20
81.17144555545748
 30
0.0
 10
123.3746045609314
 20
81.58929163308943
 30
0.0
 10
123.6352187128936
 20
82.03587909874868
 30
0.0
 10
123.8079094419313
 20
82.50834724802361
 30
0.0
 10
123.9014453651339
 20
83.04675659606067
 30
0.0
 10
123.9161338150568
 20
83.72049079632517
 30
0.0
 10
123.8214170901136
 20
84.48079376637605
 30
0.0
 10
123.5768696684642
 20
85.43294524130344
 30
0.0
 10
123.1730047294731
 20
86.46674419012527
 30
0.0
 10
122.5442212969163
 20
87.63741705773337
 30
0.0
 10
121.7386455749982
 20
88.79209144013642
 30
0.0
 10
120.8141323818951
 20
89.7465014681469
 30
0.0
 10
119.8764595628816
 20
90.41226842375008
 30
0.0
 10
118.9761415543416
 20
90.84943185804761
 30
0.0
 10
117.9893238381958
 20
91.12945507253127
 30
0.0
 10
116.8522418307881
 20
91.28537204257036
 30
0.0
 10
115.5916233155304
 20
91.31170970274076
 30
0.0
 10
114.227293815534
 20
91.24170859073963
 30
0.0
 10
112.8648823983665
 20
91.11804196929964
 30
0.0
 10
111.954730198256
 20
91.05133600006357
 30
0.0
 10
111.5001105062648
 20
91.01801646605112
 30
0.0
  0
LINE
  5
378
330
1F
100
AcDbEntity
  8
0
  6
SLD-Naht
 62
     7
370
    15
100
AcDbLine
 10
101.5001088671
 20
92.8575042795
 30
0.0
 11
101.5001088671
 21
91.7525636192
 31
0.0
  0
LINE
  5
379
330
1F
100
AcDbEntity
  8
0
  6
SLD-Naht
 62
     7
370
    15
100
AcDbLine
 10
110.5001084797
 20
92.8575042795
 30
0.0
 11
101.5001088671
 21
92.8575042795
 31
0.0
  0
LINE
  5
37A
330
1F
100
AcDbEntity
  8
0
  6
SLD-Naht
 62
     7
370
    15
100
AcDbLine
 10
110.5001084797
 20
92.8575042795
 30
0.0
 11
110.5001084797
 21
93.7575036819
 31
0.0
  0
LINE
  5
37B
330
1F
100
AcDbEntity
  8
0
  6
SLD-Naht
 62
     7
370
    15
100
AcDbLine
 10
110.5001084797
 20
75.957504117
 30
0.0
 11
110.5001084797
 21
76.8575035195
 31
0.0
  0
LINE
  5
37C
330
1F
100
AcDbEntity
  8
0
  6
SLD-Naht
 62
     7
370
    15
100
AcDbLine
 10
110.5001084797
 20
76.8575035195
 30
0.0
 11
101.5001088671
 21
76.8575035195
 31
0.0
  0
LINE
  5
37D
330
1F
100
AcDbEntity
  8
0
  6
SLD-Durchgehend
 62
     7
370
    15
100
AcDbLine
 10
101.5001088671
 20
78.8381626058
 30
0.0
 11
101.5001088671
 21
76.8575035195
 31
0.0
  0
SPLINE
  5
37E
330
1F
100
AcDbEntity
  8
0
  6
SLD-Durchgehend
 62
     7
370
     0
100
AcDbSpline
210
0.0
220
0.0
230
1.0
 70
     8
 71
     3
 72
    13
 73
     9
 74
     0
 42
0.000000001
 43
0.00000001
 40
0.0
 40
0.0
 40
0.0
 40
0.0
 40
0.1230156091171411
 40
0.2460982382922114
 40
0.3709135577163205
 40
0.4954242694721673
 40
0.7478567044465962
 40
1.0
 40
1.0
 40
1.0
 40
1.0
 10
111.5001105062648
 20
91.01801646605112
 30
0.0
 10
111.0887080910955
 20
90.99678006475769
 30
0.0
 10
110.2656791248615
 20
90.95429569238016
 30
0.0
 10
109.0230264599467
 20
90.9502264081024
 30
0.0
 10
107.777156744923
 20
91.01414726549966
 30
0.0
 10
106.1040399473308
 20
91.17141403939726
 30
0.0
 10
104.0166015950216
 20
91.4565533183794
 30
0.0
 10
102.3386192623771
 20
91.65393122036879
 30
0.0
 10
101.5001088671371
 20
91.7525636191664
 30
0.0
  0
SPLINE
  5
37F
330
1F
100
AcDbEntity
  8
0
  6
SLD-Durchgehend
 62
     7
370
     0
100
AcDbSpline
210
0.0
220
0.0
230
1.0
 70
     8
 71
     3
 72
    14
 73
    10
 74
     0
 42
0.000000001
 43
0.00000001
 40
0.0
 40
0.0
 40
0.0
 40
0.0
 40
0.0870400672783074
 40
0.174131271317019
 40
0.3516334826073974
 40
0.5123596609259649
 40
0.6733858771887908
 40
0.8365635884339406
 40
0.9999999999999999
 40
0.9999999999999999
 40
0.9999999999999999
 40
0.9999999999999999
 10
101.5001088671371
 20
78.83816260576226
 30
0.0
 10
101.7914437760321
 20
78.82576935719534
 30
0.0
 10
102.3742847554939
 20
78.80097557892533
 30
0.0
 10
103.5510733516913
 20
78.86884253214443
 30
0.0
 10
104.9651554569787
 20
79.04198121051317
 30
0.0
 10
106.6170337690614
 20
79.29704912378476
 30
0.0
 10
108.2278036811811
 20
79.50656197566578
 30
0.0
 10
109.859172550166
 20
79.60261471628002
 30
0.0
 10
110.9528424342319
 20
79.60314033796354
 30
0.0
 10
111.5001105062648
 20
79.60340335696914
 30
0.0
  0
LINE
  5
380
330
1F
100
AcDbEntity
  8
0
  6
SLD-Durchgehend
 62
     7
370
    15
100
AcDbLine
 10
104.0001102082
 20
81.6075038324
 30
0.0
 11
101.5001088671
 21
81.6075038324
 31
0.0
  0
LINE
  5
381
330
1F
100
AcDbEntity
  8
0
  6
SLD-Durchgehend
 62
     7
370
    15
100
AcDbLine
 10
104.0001102082
 20
81.6075038324
 30
0.0
 11
104.0001102082
 21
82.3575039554
 31
0.0
  0
LINE
  5
382
330
1F
100
AcDbEntity
  8
0
  6
SLD-Durchgehend
 62
     7
370
    15
100
AcDbLine
 10
118.500109791
 20
82.3575039554
 30
0.0
 11
104.0001102082
 21
82.3575039554
 31
0.0
  0
LINE
  5
383
330
1F
100
AcDbEntity
  8
0
  6
SLD-Durchgehend
 62
     7
370
    15
100
AcDbLine
 10
120.0022623233
 20
84.8575038995
 30
0.0
 11
118.500109791
 21
82.3575039554
 31
0.0
  0
LINE
  5
384
330
1F
100
AcDbEntity
  8
0
  6
SLD-Durchgehend
 62
     7
370
    15
100
AcDbLine
 10
118.500109791
 20
87.3575038436
 30
0.0
 11
120.0022623233
 21
84.8575038995
 31
0.0
  0
LINE
  5
385
330
1F
100
AcDbEntity
  8
0
  6
SLD-Durchgehend
 62
     7
370
    15
100
AcDbLine
 10
104.0001102082
 20
87.3575038436
 30
0.0
 11
118.500109791
 21
87.3575038436
 31
0.0
  0
LINE
  5
386
330
1F
100
AcDbEntity
  8
0
  6
SLD-Durchgehend
 62
     7
370
    15
100
AcDbLine
 10
104.0001102082
 20
87.3575038436
 30
0.0
 11
104.0001102082
 21
88.1075039665
 31
0.0
  0
LINE
  5
387
330
1F
100
AcDbEntity
  8
0
  6
SLD-Durchgehend
 62
     7
370
    15
100
AcDbLine
 10
101.5001088671
 20
88.1075039665
 30
0.0
 11
104.0001102082
 21
88.1075039665
 31
0.0
  0
LINE
  5
388
330
1F
100
AcDbEntity
  8
0
  6
SLD-Durchgehend
 62
     7
370
    15
100
AcDbLine
 10
101.5001088671
 20
88.1075039665
 30
0.0
 11
101.5001088671
 21
91.7525636192
 31
0.0
  0
LINE
  5
389
330
1F
100
AcDbEntity
  8
0
  6
SLD-Durchgehend
 62
     7
370
    15
100
AcDbLine
 10
101.5001088671
 20
78.8381626058
 30
0.0
 11
101.5001088671
 21
81.6075038324
 31
0.0
  0
LINE
  5
38A
330
1F
100
AcDbEntity
  8
0
  6
SLD-Durchgehend
 62
     7
370
    15
100
AcDbLine
 10
101.5001088671
 20
88.1075039665
 30
0.0
 11
101.5001088671
 21
81.6075038324
 31
0.0
  0
LINE
  5
38B
330
1F
100
AcDbEntity
  8
0
  6
SLD-Durchgehend
 62
     7
370
    15
100
AcDbLine
 10
118.500109791
 20
87.3575038436
 30
0.0
 11
118.500109791
 21
82.3575039554
 31
0.0
  0
LINE
  5
38C
330
1F
100
AcDbEntity
  8
0
  6
SLD-Durchgehend
 62
     7
370
    15
100
AcDbLine
 10
104.0001102082
 20
82.3575039554
 30
0.0
 11
104.0001102082
 21
87.3575038436
 31
0.0
  0
LINE
  5
38D
330
1F
100
AcDbEntity
  8
0
  6
SLD-Naht
 62
     7
370
    15
100
AcDbLine
 10
131.5001100592
 20
69.8197465549
 30
0.0
 11
131.5001100592
 21
94.1658569659
 31
0.0
  0
INSERT
  5
39B
330
1F
100
AcDbEntity
  8
0
  6
SLD-Durchgehend
 62
     7
370
     0
100
AcDbBlockReference
  2
SW_HATCH_0
 10
102.4488508992
 20
91.6482932094
 30
0.0
  0
DIMENSION
  5
39C
330
1F
100
AcDbEntity
  8
0
  6
SLD-Durchgehend
 62
     7
370
     0
100
AcDbDimension
  2
_D_17
 10
101.5001097016
 20
52.3959177707
 30
0.0
 11
116.5001097016
 21
52.3959177707
 31
0.0
 70
   160
  1
<>
 71
     2
 42
-1.0
  3
SLDDIMSTYLE2
100
AcDbAlignedDimension
 13
131.5001097016
 23
69.8197465549
 33
0.0
 14
101.5001097016
 24
76.8575038995
 34
0.0
 50
0.0
100
AcDbRotatedDimension
  0
DIMENSION
  5
3A6
330
1F
100
AcDbEntity
  8
0
  6
SLD-Durchgehend
 62
     7
370
     0
100
AcDbDimension
  2
_D_18
 10
94.7749702878
 20
81.8575038995
 30
0.0
 11
94.7749702878
 21
84.8575038995
 31
0.0
 70
   160
  1
M<>
 71
     2
 42
-1.0
  3
SLDDIMSTYLE1
100
AcDbAlignedDimension
 13
101.5001097016
 23
87.8575038995
 33
0.0
 14
101.5001097016
 24
81.8575038995
 34
0.0
 50
90.0
100
AcDbRotatedDimension
  0
DIMENSION
  5
3B3
330
1F
100
AcDbEntity
  8
0
  6
SLD-Durchgehend
 62
     7
370
     0
100
AcDbDimension
  2
_D_19
 10
87.0958617988
 20
75.8575038995
 30
0.0
 11
87.0958617988
 21
84.8575038995
 31
0.0
 70
   160
  1
%%c<>
 71
     2
 42
-1.0
  3
SLDDIMSTYLE2
100
AcDbAlignedDimension
 13
111.5001105063
 23
93.8575038995
 33
0.0
 14
111.5001097016
 24
75.8575038995
 34
0.0
 50
90.0
100
AcDbRotatedDimension
  0
DIMENSION
  5
3BE
330
1F
100
AcDbEntity
  8
0
  6
SLD-Durchgehend
 62
     7
370
     0
100
AcDbDimension
  2
_D_20
 10
113.5001097016
 20
99.0306770475
 30
0.0
 11
107.5001097016
 21
99.0306770475
 31
0.0
 70
   160
  1
<>
 71
     2
 42
-1.0
  3
SLDDIMSTYLE2
100
AcDbAlignedDimension
 13
101.5001097016
 23
92.8575038995
 33
0.0
 14
113.5001097016
 24
87.8575038995
 34
0.0
 50
0.0
100
AcDbRotatedDimension
  0
LINE
  5
3C8
330
1F
100
AcDbEntity
  8
0
  6
SLD-Durchgehend
 62
     7
370
     0
100
AcDbLine
 10
104.000106483
 20
87.8575039256
 30
0.0
 11
113.5001071088
 21
87.8575039256
 31
0.0
  0
LINE
  5
3C9
330
1F
100
AcDbEntity
  8
0
  6
SLD-Durchgehend
 62
     7
370
     0
100
AcDbLine
 10
113.5001071088
 20
81.8575038734
 30
0.0
 11
104.000106483
 21
81.8575038734
 31
0.0
  0
LINE
  5
3CA
330
1F
100
AcDbEntity
  8
0
  6
SLD-Durchgehend
 62
     7
370
     0
100
AcDbLine
 10
113.5001071088
 20
82.3575039554
 30
0.0
 11
113.5001071088
 21
81.8575038734
 31
0.0
  0
LINE
  5
3CB
330
1F
100
AcDbEntity
  8
0
  6
SLD-Durchgehend
 62
     7
370
     0
100
AcDbLine
 10
113.5001071088
 20
87.8575039256
 30
0.0
 11
113.5001071088
 21
87.3575038436
 31
0.0
  0
LWPOLYLINE
  5
3CC
330
1F
100
AcDbEntity
  8
0
  6
SLD-Durchgehend
 62
     7
370
     0
100
AcDbPolyline
 90
       15
 70
   128
 43
0.0
 10
113.500058651
 20
82.3575039554
 10
113.5001071088
 20
82.4201840601
 10
113.5001071088
 20
82.6050816263
 10
113.5001071088
 20
82.9029251049
 10
113.5001071088
 20
83.2987793415
 10
113.5001071088
 20
83.7727945923
 10
113.5001071088
 20
84.3012015844
 10
113.5001071088
 20
84.8575038995
 10
113.5001071088
 20
85.4138062146
 10
113.5001071088
 20
85.9422132067
 10
113.5001071088
 20
86.4162284575
 10
113.5001071088
 20
86.812082694
 10
113.5001071088
 20
87.1099261726
 10
113.5001071088
 20
87.2948237389
 10
113.5001071088
 20
87.3575038436
  0
LINE
  5
3CD
330
1F
100
AcDbEntity
  8
0
  6
SLD-Punktstrich
 62
     7
370
     0
100
AcDbLine
 10
118.500109791
 20
84.8575038995
 30
0.0
 11
122.0022626512
 21
84.8575038995
 31
0.0
  0
LINE
  5
3CE
330
1F
100
AcDbEntity
  8
0
  6
SLD-Punktstrich
 62
     7
370
     0
100
AcDbLine
 10
118.500109791
 20
84.8575038995
 30
0.0
 11
100.6200611882
 21
84.8575038995
 31
0.0
  0
LINE
  5
3CF
330
1F
100
AcDbEntity
  8
0
  6
SLD-Durchgehend
 62
     7
370
    15
100
AcDbLine
 10
84.4721021316
 20
167.888099206
 30
0.0
 11
83.2433583251
 21
168.2220756867
 31
0.0
  0
LINE
  5
3D0
330
1F
100
AcDbEntity
  8
0
  6
SLD-Durchgehend
 62
     7
370
    15
100
AcDbLine
 10
82.3950393436
 20
164.8256704372
 30
0.0
 11
83.5540965924
 21
164.5106349849
 31
0.0
  0
LINE
  5
3D1
330
1F
100
AcDbEntity
  8
0
  6
SLD-Durchgehend
 62
     7
370
    15
100
AcDbLine
 10
84.6521317865
 20
165.5908608626
 30
0.0
 11
84.6712454905
 21
165.6364893255
 31
0.0
  0
SPLINE
  5
3D2
330
1F
100
AcDbEntity
  8
0
  6
SLD-Durchgehend
 62
     7
370
    15
100
AcDbSpline
210
0.0
220
0.0
230
1.0
 70
     8
 71
     3
 72
    14
 73
    10
 74
     0
 42
0.000000001
 43
0.00000001
 40
0.0
 40
0.0
 40
0.0
 40
0.0
 40
0.1152085150335073
 40
0.2448782139990142
 40
0.3855655534946437
 40
0.5447867372906021
 40
0.7114339477930525
 40
0.8754323823395526
 40
1.0
 40
1.0
 40
1.0
 40
1.0
 10
83.56723177070708
 20
164.5117094621899
 30
0.0
 10
83.61867860483574
 20
164.5033018468956
 30
0.0
 10
83.72802997399158
 20
164.4854312770279
 30
0.0
 10
83.89576987598358
 20
164.5413910075581
 30
0.0
 10
84.0639264056718
 20
164.649070088479
 30
0.0
 10
84.23415597664217
 20
164.8214175228147
 30
0.0
 10
84.40043746524583
 20
165.057507318356
 30
0.0
 10
84.54343492598122
 20
165.3192387958494
 30
0.0
 10
84.61935762655557
 20
165.5089616706016
 30
0.0
 10
84.65213178645608
 20
165.5908608626333
 30
0.0
  0
SPLINE
  5
3D3
330
1F
100
AcDbEntity
  8
0
  6
SLD-Durchgehend
 62
     7
370
    15
100
AcDbSpline
210
0.0
220
0.0
230
1.0
 70
     8
 71
     3
 72
    17
 73
    13
 74
     0
 42
0.000000001
 43
0.00000001
 40
0.0
 40
0.0
 40
0.0
 40
0.0
 40
0.0468952918191386
 40
0.1644430824137972
 40
0.2822035372582649
 40
0.4003932280242697
 40
0.5196840047293043
 40
0.6410937313449472
 40
0.7661031214087385
 40
0.8688816321300019
 40
0.9622114928003529
 40
1.0
 40
1.0
 40
1.0
 40
1.0
 10
84.68556109152986
 20
165.6779003408854
 30
0.0
 10
84.70091536525423
 20
165.7212693054161
 30
0.0
 10
84.75475667856126
 20
165.8733469646409
 30
0.0
 10
84.82856644070876
 20
166.1470798186205
 30
0.0
 10
84.89273585629643
 20
166.4889766741097
 30
0.0
 10
84.92338940546055
 20
166.8194648065863
 30
0.0
 10
84.91896201355753
 20
167.1262441247314
 30
0.0
 10
84.8764191657952
 20
167.399753393712
 30
0.0
 10
84.79656923194932
 20
167.6191607669464
 30
0.0
 10
84.67890865687183
 20
167.7757061155618
 30
0.0
 10
84.56123428765257
 20
167.8682827863639
 30
0.0
 10
84.48147178967221
 20
167.8790577487645
 30
0.0
 10
84.45848411999513
 20
167.8821631088362
 30
0.0
  0
LINE
  5
3D4
330
1F
100
AcDbEntity
  8
0
  6
SLD-Durchgehend
 62
     7
370
    15
100
AcDbLine
 10
84.6712454905
 20
165.6364893255
 30
0.0
 11
84.6855610915
 21
165.6779003409
 31
0.0
  0
LINE
  5
3D5
330
1F
100
AcDbEntity
  8
0
  6
SLD-Durchgehend
 62
     7
370
    15
100
AcDbLine
 10
79.0501175511
 20
159.0033648454
 30
0.0
 11
78.8715473011
 21
159.0519008081
 31
0.0
  0
LINE
  5
3D6
330
1F
100
AcDbEntity
  8
0
  6
SLD-Durchgehend
 62
     7
370
    15
100
AcDbLine
 10
76.9730547631
 20
155.9409360766
 30
0.0
 11
78.1321120119
 21
155.6259006242
 31
0.0
  0
LINE
  5
3D7
330
1F
100
AcDbEntity
  8
0
  6
SLD-Durchgehend
 62
     7
370
    15
100
AcDbLine
 10
79.230147408
 20
156.706126833
 30
0.0
 11
79.249261112
 21
156.7517552959
 31
0.0
  0
SPLINE
  5
3D8
330
1F
100
AcDbEntity
  8
0
  6
SLD-Durchgehend
 62
     7
370
    15
100
AcDbSpline
210
0.0
220
0.0
230
1.0
 70
     8
 71
     3
 72
    14
 73
    10
 74
     0
 42
0.000000001
 43
0.00000001
 40
0.0
 40
0.0
 40
0.0
 40
0.0
 40
0.1152084907442953
 40
0.2448781623717638
 40
0.3855654722065248
 40
0.5447866224341563
 40
0.7114337978026635
 40
0.875432408601928
 40
1.0
 40
1.0
 40
1.0
 40
1.0
 10
78.14524719022498
 20
155.6269751015487
 30
0.0
 10
78.1966940243493
 20
155.6185674862716
 30
0.0
 10
78.30604539349596
 20
155.6006969164404
 30
0.0
 10
78.47378529556569
 20
155.6566566466615
 30
0.0
 10
78.64194182491225
 20
155.7643357289411
 30
0.0
 10
78.81217139736867
 20
155.9366831573671
 30
0.0
 10
78.97845295163528
 20
156.1727730779841
 30
0.0
 10
79.12145049137403
 20
156.4345046236753
 30
0.0
 10
79.1973732478651
 20
156.6242276397658
 30
0.0
 10
79.23014740795864
 20
156.7061268329743
 30
0.0
  0
SPLINE
  5
3D9
330
1F
100
AcDbEntity
  8
0
  6
SLD-Durchgehend
 62
     7
370
    15
100
AcDbSpline
210
0.0
220
0.0
230
1.0
 70
     8
 71
     3
 72
    17
 73
    13
 74
     0
 42
0.000000001
 43
0.00000001
 40
0.0
 40
0.0
 40
0.0
 40
0.0
 40
0.0468951591059486
 40
0.164443089947607
 40
0.2822034556726932
 40
0.4003931612013848
 40
0.5196840018474118
 40
0.6410937245770394
 40
0.7661031302553438
 40
0.8688816157524364
 40
0.9622114880803143
 40
1.0
 40
1.0
 40
1.0
 40
1.0
 10
79.2635767130324
 20
156.7931663112264
 30
0.0
 10
79.27893091041588
 20
156.8365351701916
 30
0.0
 10
79.33277211086256
 20
156.9886128965865
 30
0.0
 10
79.40658211825013
 20
157.2623455460304
 30
0.0
 10
79.47075124379387
 20
157.6042424328528
 30
0.0
 10
79.5014047533227
 20
157.9347303928484
 30
0.0
 10
79.49697778083443
 20
158.2415102083085
 30
0.0
 10
79.45443450266427
 20
158.5150189643548
 30
0.0
 10
79.3745846099645
 20
158.7344262341911
 30
0.0
 10
79.25692430868204
 20
158.8909722235145
 30
0.0
 10
79.13924990504394
 20
158.9835487465179
 30
0.0
 10
79.05948741025499
 20
158.9943237168263
 30
0.0
 10
79.03649974149769
 20
158.9974290791771
 30
0.0
  0
LINE
  5
3DA
330
1F
100
AcDbEntity
  8
0
  6
SLD-Durchgehend
 62
     7
370
    15
100
AcDbLine
 10
79.249261112
 20
156.7517552959
 30
0.0
 11
79.263576713
 21
156.7931663112
 31
0.0
  0
LINE
  5
3DB
330
1F
100
AcDbEntity
  8
0
  6
SLD-Durchgehend
 62
     7
370
    15
100
AcDbLine
 10
82.7114628051
 20
176.1445548313
 30
0.0
 11
81.4827189986
 21
176.4785313121
 31
0.0
  0
LINE
  5
3DC
330
1F
100
AcDbEntity
  8
0
  6
SLD-Durchgehend
 62
     7
370
    15
100
AcDbLine
 10
82.89149246
 20
173.847316488
 30
0.0
 11
82.910606164
 21
173.8929449509
 31
0.0
  0
SPLINE
  5
3DD
330
1F
100
AcDbEntity
  8
0
  6
SLD-Durchgehend
 62
     7
370
    15
100
AcDbSpline
210
0.0
220
0.0
230
1.0
 70
     8
 71
     3
 72
    12
 73
     8
 74
     0
 42
0.000000001
 43
0.00000001
 40
0.0
 40
0.0
 40
0.0
 40
0.0
 40
0.0573881290100144
 40
0.3016514064649126
 40
0.5573070242848426
 40
0.8088991010684249
 40
1.0
 40
1.0
 40
1.0
 40
1.0
 10
82.24996639941496
 20
172.8805564582719
 30
0.0
 10
82.26483262898444
 20
172.8895769344712
 30
0.0
 10
82.34297455721635
 20
172.9369916067986
 30
0.0
 10
82.4726826956853
 20
173.0806545040242
 30
0.0
 10
82.64002281089606
 20
173.3132135838824
 30
0.0
 10
82.78275531014546
 20
173.5758289482487
 30
0.0
 10
82.85870614266419
 20
173.7654578349103
 30
0.0
 10
82.89149245996566
 20
173.8473164879551
 30
0.0
  0
SPLINE
  5
3DE
330
1F
100
AcDbEntity
  8
0
  6
SLD-Durchgehend
 62
     7
370
    15
100
AcDbSpline
210
0.0
220
0.0
230
1.0
 70
     8
 71
     3
 72
    17
 73
    13
 74
     0
 42
0.000000001
 43
0.00000001
 40
0.0
 40
0.0
 40
0.0
 40
0.0
 40
0.0468952236975966
 40
0.1644430236206975
 40
0.2822034878104843
 40
0.400393323241213
 40
0.5196841094130111
 40
0.6410938456635745
 40
0.766103090362893
 40
0.8688817588672801
 40
0.9622114898015052
 40
0.9999999999999999
 40
0.9999999999999999
 40
0.9999999999999999
 40
0.9999999999999999
 10
82.92492176503943
 20
173.9343559662072
 30
0.0
 10
82.94027606711859
 20
173.9777248232053
 30
0.0
 10
82.99411753881644
 20
174.1298022718969
 30
0.0
 10
83.06792713455795
 20
174.4035351593679
 30
0.0
 10
83.13209666152547
 20
174.7454321369399
 30
0.0
 10
83.16275003957597
 20
175.0759202928273
 30
0.0
 10
83.15832268788373
 20
175.3826997484575
 30
0.0
 10
83.1157798973392
 20
175.6562089342292
 30
0.0
 10
83.03592979581052
 20
175.8756161806521
 30
0.0
 10
82.91826955311015
 20
176.03216171939
 30
0.0
 10
82.8005949259882
 20
176.1247380985016
 30
0.0
 10
82.7208325248923
 20
176.1355130627335
 30
0.0
 10
82.69784485909364
 20
176.138618426581
 30
0.0
  0
LINE
  5
3DF
330
1F
100
AcDbEntity
  8
0
  6
SLD-Durchgehend
 62
     7
370
    15
100
AcDbLine
 10
82.910606164
 20
173.8929449509
 30
0.0
 11
82.924921765
 21
173.9343559662
 31
0.0
  0
LINE
  5
3E0
330
1F
100
AcDbEntity
  8
0
  6
SLD-Durchgehend
 62
     7
370
    15
100
AcDbLine
 10
45.9463943687
 20
179.8671969348
 30
0.0
 11
41.4966343948
 21
181.0766558703
 31
0.0
  0
LINE
  5
3E1
330
1F
100
AcDbEntity
  8
0
  6
SLD-Durchgehend
 62
     7
370
    15
100
AcDbLine
 10
39.1622774618
 20
172.4882464041
 30
0.0
 11
43.6120374357
 21
171.2787874686
 31
0.0
  0
LINE
  5
3E2
330
1F
100
AcDbEntity
  8
0
  6
SLD-Durchgehend
 62
     7
370
    15
100
AcDbLine
 10
46.1819972099
 20
179.8549734145
 30
0.0
 11
45.9595087968
 21
179.915446474
 31
0.0
  0
LINE
  5
3E3
330
1F
100
AcDbEntity
  8
0
  6
SLD-Durchgehend
 62
     7
370
    15
100
AcDbLine
 10
43.5989230076
 20
171.2305379294
 30
0.0
 11
43.8214114207
 21
171.17006487
 31
0.0
  0
LINE
  5
3E4
330
1F
100
AcDbEntity
  8
0
  6
SLD-Durchgehend
 62
     7
370
    15
100
AcDbLine
 10
81.7805011791
 20
167.2190805657
 30
0.0
 11
83.5604051686
 21
166.7352969915
 31
0.0
  0
LINE
  5
3E5
330
1F
100
AcDbEntity
  8
0
  6
SLD-Durchgehend
 62
     7
370
    15
100
AcDbLine
 10
76.4033856678
 20
155.0074478738
 30
0.0
 11
83.5604051686
 21
166.7352969915
 31
0.0
  0
LINE
  5
3E6
330
1F
100
AcDbEntity
  8
0
  6
SLD-Durchgehend
 62
     7
370
    15
100
AcDbLine
 10
74.6234816782
 20
155.491231448
 30
0.0
 11
76.4033856678
 21
155.0074478738
 31
0.0
  0
LINE
  5
3E7
330
1F
100
AcDbEntity
  8
0
  6
SLD-Durchgehend
 62
     7
370
    15
100
AcDbLine
 10
74.6234816782
 20
155.491231448
 30
0.0
 11
81.7805011791
 21
167.2190805657
 31
0.0
  0
LINE
  5
3E8
330
1F
100
AcDbEntity
  8
0
  6
SLD-Durchgehend
 62
     7
370
    15
100
AcDbLine
 10
79.4564573153
 20
178.1176017697
 30
0.0
 11
81.2363613049
 21
177.6338181955
 31
0.0
  0
LINE
  5
3E9
330
1F
100
AcDbEntity
  8
0
  6
SLD-Durchgehend
 62
     7
370
    15
100
AcDbLine
 10
83.5604051686
 20
166.7352969915
 30
0.0
 11
81.2363613049
 21
177.6338181955
 31
0.0
  0
LINE
  5
3EA
330
1F
100
AcDbEntity
  8
0
  6
SLD-Durchgehend
 62
     7
370
    15
100
AcDbLine
 10
81.7805011791
 20
167.2190805657
 30
0.0
 11
79.4564573153
 21
178.1176017697
 31
0.0
  0
LWPOLYLINE
  5
3EB
330
1F
100
AcDbEntity
  8
0
  6
SLD-Durchgehend
 62
     7
370
    15
100
AcDbPolyline
 90
       11
 70
   128
 43
0.0
 10
82.4889874991
 20
171.7596734515
 10
82.5274811897
 20
171.7350086708
 10
82.7542543526
 20
171.5358144338
 10
82.9529408546
 20
171.2623257168
 10
83.1209499801
 20
170.9181073189
 10
83.256091919
 20
170.5076470592
 10
83.3566047248
 20
170.0362958242
 10
83.4211780702
 20
169.5101983475
 10
83.4489702509
 20
168.9362134704
 10
83.43961861
 20
168.3218230764
 10
83.4319416044
 20
168.1708184192
  0
LWPOLYLINE
  5
3EC
330
1F
100
AcDbEntity
  8
0
  6
SLD-Durchgehend
 62
     7
370
    15
100
AcDbPolyline
 90
       14
 70
   128
 43
0.0
 10
82.7914966261
 20
164.7179121465
 10
82.6434927135
 20
164.2588164875
 10
82.4036845326
 20
163.6016275899
 10
82.140359773
 20
162.973578259
 10
81.8569511872
 20
162.382855704
 10
81.5571533351
 20
161.8371617805
 10
81.2448746728
 20
161.343609577
 10
80.924186192
 20
160.9086338576
 10
80.5992684849
 20
160.5379047352
 10
80.2743575011
 20
160.2362553875
 10
79.953688811
 20
160.0076185335
 10
79.6414429337
 20
159.8549746149
 10
79.3416902781
 20
159.7803134552
 10
79.3142557954
 20
159.7773444133
  0
LWPOLYLINE
  5
3ED
330
1F
100
AcDbEntity
  8
0
  6
SLD-Durchgehend
 62
     7
370
    15
100
AcDbPolyline
 90
       25
 70
   128
 43
0.0
 10
45.9463943687
 20
179.8671969348
 10
46.1027700626
 20
179.8027034023
 10
46.2999285022
 20
179.6451192615
 10
46.468759157
 20
179.4116795317
 10
46.6061165219
 20
179.1067318235
 10
46.7094423369
 20
178.7359575096
 10
46.7768116502
 20
178.3062630787
 10
46.8069696952
 20
177.8256532182
 10
46.7993542241
 20
177.3030800662
 10
46.7541076384
 20
176.7482789607
 10
46.6720724533
 20
176.1715845577
 10
46.5547769516
 20
175.5837392773
 10
46.4044061186
 20
174.9956940786
 10
46.2237610163
 20
174.41840274
 10
46.0162068338
 20
173.8626190654
 10
45.7856098079
 20
173.3386966029
 10
45.5362656007
 20
172.8563947042
 10
45.2728189747
 20
172.4246979232
 10
45.0001774502
 20
172.0516479673
 10
44.723419857
 20
171.7441938461
 10
44.4477015971
 20
171.508063193
 10
44.1781588399
 20
171.3476542513
 10
43.9198126982
 20
171.2659554302
 10
43.6774755183
 20
171.2644886612
 10
43.6120374357
 20
171.2787874686
  0
LWPOLYLINE
  5
3EE
330
1F
100
AcDbEntity
  8
0
  6
SLD-Durchgehend
 62
     7
370
    15
100
AcDbPolyline
 90
       17
 70
   128
 43
0.0
 10
40.0470309721
 20
172.754366749
 10
39.7700382176
 20
172.5771157897
 10
39.5039375068
 20
172.4817441137
 10
39.2539100265
 20
172.4701088904
 10
39.024823918
 20
172.5424369917
 10
38.8211393674
 20
172.6973195092
 10
38.6468224336
 20
172.9317413451
 10
38.5052670828
 20
173.2411381509
 10
38.3992294936
 20
173.6194858292
 10
38.3307739786
 20
174.0594173689
 10
38.3012336661
 20
174.5523676033
 10
38.3111837042
 20
175.0887384899
 10
38.3604304076
 20
175.6580867754
 10
38.4480146412
 20
176.2493266934
 10
38.5722314131
 20
176.8509467676
 10
38.7306620661
 20
177.4512333582
 10
38.9202217664
 20
178.0384985214
  0
LINE
  5
3EF
330
1F
100
AcDbEntity
  8
0
  6
SLD-Durchgehend
 62
     7
370
    15
100
AcDbLine
 10
44.0518141198
 20
171.6658539323
 30
0.0
 11
40.0470309721
 21
172.754366749
 31
0.0
  0
ARC
  5
3F0
330
1F
100
AcDbEntity
  8
0
  6
SLD-Durchgehend
 62
     7
370
    15
100
AcDbCircle
 10
39.7173024381
 20
176.2132196607
 30
0.0
 40
6.28223897878545
100
AcDbArc
 50
313.6271703562
 51
343.5848620496
  0
LINE
  5
3F1
330
1F
100
AcDbEntity
  8
0
  6
SLD-Durchgehend
 62
     7
370
    15
100
AcDbLine
 10
45.7434732378
 20
174.4378909363
 30
0.0
 11
41.7386900901
 21
175.526403753
 31
0.0
  0
LWPOLYLINE
  5
3F2
330
1F
100
AcDbEntity
  8
0
  6
SLD-Durchgehend
 62
     7
370
    15
100
AcDbPolyline
 90
       17
 70
   128
 43
0.0
 10
40.6118808844
 20
180.8105355254
 10
40.888873639
 20
180.9877864846
 10
41.1549743498
 20
181.0831581607
 10
41.4050018301
 20
181.094793384
 10
41.6340879385
 20
181.0224652827
 10
41.8377724892
 20
180.8675827651
 10
42.012089423
 20
180.6331609293
 10
42.1536447738
 20
180.3237641234
 10
42.259682363
 20
179.9454164451
 10
42.3281378779
 20
179.5054849055
 10
42.3576781905
 20
179.0125346711
 10
42.3477281523
 20
178.4761637845
 10
42.298481449
 20
177.906815499
 10
42.2108972154
 20
177.315575581
 10
42.0866804434
 20
176.7139555067
 10
41.9282497905
 20
176.1136689162
 10
41.7386900901
 20
175.526403753
  0
LWPOLYLINE
  5
3F3
330
1F
100
AcDbEntity
  8
0
  6
SLD-Durchgehend
 62
     7
370
    15
100
AcDbPolyline
 90
       29
 70
   128
 43
0.0
 10
41.0343139278
 20
177.9374666107
 10
40.965710349
 20
178.147348357
 10
40.8652023489
 20
178.2887884943
 10
40.7378298019
 20
178.3546946242
 10
40.5899796749
 20
178.3417618726
 10
40.4290657963
 20
178.2506387422
 10
40.2631570631
 20
178.0858945908
 10
40.1005728145
 20
177.8557903746
 10
39.9494657424
 20
177.571864347
 10
39.8174129629
 20
177.2483539025
 10
39.7110361443
 20
176.9014811652
 10
39.6356694861
 20
176.5486397592
 10
39.5950921902
 20
176.2075226401
 10
39.5913389391
 20
175.8952348166
 10
39.6245979288
 20
175.6274356637
 10
39.6932015076
 20
175.4175539174
 10
39.7937095076
 20
175.27611378
 10
39.9210820546
 20
175.2102076502
 10
40.0689321817
 20
175.2231404018
 10
40.2298460603
 20
175.3142635322
 10
40.3957547934
 20
175.4790076836
 10
40.558339042
 20
175.7091118997
 10
40.7094461142
 20
175.9930379274
 10
40.8414988937
 20
176.3165483718
 10
40.9478757122
 20
176.6634211092
 10
41.0232423705
 20
177.0162625152
 10
41.0638196664
 20
177.3573796343
 10
41.0675729175
 20
177.6696674578
 10
41.0343139278
 20
177.9374666107
  0
LINE
  5
3F4
330
1F
100
AcDbEntity
  8
0
  6
SLD-Durchgehend
 62
     7
370
    15
100
AcDbLine
 10
41.7386900901
 20
175.526403753
 30
0.0
 11
40.0470309721
 21
172.754366749
 31
0.0
  0
LINE
  5
3F5
330
1F
100
AcDbEntity
  8
0
  6
SLD-Durchgehend
 62
     7
370
    15
100
AcDbLine
 10
38.9202217664
 20
178.0384985214
 30
0.0
 11
40.6118808844
 21
180.8105355254
 31
0.0
  0
LINE
  5
3F6
330
1F
100
AcDbEntity
  8
0
  6
SLD-Durchgehend
 62
     7
370
    15
100
AcDbLine
 10
45.7434732378
 20
174.4378909363
 30
0.0
 11
44.0518141198
 21
171.6658539323
 31
0.0
  0
LWPOLYLINE
  5
3F7
330
1F
100
AcDbEntity
  8
0
  6
SLD-Durchgehend
 62
     7
370
    15
100
AcDbPolyline
 90
       27
 70
   128
 43
0.0
 10
45.6968187407
 20
179.9350323216
 10
45.8933354221
 20
179.9299059233
 10
46.1176414672
 20
179.850228095
 10
46.3170151987
 20
179.6908735639
 10
46.4877426932
 20
179.4548107105
 10
46.6266434792
 20
179.1464367234
 10
46.731130238
 20
178.7714963862
 10
46.7992565259
 20
178.3369739676
 10
46.8297533554
 20
177.8509638507
 10
46.8220524467
 20
177.3225193164
 10
46.7762973897
 20
176.7614845265
 10
46.6933405284
 20
176.1783103747
 10
46.5747270642
 20
175.5838599771
 10
46.4226666688
 20
174.9892075482
 10
46.2399918424
 20
174.4054297721
 10
46.0301056568
 20
173.8434012593
 10
45.7969176629
 20
173.313591983
 10
45.5447717913
 20
172.8258711042
 10
45.2783650801
 20
172.3893237798
 10
45.0026601913
 20
172.0120820757
 10
44.722792953
 20
171.7011734592
 10
44.4439767425
 20
171.4623898514
 10
44.1714054075
 20
171.3001785614
 10
43.910156505
 20
171.2175617606
 10
43.6650963823
 20
171.21607848
 10
43.4407903372
 20
171.2957563084
 10
43.362461674
 20
171.3466228436
  0
ARC
  5
3F8
330
1F
100
AcDbEntity
  8
0
  6
SLD-Durchgehend
 62
     7
370
    15
100
AcDbCircle
 10
44.7196746648
 20
175.5891757734
 30
0.0
 40
4.025347295433403
100
AcDbArc
 50
155.5524908834
 51
174.0358580854
  0
LINE
  5
3F9
330
1F
100
AcDbEntity
  8
0
  6
SLD-Durchgehend
 62
     7
370
    15
100
AcDbLine
 10
42.5852164968
 20
164.1993339814
 30
0.0
 11
74.6234816782
 21
155.491231448
 31
0.0
  0
LINE
  5
3FA
330
1F
100
AcDbEntity
  8
0
  6
SLD-Durchgehend
 62
     7
370
    15
100
AcDbLine
 10
42.5852164968
 20
164.1993339814
 30
0.0
 11
49.7422359976
 21
175.9271830992
 31
0.0
  0
LINE
  5
3FB
330
1F
100
AcDbEntity
  8
0
  6
SLD-Durchgehend
 62
     7
370
    15
100
AcDbLine
 10
49.7422359976
 20
175.9271830992
 30
0.0
 11
81.7805011791
 21
167.2190805657
 31
0.0
  0
LWPOLYLINE
  5
3FC
330
1F
100
AcDbEntity
  8
0
  6
SLD-Durchgehend
 62
     7
370
    15
100
AcDbPolyline
 90
       23
 70
   128
 43
0.0
 10
56.7313467793
 20
172.1630001657
 10
56.6408845286
 20
171.9424498553
 10
56.633454821
 20
171.7191908493
 10
56.709658304
 20
171.5113101894
 10
56.8633237845
 20
171.335648853
 10
57.0820000035
 20
171.2064382812
 10
57.3479714428
 20
171.1341463967
 10
57.6396921937
 20
171.1246294463
 10
57.9335273337
 20
171.1786586885
 10
58.2056725125
 20
171.2918570725
 10
58.4340800865
 20
171.4550535905
 10
58.600246217
 20
171.6550273452
 10
58.6907084677
 20
171.8755776556
 10
58.6981385898
 20
172.0988365489
 10
58.6219346923
 20
172.3067173215
 10
58.4682700407
 20
172.4823784325
 10
58.2495934073
 20
172.611589117
 10
57.983621968
 20
172.6838810015
 10
57.6919016315
 20
172.6933978393
 10
57.3980656627
 20
172.6393688223
 10
57.1259208982
 20
172.5261703257
 10
56.8975129098
 20
172.3629739204
 10
56.7313467793
 20
172.1630001657
  0
LWPOLYLINE
  5
3FD
330
1F
100
AcDbEntity
  8
0
  6
SLD-Durchgehend
 62
     7
370
    15
100
AcDbPolyline
 90
       23
 70
   128
 43
0.0
 10
51.5262416144
 20
163.6336552324
 10
51.4357793637
 20
163.413104922
 10
51.428349656
 20
163.1898459161
 10
51.5045531391
 20
162.9819652561
 10
51.6582186195
 20
162.8063039198
 10
51.8768948385
 20
162.6770933479
 10
52.1428662778
 20
162.6048014635
 10
52.4345870287
 20
162.595284513
 10
52.7284221687
 20
162.6493137553
 10
53.0005673476
 20
162.7625121392
 10
53.2289749215
 20
162.9257086572
 10
53.3951410521
 20
163.1256824119
 10
53.4856033028
 20
163.3462327223
 10
53.4930334248
 20
163.5694916156
 10
53.4168295274
 20
163.7773723882
 10
53.2631648757
 20
163.9530334993
 10
53.0444882423
 20
164.0822441838
 10
52.778516803
 20
164.1545360682
 10
52.4867964665
 20
164.164052906
 10
52.1929604977
 20
164.1100238891
 10
51.9208157333
 20
163.9968253924
 10
51.6924077449
 20
163.8336289871
 10
51.5262416144
 20
163.6336552324
  0
LINE
  5
3FE
330
1F
100
AcDbEntity
  8
0
  6
SLD-Durchgehend
 62
     7
370
    15
100
AcDbLine
 10
49.7422359976
 20
175.9271830992
 30
0.0
 11
47.4181921338
 21
186.8257043031
 31
0.0
  0
LINE
  5
3FF
330
1F
100
AcDbEntity
  8
0
  6
SLD-Durchgehend
 62
     7
370
    15
100
AcDbLine
 10
47.4181921338
 20
186.8257043031
 30
0.0
 11
79.4564573153
 21
178.1176017697
 31
0.0
  0
LINE
  5
400
330
1F
100
AcDbEntity
  8
0
  6
SLD-Durchgehend
 62
     7
370
    15
100
AcDbLine
 10
40.9195055628
 20
172.0106262795
 30
0.0
 11
42.5852164968
 21
164.1993339814
 31
0.0
  0
LINE
  5
401
330
1F
100
AcDbEntity
  8
0
  6
SLD-Durchgehend
 62
     7
370
    15
100
AcDbLine
 10
47.4181921338
 20
186.8257043031
 30
0.0
 11
43.5664635375
 21
180.5140697162
 31
0.0
  0
LWPOLYLINE
  5
402
330
1F
100
AcDbEntity
  8
0
  6
SLD-Durchgehend
 62
     7
370
    15
100
AcDbPolyline
 90
        8
 70
   128
 43
0.0
 10
45.6355344361
 20
172.5401952894
 10
45.3638452745
 20
172.1323500786
 10
45.0854100976
 20
171.7874708652
 10
44.8054156367
 20
171.5119824448
 10
44.529077712
 20
171.3110164467
 10
44.2615439022
 20
171.188316385
 10
44.0077977579
 20
171.1461680659
 10
43.8214114207
 20
171.17006487
  0
LWPOLYLINE
  5
403
330
1F
100
AcDbEntity
  8
0
  6
SLD-Durchgehend
 62
     7
370
    15
100
AcDbPolyline
 90
       18
 70
   128
 43
0.0
 10
46.1819972099
 20
179.8549734145
 10
46.2308422201
 20
179.839681556
 10
46.4431771055
 20
179.7198860003
 10
46.6286602702
 20
179.521715604
 10
46.7838361451
 20
179.2488610942
 10
46.9058142401
 20
178.9064055303
 10
46.9923224413
 20
178.5007283918
 10
47.0417492614
 20
178.0393866902
 10
47.0531738638
 20
177.5309741757
 10
47.0263832672
 20
176.9849614068
 10
46.9618769643
 20
176.4115200721
 10
46.8608563645
 20
175.821332198
 10
46.7252031453
 20
175.2253912984
 10
46.5574444545
 20
174.6347993579
 10
46.3607053148
 20
174.0605576829
 10
46.1386505361
 20
173.5133631792
 10
45.8954165418
 20
173.0034092699
 10
45.6355344361
 20
172.5401952894
  0
LWPOLYLINE
  5
404
330
1F
100
AcDbEntity
  8
0
  6
SLD-Durchgehend
 62
     7
370
     0
100
AcDbPolyline
 90
       32
 70
   128
 43
0.0
 10
57.1235716343
 20
171.0205402433
 10
56.9107643685
 20
171.0995928769
 10
56.7288419432
 20
171.2117832624
 10
56.585278319
 20
171.3525186205
 10
56.4859513824
 20
171.516036496
 10
56.4349271917
 20
171.6956433752
 10
56.4342955055
 20
171.8839851302
 10
56.4840814399
 20
172.0733519537
 10
56.5822466246
 20
172.2559906089
 10
56.7247722187
 20
172.424424143
 10
56.9058245036
 20
172.5717564884
 10
57.1179888851
 20
172.6919561533
 10
57.3525814101
 20
172.7801022524
 10
57.5999966037
 20
172.8325855489
 10
57.8501059647
 20
172.8472579117
 10
58.0926699084
 20
172.8235183054
 10
58.3177567106
 20
172.7623389956
 10
58.516153072
 20
172.6662241862
 10
58.6797350209
 20
172.5391092076
 10
58.8018070268
 20
172.3861981133
 10
58.877369745
 20
172.2137508311
 10
58.9033313545
 20
172.0288277633
 10
58.8786274983
 20
171.838999417
 10
58.8042704556
 20
171.6520374534
 10
58.6833040958
 20
171.4755962303
 10
58.5206809392
 20
171.3168989232
 10
58.3230588528
 20
171.1824431751
 10
58.0985282314
 20
171.0777329716
 10
57.8562813809
 20
171.0070559395
 10
57.6062363006
 20
170.9733046811
 10
57.3586292606
 20
170.9778617725
 10
57.1235977521
 20
171.0205402433
  0
LWPOLYLINE
  5
405
330
1F
100
AcDbEntity
  8
0
  6
SLD-Durchgehend
 62
     7
370
     0
100
AcDbPolyline
 90
       32
 70
   128
 43
0.0
 10
51.91847682
 20
162.491195641
 10
51.7056592035
 20
162.5702479436
 10
51.5237369803
 20
162.6824386601
 10
51.3801731541
 20
162.8231736872
 10
51.2808464195
 20
162.9866918937
 10
51.2298220267
 20
163.1662984419
 10
51.2291905425
 20
163.354640528
 10
51.2789762749
 20
163.5440070205
 10
51.3771414596
 20
163.7266456756
 10
51.5196670538
 20
163.8950792098
 10
51.7007193386
 20
164.0424115551
 10
51.9128839222
 20
164.162611551
 10
52.1474762451
 20
164.2507573192
 10
52.3948914388
 20
164.3032406157
 10
52.6450007997
 20
164.3179129784
 10
52.8875647434
 20
164.2941733722
 10
53.1126515456
 20
164.2329940623
 10
53.3110479071
 20
164.136879253
 10
53.474629856
 20
164.0097642744
 10
53.5967018618
 20
163.8568531801
 10
53.672264782
 20
163.6844062288
 10
53.6982261896
 20
163.49948283
 10
53.6735223334
 20
163.3096544837
 10
53.5991652907
 20
163.1226925202
 10
53.4781989308
 20
162.946251297
 10
53.3155759763
 20
162.7875543209
 10
53.1179536879
 20
162.6530982418
 10
52.8934232685
 20
162.5483883693
 10
52.6511762159
 20
162.4777110062
 10
52.4011313377
 20
162.4439600789
 10
52.1535240957
 20
162.4485168393
 10
51.9184927892
 20
162.491195641
  0
LINE
  5
406
330
1F
100
AcDbEntity
  8
0
  6
SLD-Durchgehend
 62
     7
370
     0
100
AcDbLine
 10
40.7875620131
 20
176.173739869
 30
0.0
 11
40.7953532113
 21
176.2263408617
 31
0.0
  0
ARC
  5
407
330
1F
100
AcDbEntity
  8
0
  6
SLD-Durchgehend
 62
     7
370
     0
100
AcDbCircle
 10
44.5298681031
 20
175.6403036362
 30
0.0
 40
3.780243723612828
100
AcDbArc
 50
157.6873456068
 51
171.0816780013
  0
ENDSEC
  0
SECTION
  2
OBJECTS
  0
DICTIONARY
  5
C
330
0
100
AcDbDictionary
281
     1
  3
ACAD_GROUP
350
D
  3
ACAD_LAYOUT
350
1A
  3
ACAD_MLINESTYLE
350
17
  3
ACAD_PLOTSETTINGS
350
19
  3
ACAD_PLOTSTYLENAME
350
E
  3
ACAD_SCALELIST
350
47
  0
DICTIONARY
  5
D
102
{ACAD_REACTORS
330
C
102
}
330
C
100
AcDbDictionary
281
     1
  0
DICTIONARY
  5
1A
102
{ACAD_REACTORS
330
C
102
}
330
C
100
AcDbDictionary
281
     1
  3
Layout1
350
1E
  3
Layout2
350
26
  3
Model
350
22
  0
DICTIONARY
  5
17
102
{ACAD_REACTORS
330
C
102
}
330
C
100
AcDbDictionary
281
     1
  3
Standard
350
18
  0
DICTIONARY
  5
19
102
{ACAD_REACTORS
330
C
102
}
330
C
100
AcDbDictionary
281
     1
  0
ACDBDICTIONARYWDFLT
  5
E
102
{ACAD_REACTORS
330
C
102
}
330
C
100
AcDbDictionary
281
     1
  3
Normal
350
F
100
AcDbDictionaryWithDefault
340
F
  0
DICTIONARY
  5
47
102
{ACAD_REACTORS
330
C
102
}
330
C
100
AcDbDictionary
281
     1
  3
A0
350
48
  3
A1
350
49
  3
A2
350
4A
  3
A3
350
4B
  3
A4
350
4C
  3
A5
350
4D
  3
A6
350
4E
  3
A7
350
4F
  3
A8
350
50
  3
A9
350
51
  3
B0
350
52
  3
B1
350
53
  3
B2
350
54
  3
B3
350
55
  3
B4
350
56
  3
B5
350
57
  3
B6
350
58
  3
B7
350
59
  3
B8
350
5A
  3
B9
350
5B
  3
C0
350
5C
  3
C1
350
5D
  3
C2
350
5E
  3
C3
350
5F
  3
C4
350
60
  3
C5
350
61
  3
C6
350
62
  3
C7
350
63
  3
C8
350
64
  3
C9
350
65
  3
D0
350
66
  3
D1
350
67
  3
D2
350
68
  0
LAYOUT
  5
1E
102
{ACAD_REACTORS
330
1A
102
}
330
1A
100
AcDbPlotSettings
  1

  2
none_device
  4

  6

 40
0.0
 41
0.0
 42
0.0
 43
0.0
 44
0.0
 45
0.0
 46
0.0
 47
0.0
 48
0.0
 49
0.0
140
0.0
141
0.0
142
1.0
143
1.0
 70
   688
 72
     1
 73
     0
 74
     5
  7

 75
    16
147
1.0
148
0.0
149
0.0
100
AcDbLayout
  1
Layout1
 70
     1
 71
     1
 10
0.0
 20
0.0
 11
420.0
 21
297.0
 12
0.0
 22
0.0
 32
0.0
 14
1.0000000000E+20
 24
1.0000000000E+20
 34
1.0000000000E+20
 15
-1.0000000000E+20
 25
-1.0000000000E+20
 35
-1.0000000000E+20
146
0.0
 13
0.0
 23
0.0
 33
0.0
 16
1.0
 26
0.0
 36
0.0
 17
0.0
 27
1.0
 37
0.0
 76
     0
330
1B
  0
LAYOUT
  5
26
102
{ACAD_REACTORS
330
1A
102
}
330
1A
100
AcDbPlotSettings
  1

  2
none_device
  4

  6

 40
0.0
 41
0.0
 42
0.0
 43
0.0
 44
0.0
 45
0.0
 46
0.0
 47
0.0
 48
0.0
 49
0.0
140
0.0
141
0.0
142
1.0
143
1.0
 70
   688
 72
     1
 73
     0
 74
     5
  7

 75
    16
147
1.0
148
0.0
149
0.0
100
AcDbLayout
  1
Layout2
 70
     1
 71
     2
 10
0.0
 20
0.0
 11
0.0
 21
0.0
 12
0.0
 22
0.0
 32
0.0
 14
0.0
 24
0.0
 34
0.0
 15
0.0
 25
0.0
 35
0.0
146
0.0
 13
0.0
 23
0.0
 33
0.0
 16
1.0
 26
0.0
 36
0.0
 17
0.0
 27
1.0
 37
0.0
 76
     0
330
23
  0
LAYOUT
  5
22
102
{ACAD_REACTORS
330
1A
102
}
330
1A
100
AcDbPlotSettings
  1

  2
none_device
  4
Letter_(8.50_x_11.00_Inches)
  6

 40
6.35
 41
6.35
 42
6.35000508
 43
6.35000508
 44
215.9
 45
279.4
 46
0.0
 47
0.0
 48
0.0
 49
0.0
140
0.0
141
0.0
142
1.0
143
1.0
 70
  1712
 72
     1
 73
     0
 74
     0
  7

 75
     0
147
1.0
148
0.0
149
0.0
100
AcDbLayout
  1
Model
 70
     1
 71
     0
 10
0.0
 20
0.0
 11
297.0
 21
210.0
 12
0.0
 22
0.0
 32
0.0
 14
0.0
 24
0.0
 34
0.0
 15
297.0
 25
210.0
 35
0.0
146
0.0
 13
0.0
 23
0.0
 33
0.0
 16
1.0
 26
0.0
 36
0.0
 17
0.0
 27
1.0
 37
0.0
 76
     0
330
1F
331
29
  0
MLINESTYLE
  5
18
102
{ACAD_REACTORS
330
17
102
}
330
17
100
AcDbMlineStyle
  2
Standard
 70
     0
  3

 62
   256
 51
90.0
 52
90.0
 71
     2
 49
0.5
 62
   256
  6
BYLAYER
 49
-0.5
 62
   256
  6
BYLAYER
  0
ACDBPLACEHOLDER
  5
F
102
{ACAD_REACTORS
330
E
102
}
330
E
  0
SCALE
  5
48
102
{ACAD_REACTORS
330
47
102
}
330
47
100
AcDbScale
 70
     0
300
1:1
140
1.0
141
1.0
290
     1
  0
SCALE
  5
49
102
{ACAD_REACTORS
330
47
102
}
330
47
100
AcDbScale
 70
     0
300
1:2
140
1.0
141
2.0
290
     0
  0
SCALE
  5
4A
102
{ACAD_REACTORS
330
47
102
}
330
47
100
AcDbScale
 70
     0
300
1:4
140
1.0
141
4.0
290
     0
  0
SCALE
  5
4B
102
{ACAD_REACTORS
330
47
102
}
330
47
100
AcDbScale
 70
     0
300
1:5
140
1.0
141
5.0
290
     0
  0
SCALE
  5
4C
102
{ACAD_REACTORS
330
47
102
}
330
47
100
AcDbScale
 70
     0
300
1:8
140
1.0
141
8.0
290
     0
  0
SCALE
  5
4D
102
{ACAD_REACTORS
330
47
102
}
330
47
100
AcDbScale
 70
     0
300
1:10
140
1.0
141
10.0
290
     0
  0
SCALE
  5
4E
102
{ACAD_REACTORS
330
47
102
}
330
47
100
AcDbScale
 70
     0
300
1:16
140
1.0
141
16.0
290
     0
  0
SCALE
  5
4F
102
{ACAD_REACTORS
330
47
102
}
330
47
100
AcDbScale
 70
     0
300
1:20
140
1.0
141
20.0
290
     0
  0
SCALE
  5
50
102
{ACAD_REACTORS
330
47
102
}
330
47
100
AcDbScale
 70
     0
300
1:30
140
1.0
141
30.0
290
     0
  0
SCALE
  5
51
102
{ACAD_REACTORS
330
47
102
}
330
47
100
AcDbScale
 70
     0
300
1:40
140
1.0
141
40.0
290
     0
  0
SCALE
  5
52
102
{ACAD_REACTORS
330
47
102
}
330
47
100
AcDbScale
 70
     0
300
1:50
140
1.0
141
50.0
290
     0
  0
SCALE
  5
53
102
{ACAD_REACTORS
330
47
102
}
330
47
100
AcDbScale
 70
     0
300
1:100
140
1.0
141
100.0
290
     0
  0
SCALE
  5
54
102
{ACAD_REACTORS
330
47
102
}
330
47
100
AcDbScale
 70
     0
300
2:1
140
2.0
141
1.0
290
     0
  0
SCALE
  5
55
102
{ACAD_REACTORS
330
47
102
}
330
47
100
AcDbScale
 70
     0
300
4:1
140
4.0
141
1.0
290
     0
  0
SCALE
  5
56
102
{ACAD_REACTORS
330
47
102
}
330
47
100
AcDbScale
 70
     0
300
8:1
140
8.0
141
1.0
290
     0
  0
SCALE
  5
57
102
{ACAD_REACTORS
330
47
102
}
330
47
100
AcDbScale
 70
     0
300
10:1
140
10.0
141
1.0
290
     0
  0
SCALE
  5
58
102
{ACAD_REACTORS
330
47
102
}
330
47
100
AcDbScale
 70
     0
300
100:1
140
100.0
141
1.0
290
     0
  0
SCALE
  5
59
102
{ACAD_REACTORS
330
47
102
}
330
47
100
AcDbScale
 70
     0
300
1/128" = 1'-0"
140
0.0078125
141
12.0
290
     0
  0
SCALE
  5
5A
102
{ACAD_REACTORS
330
47
102
}
330
47
100
AcDbScale
 70
     0
300
1/64" = 1'-0"
140
0.015625
141
12.0
290
     0
  0
SCALE
  5
5B
102
{ACAD_REACTORS
330
47
102
}
330
47
100
AcDbScale
 70
     0
300
1/32" = 1'-0"
140
0.03125
141
12.0
290
     0
  0
SCALE
  5
5C
102
{ACAD_REACTORS
330
47
102
}
330
47
100
AcDbScale
 70
     0
300
1/16" = 1'-0"
140
0.0625
141
12.0
290
     0
  0
SCALE
  5
5D
102
{ACAD_REACTORS
330
47
102
}
330
47
100
AcDbScale
 70
     0
300
3/32" = 1'-0"
140
0.09375
141
12.0
290
     0
  0
SCALE
  5
5E
102
{ACAD_REACTORS
330
47
102
}
330
47
100
AcDbScale
 70
     0
300
1/8" = 1'-0"
140
0.125
141
12.0
290
     0
  0
SCALE
  5
5F
102
{ACAD_REACTORS
330
47
102
}
330
47
100
AcDbScale
 70
     0
300
3/16" = 1'-0"
140
0.1875
141
12.0
290
     0
  0
SCALE
  5
60
102
{ACAD_REACTORS
330
47
102
}
330
47
100
AcDbScale
 70
     0
300
1/4" = 1'-0"
140
0.25
141
12.0
290
     0
  0
SCALE
  5
61
102
{ACAD_REACTORS
330
47
102
}
330
47
100
AcDbScale
 70
     0
300
3/8" = 1'-0"
140
0.375
141
12.0
290
     0
  0
SCALE
  5
62
102
{ACAD_REACTORS
330
47
102
}
330
47
100
AcDbScale
 70
     0
300
1/2" = 1'-0"
140
0.5
141
12.0
290
     0
  0
SCALE
  5
63
102
{ACAD_REACTORS
330
47
102
}
330
47
100
AcDbScale
 70
     0
300
3/4" = 1'-0"
140
0.75
141
12.0
290
     0
  0
SCALE
  5
64
102
{ACAD_REACTORS
330
47
102
}
330
47
100
AcDbScale
 70
     0
300
1" = 1'-0"
140
1.0
141
12.0
290
     0
  0
SCALE
  5
65
102
{ACAD_REACTORS
330
47
102
}
330
47
100
AcDbScale
 70
     0
300
1-1/2" = 1'-0"
140
1.5
141
12.0
290
     0
  0
SCALE
  5
66
102
{ACAD_REACTORS
330
47
102
}
330
47
100
AcDbScale
 70
     0
300
3" = 1'-0"
140
3.0
141
12.0
290
     0
  0
SCALE
  5
67
102
{ACAD_REACTORS
330
47
102
}
330
47
100
AcDbScale
 70
     0
300
6" = 1'-0"
140
6.0
141
12.0
290
     0
  0
SCALE
  5
68
102
{ACAD_REACTORS
330
47
102
}
330
47
100
AcDbScale
 70
     0
300
1'-0" = 1'-0"
140
12.0
141
12.0
290
     0
  0
ENDSEC
  0
EOF
