  0
SECTION
  2
HEADER
  9
$ACADVER
  1
AC1015
  9
$ACADMAINTVER
 70
     6
  9
$DWGCODEPAGE
  3
ANSI_1252
  9
$INSBASE
 10
0.0
 20
0.0
 30
0.0
  9
$EXTMIN
 10
0.0
 20
0.0
 30
0.0
  9
$EXTMAX
 10
210.0
 20
297.0
 30
0.0
  9
$LIMMIN
 10
0.0
 20
0.0
  9
$LIMMAX
 10
210.0
 20
297.0
  9
$ORTHOMODE
 70
     0
  9
$REGENMODE
 70
     1
  9
$FILLMODE
 70
     1
  9
$QTEXTMODE
 70
     0
  9
$MIRRTEXT
 70
     1
  9
$LTSCALE
 40
1.0
  9
$ATTMODE
 70
     1
  9
$TEXTSIZE
 40
3.0
  9
$TRACEWID
 40
1.0
  9
$TEXTSTYLE
  7
STANDARD
  9
$CLAYER
  8
0
  9
$CELTYPE
  6
ByLayer
  9
$CECOLOR
 62
   256
  9
$CELTSCALE
 40
1.0
  9
$DISPSILH
 70
     0
  9
$DIMSCALE
 40
1.0
  9
$DIMASZ
 40
2.5
  9
$DIMEXO
 40
1.0
  9
$DIMDLI
 40
3.75
  9
$DIMRND
 40
0.0
  9
$DIMDLE
 40
0.0
  9
$DIMEXE
 40
1.0
  9
$DIMTP
 40
0.0
  9
$DIMTM
 40
0.0
  9
$DIMTXT
 40
3.0
  9
$DIMCEN
 40
2.5
  9
$DIMTSZ
 40
0.0
  9
$DIMTOL
 70
     0
  9
$DIMLIM
 70
     0
  9
$DIMTIH
 70
     1
  9
$DIMTOH
 70
     1
  9
$DIMSE1
 70
     0
  9
$DIMSE2
 70
     0
  9
$DIMTAD
 70
     1
  9
$DIMZIN
 70
     0
  9
$DIMBLK
  1

  9
$DIMASO
 70
     1
  9
$DIMSHO
 70
     1
  9
$DIMPOST
  1

  9
$DIMAPOST
  1

  9
$DIMALT
 70
     0
  9
$DIMALTD
 70
     3
  9
$DIMALTF
 40
0.0393700787
  9
$DIMLFAC
 40
1.0
  9
$DIMTOFL
 70
     1
  9
$DIMTVP
 40
0.0
  9
$DIMTIX
 70
     0
  9
$DIMSOXD
 70
     0
  9
$DIMSAH
 70
     0
  9
$DIMBLK1
  1

  9
$DIMBLK2
  1

  9
$DIMSTYLE
  2
ISO-25
  9
$DIMCLRD
 70
     0
  9
$DIMCLRE
 70
     0
  9
$DIMCLRT
 70
     0
  9
$DIMTFAC
 40
1.0
  9
$DIMGAP
 40
1.524
  9
$DIMJUST
 70
     0
  9
$DIMSD1
 70
     0
  9
$DIMSD2
 70
     0
  9
$DIMTOLJ
 70
     0
  9
$DIMTZIN
 70
     0
  9
$DIMALTZ
 70
     0
  9
$DIMALTTZ
 70
     0
  9
$DIMUPT
 70
     0
  9
$DIMDEC
 70
     3
  9
$DIMTDEC
 70
     3
  9
$DIMALTU
 70
     2
  9
$DIMALTTD
 70
     3
  9
$DIMTXSTY
  7
STANDARD
  9
$DIMAUNIT
 70
     0
  9
$DIMADEC
 70
     3
  9
$DIMALTRND
 40
0.0
  9
$DIMAZIN
 70
     0
  9
$DIMDSEP
 70
    44
  9
$DIMATFIT
 70
     3
  9
$DIMFRAC
 70
     0
  9
$DIMLDRBLK
  1

  9
$DIMLUNIT
 70
     2
  9
$DIMLWD
 70
    -2
  9
$DIMLWE
 70
    -2
  9
$DIMTMOVE
 70
     0
  9
$LUNITS
 70
     2
  9
$LUPREC
 70
     3
  9
$SKETCHINC
 40
1.0
  9
$FILLETRAD
 40
10.0
  9
$AUNITS
 70
     0
  9
$AUPREC
 70
     3
  9
$MENU
  1
.
  9
$ELEVATION
 40
0.0
  9
$PELEVATION
 40
0.0
  9
$THICKNESS
 40
0.0
  9
$LIMCHECK
 70
     0
  9
$CHAMFERA
 40
0.0
  9
$CHAMFERB
 40
0.0
  9
$CHAMFERC
 40
0.0
  9
$CHAMFERD
 40
0.0
  9
$SKPOLY
 70
     0
  9
$TDCREATE
 40
2459597.66974831
  9
$TDUCREATE
 40
2459597.628081643
  9
$TDUPDATE
 40
2459597.669751609
  9
$TDUUPDATE
 40
2459597.628084942
  9
$TDINDWG
 40
0.0000000116
  9
$TDUSRTIMER
 40
0.0000000116
  9
$USRTIMER
 70
     1
  9
$ANGBASE
 50
0.0
  9
$ANGDIR
 70
     0
  9
$PDMODE
 70
     0
  9
$PDSIZE
 40
-1.0
  9
$PLINEWID
 40
0.0
  9
$SPLFRAME
 70
     0
  9
$SPLINETYPE
 70
     6
  9
$SPLINESEGS
 70
     8
  9
$HANDSEED
  5
3E4
  9
$SURFTAB1
 70
     6
  9
$SURFTAB2
 70
     6
  9
$SURFTYPE
 70
     6
  9
$SURFU
 70
     6
  9
$SURFV
 70
     6
  9
$UCSBASE
  2

  9
$UCSNAME
  2

  9
$UCSORG
 10
0.0
 20
0.0
 30
0.0
  9
$UCSXDIR
 10
1.0
 20
0.0
 30
0.0
  9
$UCSYDIR
 10
0.0
 20
1.0
 30
0.0
  9
$UCSORTHOREF
  2

  9
$UCSORTHOVIEW
 70
     0
  9
$UCSORGTOP
 10
0.0
 20
0.0
 30
0.0
  9
$UCSORGBOTTOM
 10
0.0
 20
0.0
 30
0.0
  9
$UCSORGLEFT
 10
0.0
 20
0.0
 30
0.0
  9
$UCSORGRIGHT
 10
0.0
 20
0.0
 30
0.0
  9
$UCSORGFRONT
 10
0.0
 20
0.0
 30
0.0
  9
$UCSORGBACK
 10
0.0
 20
0.0
 30
0.0
  9
$PUCSBASE
  2

  9
$PUCSNAME
  2

  9
$PUCSORG
 10
0.0
 20
0.0
 30
0.0
  9
$PUCSXDIR
 10
1.0
 20
0.0
 30
0.0
  9
$PUCSYDIR
 10
0.0
 20
1.0
 30
0.0
  9
$PUCSORTHOREF
  2

  9
$PUCSORTHOVIEW
 70
     0
  9
$PUCSORGTOP
 10
0.0
 20
0.0
 30
0.0
  9
$PUCSORGBOTTOM
 10
0.0
 20
0.0
 30
0.0
  9
$PUCSORGLEFT
 10
0.0
 20
0.0
 30
0.0
  9
$PUCSORGRIGHT
 10
0.0
 20
0.0
 30
0.0
  9
$PUCSORGFRONT
 10
0.0
 20
0.0
 30
0.0
  9
$PUCSORGBACK
 10
0.0
 20
0.0
 30
0.0
  9
$USERI1
 70
     0
  9
$USERI2
 70
     0
  9
$USERI3
 70
     0
  9
$USERI4
 70
     0
  9
$USERI5
 70
     0
  9
$USERR1
 40
0.0
  9
$USERR2
 40
0.0
  9
$USERR3
 40
0.0
  9
$USERR4
 40
0.0
  9
$USERR5
 40
0.0
  9
$WORLDVIEW
 70
     1
  9
$SHADEDGE
 70
     3
  9
$SHADEDIF
 70
    70
  9
$TILEMODE
 70
     1
  9
$MAXACTVP
 70
    64
  9
$PINSBASE
 10
0.0
 20
0.0
 30
0.0
  9
$PLIMCHECK
 70
     0
  9
$PEXTMIN
 10
1.0000000000E+20
 20
1.0000000000E+20
 30
1.0000000000E+20
  9
$PEXTMAX
 10
-1.0000000000E+20
 20
-1.0000000000E+20
 30
-1.0000000000E+20
  9
$PLIMMIN
 10
0.0
 20
0.0
  9
$PLIMMAX
 10
420.0
 20
297.0
  9
$UNITMODE
 70
     0
  9
$VISRETAIN
 70
     1
  9
$PLINEGEN
 70
     0
  9
$PSLTSCALE
 70
     1
  9
$TREEDEPTH
 70
  3020
  9
$CMLSTYLE
  2
Standard
  9
$CMLJUST
 70
     0
  9
$CMLSCALE
 40
20.0
  9
$PROXYGRAPHICS
 70
     1
  9
$MEASUREMENT
 70
     1
  9
$CELWEIGHT
370
    -1
  9
$ENDCAPS
280
     0
  9
$JOINSTYLE
280
     0
  9
$LWDISPLAY
290
     1
  9
$INSUNITS
 70
     4
  9
$HYPERLINKBASE
  1

  9
$STYLESHEET
  1

  9
$XEDIT
290
     1
  9
$CEPSNTYPE
380
     0
  9
$PSTYLEMODE
290
     1
  9
$FINGERPRINTGUID
  2
{3326065B-BCB8-4D4C-9514-651EFC399559}
  9
$VERSIONGUID
  2
{FAEB1C32-E019-11D5-929B-00C0DF256EC4}
  9
$EXTNAMES
290
     1
  9
$PSVPSCALE
 40
0.0
  9
$OLESTARTUP
290
     0
  0
ENDSEC
  0
SECTION
  2
CLASSES
  0
CLASS
  1
ACDBDICTIONARYWDFLT
  2
AcDbDictionaryWithDefault
  3
ObjectDBX Classes
 90
        0
280
     0
281
     0
  0
CLASS
  1
VISUALSTYLE
  2
AcDbVisualStyle
  3
ObjectDBX Classes
 90
     4095
280
     0
281
     0
  0
CLASS
  1
MATERIAL
  2
AcDbMaterial
  3
ObjectDBX Classes
 90
     1153
280
     0
281
     0
  0
CLASS
  1
SCALE
  2
AcDbScale
  3
ObjectDBX Classes
 90
     1153
280
     0
281
     0
  0
CLASS
  1
TABLESTYLE
  2
AcDbTableStyle
  3
ObjectDBX Classes
 90
     4095
280
     0
281
     0
  0
CLASS
  1
MLEADERSTYLE
  2
AcDbMLeaderStyle
  3
ACDB_MLEADERSTYLE_CLASS
 90
     4095
280
     0
281
     0
  0
CLASS
  1
SUN
  2
AcDbSun
  3
SCENEOE
 90
     1153
280
     0
281
     0
  0
CLASS
  1
ACDBPLACEHOLDER
  2
AcDbPlaceHolder
  3
ObjectDBX Classes
 90
        0
280
     0
281
     0
  0
CLASS
  1
LAYOUT
  2
AcDbLayout
  3
ObjectDBX Classes
 90
        0
280
     0
281
     0
  0
ENDSEC
  0
SECTION
  2
TABLES
  0
TABLE
  2
VPORT
  5
8
330
0
100
AcDbSymbolTable
 70
     1
  0
VPORT
  5
29
330
8
100
AcDbSymbolTableRecord
100
AcDbViewportTableRecord
  2
*Active
 70
     0
 10
0.0
 20
0.0
 11
1.0
 21
1.0
 12
105.0
 22
148.5
 13
0.0
 23
0.0
 14
10.0
 24
10.0
 15
10.0
 25
10.0
 16
0.0
 26
0.0
 36
1.0
 17
0.0
 27
0.0
 37
0.0
 40
297.0
 41
0.7070707071
 42
50.0
 43
0.0
 44
0.0
 50
0.0
 51
0.0
 71
     0
 72
  2000
 73
     1
 74
     3
 75
     0
 76
     0
 77
     0
 78
     0
281
     0
 65
     1
110
0.0
120
0.0
130
0.0
111
1.0
121
0.0
131
0.0
112
0.0
122
1.0
132
0.0
 79
     0
146
0.0
  0
ENDTAB
  0
TABLE
  2
LTYPE
  5
5
330
0
100
AcDbSymbolTable
 70
     8
  0
LTYPE
  5
14
330
5
100
AcDbSymbolTableRecord
100
AcDbLinetypeTableRecord
  2
ByBlock
 70
     0
  3

 72
    65
 73
     0
 40
0.0
  0
LTYPE
  5
15
330
5
100
AcDbSymbolTableRecord
100
AcDbLinetypeTableRecord
  2
ByLayer
 70
     0
  3

 72
    65
 73
     0
 40
0.0
  0
LTYPE
  5
16
330
5
100
AcDbSymbolTableRecord
100
AcDbLinetypeTableRecord
  2
Continuous
 70
     0
  3
Solid line
 72
    65
 73
     0
 40
0.0
  0
LTYPE
  5
6E
330
5
100
AcDbSymbolTableRecord
100
AcDbLinetypeTableRecord
  2
SLD-Durchgehend
 70
     0
  3
SolidWorks Line Style
 72
    65
 73
     0
 40
0.0
  0
LTYPE
  5
6F
330
5
100
AcDbSymbolTableRecord
100
AcDbLinetypeTableRecord
  2
SLD-Gestrichelt
 70
     0
  3
SolidWorks Line Style
 72
    65
 73
     2
 40
1.905
 49
1.27
 74
     0
 49
-0.635
 74
     0
  0
LTYPE
  5
70
330
5
100
AcDbSymbolTableRecord
100
AcDbLinetypeTableRecord
  2
SLD-Phantom
 70
     0
  3
SolidWorks Line Style
 72
    65
 73
     6
 40
12.7
 49
6.35
 74
     0
 49
-1.27
 74
     0
 49
1.27
 74
     0
 49
-1.27
 74
     0
 49
1.27
 74
     0
 49
-1.27
 74
     0
  0
LTYPE
  5
71
330
5
100
AcDbSymbolTableRecord
100
AcDbLinetypeTableRecord
  2
SLD-Kette
 70
     0
  3
SolidWorks Line Style
 72
    65
 73
     4
 40
10.16
 49
6.35
 74
     0
 49
-1.27
 74
     0
 49
1.27
 74
     0
 49
-1.27
 74
     0
  0
LTYPE
  5
72
330
5
100
AcDbSymbolTableRecord
100
AcDbLinetypeTableRecord
  2
SLD-Punktstrich
 70
     0
  3
SolidWorks Line Style
 72
    65
 73
     4
 40
19.05
 49
15.24
 74
     0
 49
-1.27
 74
     0
 49
1.27
 74
     0
 49
-1.27
 74
     0
  0
LTYPE
  5
73
330
5
100
AcDbSymbolTableRecord
100
AcDbLinetypeTableRecord
  2
SLD-Naht
 70
     0
  3
SolidWorks Line Style
 72
    65
 73
     2
 40
0.635
 49
0.0
 74
     0
 49
-0.635
 74
     0
  0
LTYPE
  5
74
330
5
100
AcDbSymbolTableRecord
100
AcDbLinetypeTableRecord
  2
SLD-Dicke-Dünne-Kette
 70
     0
  3
SolidWorks Line Style
 72
    65
 73
     4
 40
10.16
 49
6.35
 74
     0
 49
-1.27
 74
     0
 49
1.27
 74
     0
 49
-1.27
 74
     0
  0
ENDTAB
  0
TABLE
  2
LAYER
  5
2
330
0
100
AcDbSymbolTable
 70
     1
  0
LAYER
  5
10
330
2
100
AcDbSymbolTableRecord
100
AcDbLayerTableRecord
  2
0
 70
     0
 62
     7
  6
Continuous
370
    -3
390
F
  0
ENDTAB
  0
TABLE
  2
STYLE
  5
3
330
0
100
AcDbSymbolTable
 70
     5
  0
STYLE
  5
11
330
3
100
AcDbSymbolTableRecord
100
AcDbTextStyleTableRecord
  2
STANDARD
 70
     0
 40
0.0
 41
1.0
 50
0.0
 71
     0
 42
3.0
  3
ARIAL.TTF
  4

1001
ACAD
1000
ARIAL
1071
       34
  0
STYLE
  5
85
330
3
100
AcDbSymbolTableRecord
100
AcDbTextStyleTableRecord
  2
SLDTEXTSTYLE0
 70
     0
 40
0.0
 41
0.948
 50
0.0
 71
     0
 42
3.0
  3
ARIAL.TTF
  4

1001
ACAD
1000
Arial
1071
      290
  0
STYLE
  5
E8
330
3
100
AcDbSymbolTableRecord
100
AcDbTextStyleTableRecord
  2
SLDTEXTSTYLE1
 70
     0
 40
0.0
 41
1.0
 50
0.0
 71
     0
 42
3.0
  3
HLHI___.TTF
  4

1001
ACAD
1000
Helvetica 65 Medium
1071
 50331938
  0
STYLE
  5
EA
330
3
100
AcDbSymbolTableRecord
100
AcDbTextStyleTableRecord
  2
SLDTEXTSTYLE2
 70
     0
 40
0.0
 41
1.0
 50
0.0
 71
     0
 42
3.0
  3
HLR____.TTF
  4

1001
ACAD
1000
Helvetica 55 Roman
1071
 16777506
  0
STYLE
  5
F8
330
3
100
AcDbSymbolTableRecord
100
AcDbTextStyleTableRecord
  2
SLDTEXTSTYLE3
 70
     0
 40
0.0
 41
0.948
 50
0.0
 71
     0
 42
3.0
  3
ARIALBD.TTF
  4

1001
ACAD
1000
Arial
1071
 33554722
  0
ENDTAB
  0
TABLE
  2
VIEW
  5
6
330
0
100
AcDbSymbolTable
 70
     0
  0
ENDTAB
  0
TABLE
  2
UCS
  5
7
330
0
100
AcDbSymbolTable
 70
     0
  0
ENDTAB
  0
TABLE
  2
APPID
  5
9
330
0
100
AcDbSymbolTable
 70
     1
  0
APPID
  5
12
330
9
100
AcDbSymbolTableRecord
100
AcDbRegAppTableRecord
  2
ACAD
 70
     0
  0
ENDTAB
  0
TABLE
  2
DIMSTYLE
  5
A
330
0
100
AcDbSymbolTable
 70
     5
100
AcDbDimStyleTable
  0
DIMSTYLE
105
27
330
A
100
AcDbSymbolTableRecord
100
AcDbDimStyleTableRecord
  2
ISO-25
 70
     0
 41
2.5
 42
0.625
 43
3.75
 44
1.25
 73
     0
 74
     0
 77
     1
 78
     8
140
2.5
141
2.5
143
0.0393700787
147
0.625
171
     3
172
     1
178
     0
271
     2
272
     2
274
     3
278
    44
283
     0
284
     8
340
11
  0
DIMSTYLE
105
20D
102
{ACAD_REACTORS
330
20C
102
}
330
A
100
AcDbSymbolTableRecord
100
AcDbDimStyleTableRecord
  2
SLDDIMSTYLE0
 70
     0
 41
2.5
 44
0.0
 45
0.000000001
 73
     0
 74
     0
 77
     1
 78
    12
 79
     3
140
3.0
147
0.75
172
     1
173
     1
178
     0
271
     3
272
     3
276
     2
284
    12
289
     0
340
85
  0
DIMSTYLE
105
21B
102
{ACAD_REACTORS
330
21A
330
226
330
38A
330
395
330
39F
330
3A9
330
3B4
102
}
330
A
100
AcDbSymbolTableRecord
100
AcDbDimStyleTableRecord
  2
SLDDIMSTYLE1
 70
     0
 41
2.5
 44
0.0
 45
0.000000001
 73
     0
 74
     0
 77
     1
 78
    12
 79
     3
140
3.0
147
0.75
173
     1
178
     0
271
     3
272
     3
276
     2
284
    12
340
85
  0
DIMSTYLE
105
385
330
A
100
AcDbSymbolTableRecord
100
AcDbDimStyleTableRecord
  2
SLDDIMSTYLE2
 70
     0
 41
2.5
 44
0.0
 45
0.000000001
146
2.5
147
0.0
173
     1
178
     0
271
     0
272
     0
276
     2
340
11
  0
DIMSTYLE
105
3BF
102
{ACAD_REACTORS
330
3BE
330
3C9
330
3D3
102
}
330
A
100
AcDbSymbolTableRecord
100
AcDbDimStyleTableRecord
  2
SLDDIMSTYLE3
 70
     0
 41
2.5
 44
0.0
 45
0.000000001
 73
     0
 74
     0
 77
     1
 78
    12
 79
     3
140
3.0
147
0.75
173
     1
178
     0
271
     0
272
     3
276
     2
284
    12
340
85
  0
ENDTAB
  0
TABLE
  2
BLOCK_RECORD
  5
1
330
0
100
AcDbSymbolTable
 70
    23
  0
BLOCK_RECORD
  5
1F
330
1
100
AcDbSymbolTableRecord
100
AcDbBlockTableRecord
  2
*Model_Space
340
22
  0
BLOCK_RECORD
  5
1B
330
1
100
AcDbSymbolTableRecord
100
AcDbBlockTableRecord
  2
*Paper_Space
340
1E
  0
BLOCK_RECORD
  5
23
330
1
100
AcDbSymbolTableRecord
100
AcDbBlockTableRecord
  2
*Paper_Space0
340
26
  0
BLOCK_RECORD
  5
75
330
1
100
AcDbSymbolTableRecord
100
AcDbBlockTableRecord
  2
Pfeil
340
0
102
{BLKREFS
331
DF
331
E0
102
}
  0
BLOCK_RECORD
  5
7F
330
1
100
AcDbSymbolTableRecord
100
AcDbBlockTableRecord
  2
Text Abluft
340
0
102
{BLKREFS
331
384
102
}
  0
BLOCK_RECORD
  5
82
330
1
100
AcDbSymbolTableRecord
100
AcDbBlockTableRecord
  2
SW_NOTE_0
340
0
102
{BLKREFS
331
8A
102
}
  0
BLOCK_RECORD
  5
8B
330
1
100
AcDbSymbolTableRecord
100
AcDbBlockTableRecord
  2
Text Zuluft
340
0
102
{BLKREFS
331
387
102
}
  0
BLOCK_RECORD
  5
8E
330
1
100
AcDbSymbolTableRecord
100
AcDbBlockTableRecord
  2
SW_NOTE_1
340
0
102
{BLKREFS
331
95
102
}
  0
BLOCK_RECORD
  5
E4
330
1
100
AcDbSymbolTableRecord
100
AcDbBlockTableRecord
  2
SW_NOTE_2
340
0
102
{BLKREFS
331
ED
102
}
  0
BLOCK_RECORD
  5
EF
330
1
100
AcDbSymbolTableRecord
100
AcDbBlockTableRecord
  2
SW_NOTE_3
340
0
102
{BLKREFS
331
F4
102
}
  0
BLOCK_RECORD
  5
20E
330
1
100
AcDbSymbolTableRecord
100
AcDbBlockTableRecord
  2
_D
340
0
  0
BLOCK_RECORD
  5
21C
330
1
100
AcDbSymbolTableRecord
100
AcDbBlockTableRecord
  2
_D_1
340
0
  0
BLOCK_RECORD
  5
227
330
1
100
AcDbSymbolTableRecord
100
AcDbBlockTableRecord
  2
_D_2
340
0
  0
BLOCK_RECORD
  5
230
330
1
100
AcDbSymbolTableRecord
100
AcDbBlockTableRecord
  2
SW_CENTERMARKSYMBOL_0
340
0
102
{BLKREFS
331
23B
102
}
  0
BLOCK_RECORD
  5
23C
330
1
100
AcDbSymbolTableRecord
100
AcDbBlockTableRecord
  2
SW_CENTERMARKSYMBOL_1
340
0
102
{BLKREFS
331
247
102
}
  0
BLOCK_RECORD
  5
248
330
1
100
AcDbSymbolTableRecord
100
AcDbBlockTableRecord
  2
SW_CENTERMARKSYMBOL_2
340
0
102
{BLKREFS
331
253
102
}
  0
BLOCK_RECORD
  5
254
330
1
100
AcDbSymbolTableRecord
100
AcDbBlockTableRecord
  2
SW_CENTERMARKSYMBOL_3
340
0
102
{BLKREFS
331
25F
102
}
  0
BLOCK_RECORD
  5
38B
330
1
100
AcDbSymbolTableRecord
100
AcDbBlockTableRecord
  2
_D_3
340
0
  0
BLOCK_RECORD
  5
396
330
1
100
AcDbSymbolTableRecord
100
AcDbBlockTableRecord
  2
_D_4
340
0
  0
BLOCK_RECORD
  5
3A0
330
1
100
AcDbSymbolTableRecord
100
AcDbBlockTableRecord
  2
_D_5
340
0
  0
BLOCK_RECORD
  5
3AA
330
1
100
AcDbSymbolTableRecord
100
AcDbBlockTableRecord
  2
_D_6
340
0
  0
BLOCK_RECORD
  5
3B5
330
1
100
AcDbSymbolTableRecord
100
AcDbBlockTableRecord
  2
_D_7
340
0
  0
BLOCK_RECORD
  5
3C0
330
1
100
AcDbSymbolTableRecord
100
AcDbBlockTableRecord
  2
_D_8
340
0
  0
BLOCK_RECORD
  5
3CA
330
1
100
AcDbSymbolTableRecord
100
AcDbBlockTableRecord
  2
_D_9
340
0
  0
BLOCK_RECORD
  5
3D4
330
1
100
AcDbSymbolTableRecord
100
AcDbBlockTableRecord
  2
_D_10
340
0
  0
ENDTAB
  0
ENDSEC
  0
SECTION
  2
BLOCKS
  0
BLOCK
  5
20
330
1F
100
AcDbEntity
  8
0
100
AcDbBlockBegin
  2
*Model_Space
 70
     0
 10
0.0
 20
0.0
 30
0.0
  3
*Model_Space
  1

  0
ENDBLK
  5
21
330
1F
100
AcDbEntity
  8
0
100
AcDbBlockEnd
  0
BLOCK
  5
1C
330
1B
100
AcDbEntity
 67
     1
  8
0
100
AcDbBlockBegin
  2
*Paper_Space
 70
     0
 10
0.0
 20
0.0
 30
0.0
  3
*Paper_Space
  1

  0
ENDBLK
  5
1D
330
1B
100
AcDbEntity
 67
     1
  8
0
100
AcDbBlockEnd
  0
BLOCK
  5
24
330
23
100
AcDbEntity
  8
0
100
AcDbBlockBegin
  2
*Paper_Space0
 70
     0
 10
0.0
 20
0.0
 30
0.0
  3
*Paper_Space0
  1

  0
ENDBLK
  5
25
330
23
100
AcDbEntity
  8
0
100
AcDbBlockEnd
  0
BLOCK
  5
76
330
75
100
AcDbEntity
  8
0
100
AcDbBlockBegin
  2
Pfeil
 70
     0
 10
0.0
 20
0.0
 30
0.0
  3
Pfeil
  1

  0
LINE
  5
78
330
75
100
AcDbEntity
  8
0
  6
SLD-Durchgehend
 62
     7
370
     0
100
AcDbLine
 10
10.77
 20
0.8
 30
0.0
 11
2.77
 21
0.8
 31
0.0
  0
LINE
  5
79
330
75
100
AcDbEntity
  8
0
  6
SLD-Durchgehend
 62
     7
370
     0
100
AcDbLine
 10
2.77
 20
0.8
 30
0.0
 11
2.77
 21
1.6
 31
0.0
  0
LINE
  5
7A
330
75
100
AcDbEntity
  8
0
  6
SLD-Durchgehend
 62
     7
370
     0
100
AcDbLine
 10
2.77
 20
1.6
 30
0.0
 11
0.0
 21
0.0
 31
0.0
  0
LINE
  5
7B
330
75
100
AcDbEntity
  8
0
  6
SLD-Durchgehend
 62
     7
370
     0
100
AcDbLine
 10
0.0
 20
0.0
 30
0.0
 11
2.77
 21
-1.6
 31
0.0
  0
LINE
  5
7C
330
75
100
AcDbEntity
  8
0
  6
SLD-Durchgehend
 62
     7
370
     0
100
AcDbLine
 10
2.77
 20
-1.6
 30
0.0
 11
2.77
 21
-0.8
 31
0.0
  0
LINE
  5
7D
330
75
100
AcDbEntity
  8
0
  6
SLD-Durchgehend
 62
     7
370
     0
100
AcDbLine
 10
2.77
 20
-0.8
 30
0.0
 11
10.77
 21
-0.8
 31
0.0
  0
LINE
  5
7E
330
75
100
AcDbEntity
  8
0
  6
SLD-Durchgehend
 62
     7
370
     0
100
AcDbLine
 10
10.77
 20
-0.8
 30
0.0
 11
10.77
 21
0.8
 31
0.0
  0
ENDBLK
  5
77
330
75
100
AcDbEntity
  8
0
100
AcDbBlockEnd
  0
BLOCK
  5
80
330
7F
100
AcDbEntity
  8
0
100
AcDbBlockBegin
  2
Text Abluft
 70
     0
 10
0.0
 20
0.0
 30
0.0
  3
Text Abluft
  1

  0
INSERT
  5
8A
330
7F
100
AcDbEntity
  8
0
  6
SLD-Durchgehend
 62
     7
370
     0
100
AcDbBlockReference
  2
SW_NOTE_0
 10
0.0438152488
 20
7.8085249423
 30
0.0
  0
ENDBLK
  5
81
330
7F
100
AcDbEntity
  8
0
100
AcDbBlockEnd
  0
BLOCK
  5
83
330
82
100
AcDbEntity
  8
0
100
AcDbBlockBegin
  2
SW_NOTE_0
 70
     0
 10
0.0
 20
0.0
 30
0.0
  3
SW_NOTE_0
  1

  0
MTEXT
  5
86
330
82
100
AcDbEntity
  8
0
  6
SLD-Durchgehend
 62
     0
370
     0
100
AcDbMText
 10
0.0
 20
3.8672032193
 30
0.0
 40
3.0
 41
0.0
 71
     1
 72
     1
  1
G 1/4
  7
SLDTEXTSTYLE0
 73
     1
 44
1.0
  0
MTEXT
  5
87
330
82
100
AcDbEntity
  8
0
  6
SLD-Durchgehend
 62
     0
370
     0
100
AcDbMText
 10
0.0
 20
-0.1327969707
 30
0.0
 40
3.0
 41
0.0
 71
     1
 72
     1
  1
Abluft
  7
SLDTEXTSTYLE0
 73
     1
 44
1.0
  0
MTEXT
  5
88
330
82
100
AcDbEntity
  8
0
  6
SLD-Durchgehend
 62
     0
370
     0
100
AcDbMText
 10
0.0
 20
-4.1327971607
 30
0.0
 40
3.0
 41
0.0
 71
     1
 72
     1
  1
Exhaust
  7
SLDTEXTSTYLE0
 73
     1
 44
1.0
  0
MTEXT
  5
89
330
82
100
AcDbEntity
  8
0
  6
SLD-Durchgehend
 62
     0
370
     0
100
AcDbMText
 10
0.0
 20
-8.1327973507
 30
0.0
 40
3.0
 41
0.0
 71
     1
 72
     1
  1
Echappement
  7
SLDTEXTSTYLE0
 73
     1
 44
1.0
  0
ENDBLK
  5
84
330
82
100
AcDbEntity
  8
0
100
AcDbBlockEnd
  0
BLOCK
  5
8C
330
8B
100
AcDbEntity
  8
0
100
AcDbBlockBegin
  2
Text Zuluft
 70
     0
 10
0.0
 20
0.0
 30
0.0
  3
Text Zuluft
  1

  0
INSERT
  5
95
330
8B
100
AcDbEntity
  8
0
  6
SLD-Durchgehend
 62
     7
370
     0
100
AcDbBlockReference
  2
SW_NOTE_1
 10
0.0
 20
7.9354514905
 30
0.0
  0
ENDBLK
  5
8D
330
8B
100
AcDbEntity
  8
0
100
AcDbBlockEnd
  0
BLOCK
  5
8F
330
8E
100
AcDbEntity
  8
0
100
AcDbBlockBegin
  2
SW_NOTE_1
 70
     0
 10
0.0
 20
0.0
 30
0.0
  3
SW_NOTE_1
  1

  0
MTEXT
  5
91
330
8E
100
AcDbEntity
  8
0
  6
SLD-Durchgehend
 62
     0
370
     0
100
AcDbMText
 10
0.0
 20
3.8672032193
 30
0.0
 40
3.0
 41
0.0
 71
     1
 72
     1
  1
G1/8
  7
SLDTEXTSTYLE0
 73
     1
 44
1.0
  0
MTEXT
  5
92
330
8E
100
AcDbEntity
  8
0
  6
SLD-Durchgehend
 62
     0
370
     0
100
AcDbMText
 10
0.0
 20
-0.1327969707
 30
0.0
 40
3.0
 41
0.0
 71
     1
 72
     1
  1
Zuluft
  7
SLDTEXTSTYLE0
 73
     1
 44
1.0
  0
MTEXT
  5
93
330
8E
100
AcDbEntity
  8
0
  6
SLD-Durchgehend
 62
     0
370
     0
100
AcDbMText
 10
0.0
 20
-4.1327971607
 30
0.0
 40
3.0
 41
0.0
 71
     1
 72
     1
  1
Air supply
  7
SLDTEXTSTYLE0
 73
     1
 44
1.0
  0
MTEXT
  5
94
330
8E
100
AcDbEntity
  8
0
  6
SLD-Durchgehend
 62
     0
370
     0
100
AcDbMText
 10
0.0
 20
-8.1327973507
 30
0.0
 40
3.0
 41
0.0
 71
     1
 72
     1
  1
Arrivée d´air
  7
SLDTEXTSTYLE0
 73
     1
 44
1.0
  0
ENDBLK
  5
90
330
8E
100
AcDbEntity
  8
0
100
AcDbBlockEnd
  0
BLOCK
  5
E5
330
E4
100
AcDbEntity
  8
0
100
AcDbBlockBegin
  2
SW_NOTE_2
 70
     0
 10
0.0
 20
0.0
 30
0.0
  3
SW_NOTE_2
  1

  0
MTEXT
  5
E7
330
E4
100
AcDbEntity
  8
0
  6
Continuous
 62
     0
370
     0
100
AcDbMText
 10
0.0
 20
2.3874608764
 30
0.0
 40
1.8520833333
 41
0.0
 71
     1
 72
     1
  1
Tel.: +49 6134 2901-0, www.
  7
SLDTEXTSTYLE0
 73
     1
 44
1.0
  0
MTEXT
  5
E9
330
E4
100
AcDbEntity
  8
0
  6
Continuous
 62
     0
370
     0
100
AcDbMText
 10
31.6226072609
 20
2.2325681125
 30
0.0
 40
1.8520833333
 41
0.0
 71
     1
 72
     1
  1
Netter
  7
SLDTEXTSTYLE1
 73
     1
 44
1.0
  0
MTEXT
  5
EB
330
E4
100
AcDbEntity
  8
0
  6
Continuous
 62
     0
370
     0
100
AcDbMText
 10
39.4425168633
 20
2.3157006648
 30
0.0
 40
1.8520833333
 41
0.0
 71
     1
 72
     1
  1
Vibration
  7
SLDTEXTSTYLE2
 73
     1
 44
1.0
  0
MTEXT
  5
EC
330
E4
100
AcDbEntity
  8
0
  6
Continuous
 62
     0
370
     0
100
AcDbMText
 10
49.1865314543
 20
2.3874608764
 30
0.0
 40
1.8520833333
 41
0.0
 71
     1
 72
     1
  1
.com
  7
SLDTEXTSTYLE0
 73
     1
 44
1.0
  0
ENDBLK
  5
E6
330
E4
100
AcDbEntity
  8
0
100
AcDbBlockEnd
  0
BLOCK
  5
F0
330
EF
100
AcDbEntity
  8
0
100
AcDbBlockBegin
  2
SW_NOTE_3
 70
     0
 10
0.0
 20
0.0
 30
0.0
  3
SW_NOTE_3
  1

  0
MTEXT
  5
F2
330
EF
100
AcDbEntity
  8
0
  6
Continuous
 62
     0
370
     0
100
AcDbMText
 10
0.0
 20
4.8649193548
 30
0.0
 40
3.96875
 41
0.0
 71
     1
 72
     1
  1
Netter
  7
SLDTEXTSTYLE1
 73
     1
 44
1.0
  0
MTEXT
  5
F3
330
EF
100
AcDbEntity
  8
0
  6
Continuous
 62
     0
370
     0
100
AcDbMText
 10
16.7569443583
 20
5.0430605384
 30
0.0
 40
3.96875
 41
0.0
 71
     1
 72
     1
  1
Vibration
  7
SLDTEXTSTYLE2
 73
     1
 44
1.0
  0
ENDBLK
  5
F1
330
EF
100
AcDbEntity
  8
0
100
AcDbBlockEnd
  0
BLOCK
  5
20F
330
20E
100
AcDbEntity
  8
0
100
AcDbBlockBegin
  2
_D
 70
     0
 10
0.0
 20
0.0
 30
0.0
  3
_D
  1

  0
SOLID
  5
211
330
20E
100
AcDbEntity
  8
0
  6
SLD-Durchgehend
 62
     7
370
     0
100
AcDbTrace
 10
72.2968235444
 20
258.3569584525
 30
0.0
 11
72.7368235444
 21
260.8569584525
 31
0.0
 12
71.8568235444
 22
260.8569584525
 32
0.0
 13
71.8568235444
 23
260.8569584525
 33
0.0
  0
SOLID
  5
212
330
20E
100
AcDbEntity
  8
0
  6
SLD-Durchgehend
 62
     7
370
     0
100
AcDbTrace
 10
72.2968235444
 20
255.3569584525
 30
0.0
 11
71.8568235444
 21
252.8569584525
 31
0.0
 12
72.7368235444
 22
252.8569584525
 32
0.0
 13
72.7368235444
 23
252.8569584525
 33
0.0
  0
LINE
  5
213
330
20E
100
AcDbEntity
  8
0
  6
SLD-Durchgehend
 62
     7
370
     0
100
AcDbLine
 10
80.8420773747
 20
258.3569584525
 30
0.0
 11
71.2968235444
 21
258.3569584525
 31
0.0
  0
LINE
  5
214
330
20E
100
AcDbEntity
  8
0
  6
SLD-Durchgehend
 62
     7
370
     0
100
AcDbLine
 10
80.8420773747
 20
255.3569584525
 30
0.0
 11
71.2968235444
 21
255.3569584525
 31
0.0
  0
LINE
  5
215
330
20E
100
AcDbEntity
  8
0
  6
SLD-Durchgehend
 62
     7
370
     0
100
AcDbLine
 10
72.2968235444
 20
258.3569584525
 30
0.0
 11
72.2968235444
 21
261.8569584525
 31
0.0
  0
LINE
  5
216
330
20E
100
AcDbEntity
  8
0
  6
SLD-Durchgehend
 62
     7
370
     0
100
AcDbLine
 10
72.2968235444
 20
258.3569584525
 30
0.0
 11
72.2968235444
 21
255.3569584525
 31
0.0
  0
LINE
  5
217
330
20E
100
AcDbEntity
  8
0
  6
SLD-Durchgehend
 62
     7
370
     0
100
AcDbLine
 10
72.2968235444
 20
255.3569584525
 30
0.0
 11
72.2968235444
 21
251.8569584525
 31
0.0
  0
MTEXT
  5
218
330
20E
100
AcDbEntity
  8
0
  6
SLD-Durchgehend
 62
     7
370
     0
100
AcDbMText
 10
68.4296204415
 20
253.5241461134
 30
0.0
 40
3.0
 41
0.0
 71
     1
 72
     1
  1
%%c
  7
SLDTEXTSTYLE0
 11
-7.044195017643634E-15
 21
1.0
 31
0.0
 73
     1
 44
1.0
  0
MTEXT
  5
219
330
20E
100
AcDbEntity
  8
0
  6
SLD-Durchgehend
 62
     7
370
     0
100
AcDbMText
 10
68.4212870835
 20
257.8981044478
 30
0.0
 40
3.0
 41
0.0
 71
     1
 72
     1
  1
3
  7
SLDTEXTSTYLE0
 11
-7.044195017643634E-15
 21
1.0
 31
0.0
 73
     1
 44
1.0
  0
ENDBLK
  5
210
330
20E
100
AcDbEntity
  8
0
100
AcDbBlockEnd
  0
BLOCK
  5
21D
330
21C
100
AcDbEntity
  8
0
100
AcDbBlockBegin
  2
_D_1
 70
     0
 10
0.0
 20
0.0
 30
0.0
  3
_D_1
  1

  0
SOLID
  5
21F
330
21C
100
AcDbEntity
  8
0
  6
SLD-Durchgehend
 62
     7
370
     0
100
AcDbTrace
 10
62.5889732798
 20
270.3569584525
 30
0.0
 11
62.1489732798
 21
267.8569584525
 31
0.0
 12
63.0289732798
 22
267.8569584525
 32
0.0
 13
63.0289732798
 23
267.8569584525
 33
0.0
  0
SOLID
  5
220
330
21C
100
AcDbEntity
  8
0
  6
SLD-Durchgehend
 62
     7
370
     0
100
AcDbTrace
 10
62.5889732798
 20
243.3569584525
 30
0.0
 11
63.0289732798
 21
245.8569584525
 31
0.0
 12
62.1489732798
 22
245.8569584525
 32
0.0
 13
62.1489732798
 23
245.8569584525
 33
0.0
  0
LINE
  5
221
330
21C
100
AcDbEntity
  8
0
  6
SLD-Durchgehend
 62
     7
370
     0
100
AcDbLine
 10
82.6768113672
 20
270.3569584525
 30
0.0
 11
61.5889732798
 21
270.3569584525
 31
0.0
  0
LINE
  5
222
330
21C
100
AcDbEntity
  8
0
  6
SLD-Durchgehend
 62
     7
370
     0
100
AcDbLine
 10
82.6768113672
 20
243.3569584525
 30
0.0
 11
61.5889732798
 21
243.3569584525
 31
0.0
  0
LINE
  5
223
330
21C
100
AcDbEntity
  8
0
  6
SLD-Durchgehend
 62
     7
370
     0
100
AcDbLine
 10
62.5889732798
 20
270.3569584525
 30
0.0
 11
62.5889732798
 21
243.3569584525
 31
0.0
  0
MTEXT
  5
224
330
21C
100
AcDbEntity
  8
0
  6
SLD-Durchgehend
 62
     7
370
     0
100
AcDbMText
 10
58.7217698276
 20
250.6736256889
 30
0.0
 40
3.0
 41
0.0
 71
     1
 72
     1
  1
SW 
  7
SLDTEXTSTYLE0
 11
-3.491481338843133E-15
 21
1.0
 31
0.0
 73
     1
 44
1.0
  0
MTEXT
  5
225
330
21C
100
AcDbEntity
  8
0
  6
SLD-Durchgehend
 62
     7
370
     0
100
AcDbMText
 10
58.7217698276
 20
258.4569589942
 30
0.0
 40
3.0
 41
0.0
 71
     1
 72
     1
  1
27
  7
SLDTEXTSTYLE0
 11
-3.491481338843133E-15
 21
1.0
 31
0.0
 73
     1
 44
1.0
  0
ENDBLK
  5
21E
330
21C
100
AcDbEntity
  8
0
100
AcDbBlockEnd
  0
BLOCK
  5
228
330
227
100
AcDbEntity
  8
0
100
AcDbBlockBegin
  2
_D_2
 70
     0
 10
0.0
 20
0.0
 30
0.0
  3
_D_2
  1

  0
SOLID
  5
22A
330
227
100
AcDbEntity
  8
0
  6
SLD-Durchgehend
 62
     7
370
     0
100
AcDbTrace
 10
81.8420773747
 20
278.2895221425
 30
0.0
 11
84.3420773747
 21
277.8495221425
 31
0.0
 12
84.3420773747
 22
278.7295221425
 32
0.0
 13
84.3420773747
 23
278.7295221425
 33
0.0
  0
SOLID
  5
22B
330
227
100
AcDbEntity
  8
0
  6
SLD-Durchgehend
 62
     7
370
     0
100
AcDbTrace
 10
99.8420773747
 20
278.2895221425
 30
0.0
 11
97.3420773747
 21
278.7295221425
 31
0.0
 12
97.3420773747
 22
277.8495221425
 32
0.0
 13
97.3420773747
 23
277.8495221425
 33
0.0
  0
LINE
  5
22C
330
227
100
AcDbEntity
  8
0
  6
SLD-Durchgehend
 62
     7
370
     0
100
AcDbLine
 10
81.8420773747
 20
260.3569584525
 30
0.0
 11
81.8420773747
 21
279.2895221425
 31
0.0
  0
LINE
  5
22D
330
227
100
AcDbEntity
  8
0
  6
SLD-Durchgehend
 62
     7
370
     0
100
AcDbLine
 10
99.8420773747
 20
260.3569584525
 30
0.0
 11
99.8420773747
 21
279.2895221425
 31
0.0
  0
LINE
  5
22E
330
227
100
AcDbEntity
  8
0
  6
SLD-Durchgehend
 62
     7
370
     0
100
AcDbLine
 10
81.8420773747
 20
278.2895221425
 30
0.0
 11
99.8420773747
 21
278.2895221425
 31
0.0
  0
MTEXT
  5
22F
330
227
100
AcDbEntity
  8
0
  6
SLD-Durchgehend
 62
     7
370
     0
100
AcDbMText
 10
88.550410798
 20
282.1567255946
 30
0.0
 40
3.0
 41
0.0
 71
     1
 72
     1
  1
18
  7
SLDTEXTSTYLE0
 73
     1
 44
1.0
  0
ENDBLK
  5
229
330
227
100
AcDbEntity
  8
0
100
AcDbBlockEnd
  0
BLOCK
  5
231
330
230
100
AcDbEntity
  8
0
100
AcDbBlockBegin
  2
SW_CENTERMARKSYMBOL_0
 70
     0
 10
0.0
 20
0.0
 30
0.0
  3
SW_CENTERMARKSYMBOL_0
  1

  0
LINE
  5
233
330
230
100
AcDbEntity
  8
0
  6
SLD-Durchgehend
 62
     0
370
     0
100
AcDbLine
 10
0.0
 20
0.0
 30
0.0
 11
0.0
 21
1.0
 31
0.0
  0
LINE
  5
234
330
230
100
AcDbEntity
  8
0
  6
SLD-Durchgehend
 62
     0
370
     0
100
AcDbLine
 10
0.0
 20
0.0
 30
0.0
 11
-1.0
 21
0.0
 31
0.0
  0
LINE
  5
235
330
230
100
AcDbEntity
  8
0
  6
SLD-Durchgehend
 62
     0
370
     0
100
AcDbLine
 10
0.0
 20
0.0
 30
0.0
 11
0.0
 21
-1.0
 31
0.0
  0
LINE
  5
236
330
230
100
AcDbEntity
  8
0
  6
SLD-Durchgehend
 62
     0
370
     0
100
AcDbLine
 10
0.0
 20
0.0
 30
0.0
 11
1.0
 21
0.0
 31
0.0
  0
LINE
  5
237
330
230
100
AcDbEntity
  8
0
  6
SLD-Durchgehend
 62
     0
370
     0
100
AcDbLine
 10
0.0
 20
2.0
 30
0.0
 11
0.0
 21
2.5
 31
0.0
  0
LINE
  5
238
330
230
100
AcDbEntity
  8
0
  6
SLD-Durchgehend
 62
     0
370
     0
100
AcDbLine
 10
-2.0
 20
0.0
 30
0.0
 11
-2.5
 21
0.0
 31
0.0
  0
LINE
  5
239
330
230
100
AcDbEntity
  8
0
  6
SLD-Durchgehend
 62
     0
370
     0
100
AcDbLine
 10
0.0
 20
-2.0
 30
0.0
 11
0.0
 21
-2.5
 31
0.0
  0
LINE
  5
23A
330
230
100
AcDbEntity
  8
0
  6
SLD-Durchgehend
 62
     0
370
     0
100
AcDbLine
 10
2.0
 20
0.0
 30
0.0
 11
2.5
 21
0.0
 31
0.0
  0
ENDBLK
  5
232
330
230
100
AcDbEntity
  8
0
100
AcDbBlockEnd
  0
BLOCK
  5
23D
330
23C
100
AcDbEntity
  8
0
100
AcDbBlockBegin
  2
SW_CENTERMARKSYMBOL_1
 70
     0
 10
0.0
 20
0.0
 30
0.0
  3
SW_CENTERMARKSYMBOL_1
  1

  0
LINE
  5
23F
330
23C
100
AcDbEntity
  8
0
  6
SLD-Durchgehend
 62
     0
370
     0
100
AcDbLine
 10
0.0
 20
0.0
 30
0.0
 11
0.0
 21
1.0
 31
0.0
  0
LINE
  5
240
330
23C
100
AcDbEntity
  8
0
  6
SLD-Durchgehend
 62
     0
370
     0
100
AcDbLine
 10
0.0
 20
0.0
 30
0.0
 11
-1.0
 21
0.0
 31
0.0
  0
LINE
  5
241
330
23C
100
AcDbEntity
  8
0
  6
SLD-Durchgehend
 62
     0
370
     0
100
AcDbLine
 10
0.0
 20
0.0
 30
0.0
 11
0.0
 21
-1.0
 31
0.0
  0
LINE
  5
242
330
23C
100
AcDbEntity
  8
0
  6
SLD-Durchgehend
 62
     0
370
     0
100
AcDbLine
 10
0.0
 20
0.0
 30
0.0
 11
1.0
 21
0.0
 31
0.0
  0
LINE
  5
243
330
23C
100
AcDbEntity
  8
0
  6
SLD-Durchgehend
 62
     0
370
     0
100
AcDbLine
 10
0.0
 20
2.0
 30
0.0
 11
0.0
 21
2.5
 31
0.0
  0
LINE
  5
244
330
23C
100
AcDbEntity
  8
0
  6
SLD-Durchgehend
 62
     0
370
     0
100
AcDbLine
 10
-2.0
 20
0.0
 30
0.0
 11
-2.5
 21
0.0
 31
0.0
  0
LINE
  5
245
330
23C
100
AcDbEntity
  8
0
  6
SLD-Durchgehend
 62
     0
370
     0
100
AcDbLine
 10
0.0
 20
-2.0
 30
0.0
 11
0.0
 21
-2.5
 31
0.0
  0
LINE
  5
246
330
23C
100
AcDbEntity
  8
0
  6
SLD-Durchgehend
 62
     0
370
     0
100
AcDbLine
 10
2.0
 20
0.0
 30
0.0
 11
2.5
 21
0.0
 31
0.0
  0
ENDBLK
  5
23E
330
23C
100
AcDbEntity
  8
0
100
AcDbBlockEnd
  0
BLOCK
  5
249
330
248
100
AcDbEntity
  8
0
100
AcDbBlockBegin
  2
SW_CENTERMARKSYMBOL_2
 70
     0
 10
0.0
 20
0.0
 30
0.0
  3
SW_CENTERMARKSYMBOL_2
  1

  0
LINE
  5
24B
330
248
100
AcDbEntity
  8
0
  6
SLD-Durchgehend
 62
     0
370
     0
100
AcDbLine
 10
0.0
 20
0.0
 30
0.0
 11
0.0
 21
1.0
 31
0.0
  0
LINE
  5
24C
330
248
100
AcDbEntity
  8
0
  6
SLD-Durchgehend
 62
     0
370
     0
100
AcDbLine
 10
0.0
 20
0.0
 30
0.0
 11
-1.0
 21
0.0
 31
0.0
  0
LINE
  5
24D
330
248
100
AcDbEntity
  8
0
  6
SLD-Durchgehend
 62
     0
370
     0
100
AcDbLine
 10
0.0
 20
0.0
 30
0.0
 11
0.0
 21
-1.0
 31
0.0
  0
LINE
  5
24E
330
248
100
AcDbEntity
  8
0
  6
SLD-Durchgehend
 62
     0
370
     0
100
AcDbLine
 10
0.0
 20
0.0
 30
0.0
 11
1.0
 21
0.0
 31
0.0
  0
LINE
  5
24F
330
248
100
AcDbEntity
  8
0
  6
SLD-Durchgehend
 62
     0
370
     0
100
AcDbLine
 10
0.0
 20
2.0
 30
0.0
 11
0.0
 21
17.75
 31
0.0
  0
LINE
  5
250
330
248
100
AcDbEntity
  8
0
  6
SLD-Durchgehend
 62
     0
370
     0
100
AcDbLine
 10
-2.0
 20
0.0
 30
0.0
 11
-17.75
 21
0.0
 31
0.0
  0
LINE
  5
251
330
248
100
AcDbEntity
  8
0
  6
SLD-Durchgehend
 62
     0
370
     0
100
AcDbLine
 10
0.0
 20
-2.0
 30
0.0
 11
0.0
 21
-17.75
 31
0.0
  0
LINE
  5
252
330
248
100
AcDbEntity
  8
0
  6
SLD-Durchgehend
 62
     0
370
     0
100
AcDbLine
 10
2.0
 20
0.0
 30
0.0
 11
17.75
 21
0.0
 31
0.0
  0
ENDBLK
  5
24A
330
248
100
AcDbEntity
  8
0
100
AcDbBlockEnd
  0
BLOCK
  5
255
330
254
100
AcDbEntity
  8
0
100
AcDbBlockBegin
  2
SW_CENTERMARKSYMBOL_3
 70
     0
 10
0.0
 20
0.0
 30
0.0
  3
SW_CENTERMARKSYMBOL_3
  1

  0
LINE
  5
257
330
254
100
AcDbEntity
  8
0
  6
SLD-Durchgehend
 62
     0
370
     0
100
AcDbLine
 10
0.0
 20
0.0
 30
0.0
 11
0.0
 21
1.0
 31
0.0
  0
LINE
  5
258
330
254
100
AcDbEntity
  8
0
  6
SLD-Durchgehend
 62
     0
370
     0
100
AcDbLine
 10
0.0
 20
0.0
 30
0.0
 11
-1.0
 21
0.0
 31
0.0
  0
LINE
  5
259
330
254
100
AcDbEntity
  8
0
  6
SLD-Durchgehend
 62
     0
370
     0
100
AcDbLine
 10
0.0
 20
0.0
 30
0.0
 11
0.0
 21
-1.0
 31
0.0
  0
LINE
  5
25A
330
254
100
AcDbEntity
  8
0
  6
SLD-Durchgehend
 62
     0
370
     0
100
AcDbLine
 10
0.0
 20
0.0
 30
0.0
 11
1.0
 21
0.0
 31
0.0
  0
LINE
  5
25B
330
254
100
AcDbEntity
  8
0
  6
SLD-Durchgehend
 62
     0
370
     0
100
AcDbLine
 10
0.0
 20
2.0
 30
0.0
 11
0.0
 21
5.25
 31
0.0
  0
LINE
  5
25C
330
254
100
AcDbEntity
  8
0
  6
SLD-Durchgehend
 62
     0
370
     0
100
AcDbLine
 10
-2.0
 20
0.0
 30
0.0
 11
-5.25
 21
0.0
 31
0.0
  0
LINE
  5
25D
330
254
100
AcDbEntity
  8
0
  6
SLD-Durchgehend
 62
     0
370
     0
100
AcDbLine
 10
0.0
 20
-2.0
 30
0.0
 11
0.0
 21
-5.25
 31
0.0
  0
LINE
  5
25E
330
254
100
AcDbEntity
  8
0
  6
SLD-Durchgehend
 62
     0
370
     0
100
AcDbLine
 10
2.0
 20
0.0
 30
0.0
 11
5.25
 21
0.0
 31
0.0
  0
ENDBLK
  5
256
330
254
100
AcDbEntity
  8
0
100
AcDbBlockEnd
  0
BLOCK
  5
38C
330
38B
100
AcDbEntity
  8
0
100
AcDbBlockBegin
  2
_D_3
 70
     0
 10
0.0
 20
0.0
 30
0.0
  3
_D_3
  1

  0
SOLID
  5
38E
330
38B
100
AcDbEntity
  8
0
  6
SLD-Durchgehend
 62
     7
370
     0
100
AcDbTrace
 10
85.8420773747
 20
102.91
 30
0.0
 11
88.3420773747
 21
102.47
 31
0.0
 12
88.3420773747
 22
103.35
 32
0.0
 13
88.3420773747
 23
103.35
 33
0.0
  0
SOLID
  5
38F
330
38B
100
AcDbEntity
  8
0
  6
SLD-Durchgehend
 62
     7
370
     0
100
AcDbTrace
 10
95.8420773747
 20
102.91
 30
0.0
 11
93.3420773747
 21
103.35
 31
0.0
 12
93.3420773747
 22
102.47
 32
0.0
 13
93.3420773747
 23
102.47
 33
0.0
  0
LINE
  5
390
330
38B
100
AcDbEntity
  8
0
  6
SLD-Durchgehend
 62
     7
370
     0
100
AcDbLine
 10
85.8420773747
 20
112.31
 30
0.0
 11
85.8420773747
 21
101.91
 31
0.0
  0
LINE
  5
391
330
38B
100
AcDbEntity
  8
0
  6
SLD-Durchgehend
 62
     7
370
     0
100
AcDbLine
 10
95.8420773747
 20
112.31
 30
0.0
 11
95.8420773747
 21
101.91
 31
0.0
  0
LINE
  5
392
330
38B
100
AcDbEntity
  8
0
  6
SLD-Durchgehend
 62
     7
370
     0
100
AcDbLine
 10
85.8420773747
 20
102.91
 30
0.0
 11
95.8420773747
 21
102.91
 31
0.0
  0
MTEXT
  5
393
330
38B
100
AcDbEntity
  8
0
  6
SLD-Durchgehend
 62
     7
370
     0
100
AcDbMText
 10
86.833744176
 20
106.7772034521
 30
0.0
 40
3.0
 41
0.0
 71
     1
 72
     1
  1
M
  7
SLDTEXTSTYLE0
 73
     1
 44
1.0
  0
MTEXT
  5
394
330
38B
100
AcDbEntity
  8
0
  6
SLD-Durchgehend
 62
     7
370
     0
100
AcDbMText
 10
90.2670774201
 20
106.7772034521
 30
0.0
 40
3.0
 41
0.0
 71
     1
 72
     1
  1
10
  7
SLDTEXTSTYLE0
 73
     1
 44
1.0
  0
ENDBLK
  5
38D
330
38B
100
AcDbEntity
  8
0
100
AcDbBlockEnd
  0
BLOCK
  5
397
330
396
100
AcDbEntity
  8
0
100
AcDbBlockBegin
  2
_D_4
 70
     0
 10
0.0
 20
0.0
 30
0.0
  3
_D_4
  1

  0
SOLID
  5
399
330
396
100
AcDbEntity
  8
0
  6
SLD-Durchgehend
 62
     7
370
     0
100
AcDbTrace
 10
120.9587412501
 20
125.91
 30
0.0
 11
120.5187412501
 21
123.41
 31
0.0
 12
121.3987412501
 22
123.41
 32
0.0
 13
121.3987412501
 23
123.41
 33
0.0
  0
SOLID
  5
39A
330
396
100
AcDbEntity
  8
0
  6
SLD-Durchgehend
 62
     7
370
     0
100
AcDbTrace
 10
120.9587412501
 20
112.91
 30
0.0
 11
121.3987412501
 21
115.41
 31
0.0
 12
120.5187412501
 22
115.41
 32
0.0
 13
120.5187412501
 23
115.41
 33
0.0
  0
LINE
  5
39B
330
396
100
AcDbEntity
  8
0
  6
SLD-Durchgehend
 62
     7
370
     0
100
AcDbLine
 10
104.5073433822
 20
125.91
 30
0.0
 11
121.9587412501
 21
125.91
 31
0.0
  0
LINE
  5
39C
330
396
100
AcDbEntity
  8
0
  6
SLD-Durchgehend
 62
     7
370
     0
100
AcDbLine
 10
111.3420773747
 20
112.91
 30
0.0
 11
121.9587412501
 21
112.91
 31
0.0
  0
LINE
  5
39D
330
396
100
AcDbEntity
  8
0
  6
SLD-Durchgehend
 62
     7
370
     0
100
AcDbLine
 10
120.9587412501
 20
125.91
 30
0.0
 11
120.9587412501
 21
112.91
 31
0.0
  0
MTEXT
  5
39E
330
396
100
AcDbEntity
  8
0
  6
SLD-Durchgehend
 62
     7
370
     0
100
AcDbMText
 10
117.0915377979
 20
117.1183334234
 30
0.0
 40
3.0
 41
0.0
 71
     1
 72
     1
  1
13
  7
SLDTEXTSTYLE0
 11
-7.044195017643634E-15
 21
1.0
 31
0.0
 73
     1
 44
1.0
  0
ENDBLK
  5
398
330
396
100
AcDbEntity
  8
0
100
AcDbBlockEnd
  0
BLOCK
  5
3A1
330
3A0
100
AcDbEntity
  8
0
100
AcDbBlockBegin
  2
_D_5
 70
     0
 10
0.0
 20
0.0
 30
0.0
  3
_D_5
  1

  0
SOLID
  5
3A3
330
3A0
100
AcDbEntity
  8
0
  6
SLD-Durchgehend
 62
     7
370
     0
100
AcDbTrace
 10
90.8420773747
 20
94.2275385574
 30
0.0
 11
93.3420773747
 21
93.7875385574
 31
0.0
 12
93.3420773747
 22
94.6675385574
 32
0.0
 13
93.3420773747
 23
94.6675385574
 33
0.0
  0
SOLID
  5
3A4
330
3A0
100
AcDbEntity
  8
0
  6
SLD-Durchgehend
 62
     7
370
     0
100
AcDbTrace
 10
110.3420773747
 20
94.2275385574
 30
0.0
 11
107.8420773747
 21
94.6675385574
 31
0.0
 12
107.8420773747
 22
93.7875385574
 32
0.0
 13
107.8420773747
 23
93.7875385574
 33
0.0
  0
LINE
  5
3A5
330
3A0
100
AcDbEntity
  8
0
  6
SLD-Durchgehend
 62
     7
370
     0
100
AcDbLine
 10
90.8420773747
 20
100.8580417633
 30
0.0
 11
90.8420773747
 21
93.2275385574
 31
0.0
  0
LINE
  5
3A6
330
3A0
100
AcDbEntity
  8
0
  6
SLD-Durchgehend
 62
     7
370
     0
100
AcDbLine
 10
110.3420773747
 20
111.91
 30
0.0
 11
110.3420773747
 21
93.2275385574
 31
0.0
  0
LINE
  5
3A7
330
3A0
100
AcDbEntity
  8
0
  6
SLD-Durchgehend
 62
     7
370
     0
100
AcDbLine
 10
90.8420773747
 20
94.2275385574
 30
0.0
 11
110.3420773747
 21
94.2275385574
 31
0.0
  0
MTEXT
  5
3A8
330
3A0
100
AcDbEntity
  8
0
  6
SLD-Durchgehend
 62
     7
370
     0
100
AcDbMText
 10
96.5816608074
 20
98.0947420095
 30
0.0
 40
3.0
 41
0.0
 71
     1
 72
     1
  1
19,5
  7
SLDTEXTSTYLE0
 73
     1
 44
1.0
  0
ENDBLK
  5
3A2
330
3A0
100
AcDbEntity
  8
0
100
AcDbBlockEnd
  0
BLOCK
  5
3AB
330
3AA
100
AcDbEntity
  8
0
100
AcDbBlockBegin
  2
_D_6
 70
     0
 10
0.0
 20
0.0
 30
0.0
  3
_D_6
  1

  0
SOLID
  5
3AD
330
3AA
100
AcDbEntity
  8
0
  6
SLD-Durchgehend
 62
     7
370
     0
100
AcDbTrace
 10
76.8420773747
 20
82.557852915
 30
0.0
 11
79.3420773747
 21
82.117852915
 31
0.0
 12
79.3420773747
 22
82.997852915
 32
0.0
 13
79.3420773747
 23
82.997852915
 33
0.0
  0
SOLID
  5
3AE
330
3AA
100
AcDbEntity
  8
0
  6
SLD-Durchgehend
 62
     7
370
     0
100
AcDbTrace
 10
110.3420773747
 20
82.557852915
 30
0.0
 11
107.8420773747
 21
82.997852915
 31
0.0
 12
107.8420773747
 22
82.117852915
 32
0.0
 13
107.8420773747
 23
82.117852915
 33
0.0
  0
LINE
  5
3AF
330
3AA
100
AcDbEntity
  8
0
  6
SLD-Durchgehend
 62
     7
370
     0
100
AcDbLine
 10
76.8420773747
 20
111.91
 30
0.0
 11
76.8420773747
 21
81.557852915
 31
0.0
  0
LINE
  5
3B0
330
3AA
100
AcDbEntity
  8
0
  6
SLD-Durchgehend
 62
     7
370
     0
100
AcDbLine
 10
110.3420773747
 20
118.41
 30
0.0
 11
110.3420773747
 21
81.557852915
 31
0.0
  0
LINE
  5
3B1
330
3AA
100
AcDbEntity
  8
0
  6
SLD-Durchgehend
 62
     7
370
     0
100
AcDbLine
 10
76.8420773747
 20
82.557852915
 30
0.0
 11
110.3420773747
 21
82.557852915
 31
0.0
  0
MTEXT
  5
3B2
330
3AA
100
AcDbEntity
  8
0
  6
SLD-Durchgehend
 62
     7
370
     0
100
AcDbMText
 10
87.3946821059
 20
86.4250560179
 30
0.0
 40
3.0
 41
0.0
 71
     1
 72
     1
  1
%%c
  7
SLDTEXTSTYLE0
 73
     1
 44
1.0
  0
MTEXT
  5
3B3
330
3AA
100
AcDbEntity
  8
0
  6
SLD-Durchgehend
 62
     7
370
     0
100
AcDbMText
 10
91.7686404402
 20
86.4333893759
 30
0.0
 40
3.0
 41
0.0
 71
     1
 72
     1
  1
33,5
  7
SLDTEXTSTYLE0
 73
     1
 44
1.0
  0
ENDBLK
  5
3AC
330
3AA
100
AcDbEntity
  8
0
100
AcDbBlockEnd
  0
BLOCK
  5
3B6
330
3B5
100
AcDbEntity
  8
0
100
AcDbBlockBegin
  2
_D_7
 70
     0
 10
0.0
 20
0.0
 30
0.0
  3
_D_7
  1

  0
SOLID
  5
3B8
330
3B5
100
AcDbEntity
  8
0
  6
SLD-Durchgehend
 62
     7
370
     0
100
AcDbTrace
 10
142.3420773747
 20
112.91
 30
0.0
 11
142.7820773747
 21
115.41
 31
0.0
 12
141.9020773747
 22
115.41
 32
0.0
 13
141.9020773747
 23
115.41
 33
0.0
  0
SOLID
  5
3B9
330
3B5
100
AcDbEntity
  8
0
  6
SLD-Durchgehend
 62
     7
370
     0
100
AcDbTrace
 10
142.3420773747
 20
148.41
 30
0.0
 11
141.9020773747
 21
145.91
 31
0.0
 12
142.7820773747
 22
145.91
 32
0.0
 13
142.7820773747
 23
145.91
 33
0.0
  0
LINE
  5
3BA
330
3B5
100
AcDbEntity
  8
0
  6
SLD-Durchgehend
 62
     7
370
     0
100
AcDbLine
 10
111.3420773747
 20
112.91
 30
0.0
 11
143.3420773747
 21
112.91
 31
0.0
  0
LINE
  5
3BB
330
3B5
100
AcDbEntity
  8
0
  6
SLD-Durchgehend
 62
     7
370
     0
100
AcDbLine
 10
114.6668321323
 20
148.41
 30
0.0
 11
143.3420773747
 21
148.41
 31
0.0
  0
LINE
  5
3BC
330
3B5
100
AcDbEntity
  8
0
  6
SLD-Durchgehend
 62
     7
370
     0
100
AcDbLine
 10
142.3420773747
 20
112.91
 30
0.0
 11
142.3420773747
 21
148.41
 31
0.0
  0
MTEXT
  5
3BD
330
3B5
100
AcDbEntity
  8
0
  6
SLD-Durchgehend
 62
     7
370
     0
100
AcDbMText
 10
138.4748739225
 20
126.6495834327
 30
0.0
 40
3.0
 41
0.0
 71
     1
 72
     1
  1
35,5
  7
SLDTEXTSTYLE0
 11
6.123233995736766E-17
 21
1.0
 31
0.0
 73
     1
 44
1.0
  0
ENDBLK
  5
3B7
330
3B5
100
AcDbEntity
  8
0
100
AcDbBlockEnd
  0
BLOCK
  5
3C1
330
3C0
100
AcDbEntity
  8
0
100
AcDbBlockBegin
  2
_D_8
 70
     0
 10
0.0
 20
0.0
 30
0.0
  3
_D_8
  1

  0
SOLID
  5
3C3
330
3C0
100
AcDbEntity
  8
0
  6
SLD-Durchgehend
 62
     7
370
     0
100
AcDbTrace
 10
59.8420773747
 20
112.91
 30
0.0
 11
60.2820773747
 21
115.41
 31
0.0
 12
59.4020773747
 22
115.41
 32
0.0
 13
59.4020773747
 23
115.41
 33
0.0
  0
SOLID
  5
3C4
330
3C0
100
AcDbEntity
  8
0
  6
SLD-Durchgehend
 62
     7
370
     0
100
AcDbTrace
 10
59.8420773747
 20
185.81
 30
0.0
 11
59.4020773747
 21
183.31
 31
0.0
 12
60.2820773747
 22
183.31
 32
0.0
 13
60.2820773747
 23
183.31
 33
0.0
  0
LINE
  5
3C5
330
3C0
100
AcDbEntity
  8
0
  6
SLD-Durchgehend
 62
     7
370
     0
100
AcDbLine
 10
75.8420773747
 20
112.91
 30
0.0
 11
58.8420773747
 21
112.91
 31
0.0
  0
LINE
  5
3C6
330
3C0
100
AcDbEntity
  8
0
  6
SLD-Durchgehend
 62
     7
370
     0
100
AcDbLine
 10
78.0920773747
 20
185.81
 30
0.0
 11
58.8420773747
 21
185.81
 31
0.0
  0
LINE
  5
3C7
330
3C0
100
AcDbEntity
  8
0
  6
SLD-Durchgehend
 62
     7
370
     0
100
AcDbLine
 10
59.8420773747
 20
112.91
 30
0.0
 11
59.8420773747
 21
185.81
 31
0.0
  0
MTEXT
  5
3C8
330
3C0
100
AcDbEntity
  8
0
  6
SLD-Durchgehend
 62
     7
370
     0
100
AcDbMText
 10
55.9748739225
 20
147.0683334234
 30
0.0
 40
3.0
 41
0.0
 71
     1
 72
     1
  1
73
  7
SLDTEXTSTYLE0
 11
6.123233995736766E-17
 21
1.0
 31
0.0
 73
     1
 44
1.0
  0
ENDBLK
  5
3C2
330
3C0
100
AcDbEntity
  8
0
100
AcDbBlockEnd
  0
BLOCK
  5
3CB
330
3CA
100
AcDbEntity
  8
0
100
AcDbBlockBegin
  2
_D_9
 70
     0
 10
0.0
 20
0.0
 30
0.0
  3
_D_9
  1

  0
SOLID
  5
3CD
330
3CA
100
AcDbEntity
  8
0
  6
SLD-Durchgehend
 62
     7
370
     0
100
AcDbTrace
 10
48.5935110397
 20
112.91
 30
0.0
 11
49.0335110397
 21
115.41
 31
0.0
 12
48.1535110397
 22
115.41
 32
0.0
 13
48.1535110397
 23
115.41
 33
0.0
  0
SOLID
  5
3CE
330
3CA
100
AcDbEntity
  8
0
  6
SLD-Durchgehend
 62
     7
370
     0
100
AcDbTrace
 10
48.5935110397
 20
220.81
 30
0.0
 11
48.1535110397
 21
218.31
 31
0.0
 12
49.0335110397
 22
218.31
 32
0.0
 13
49.0335110397
 23
218.31
 33
0.0
  0
LINE
  5
3CF
330
3CA
100
AcDbEntity
  8
0
  6
SLD-Durchgehend
 62
     7
370
     0
100
AcDbLine
 10
75.8420773747
 20
112.91
 30
0.0
 11
47.5935110397
 21
112.91
 31
0.0
  0
LINE
  5
3D0
330
3CA
100
AcDbEntity
  8
0
  6
SLD-Durchgehend
 62
     7
370
     0
100
AcDbLine
 10
86.5920773747
 20
220.81
 30
0.0
 11
47.5935110397
 21
220.81
 31
0.0
  0
LINE
  5
3D1
330
3CA
100
AcDbEntity
  8
0
  6
SLD-Durchgehend
 62
     7
370
     0
100
AcDbLine
 10
48.5935110397
 20
112.91
 30
0.0
 11
48.5935110397
 21
220.81
 31
0.0
  0
MTEXT
  5
3D2
330
3CA
100
AcDbEntity
  8
0
  6
SLD-Durchgehend
 62
     7
370
     0
100
AcDbMText
 10
44.7263075876
 20
163.4225000186
 30
0.0
 40
3.0
 41
0.0
 71
     1
 72
     1
  1
108
  7
SLDTEXTSTYLE0
 11
6.123233995736766E-17
 21
1.0
 31
0.0
 73
     1
 44
1.0
  0
ENDBLK
  5
3CC
330
3CA
100
AcDbEntity
  8
0
100
AcDbBlockEnd
  0
BLOCK
  5
3D5
330
3D4
100
AcDbEntity
  8
0
100
AcDbBlockBegin
  2
_D_10
 70
     0
 10
0.0
 20
0.0
 30
0.0
  3
_D_10
  1

  0
SOLID
  5
3D7
330
3D4
100
AcDbEntity
  8
0
  6
SLD-Durchgehend
 62
     7
370
     0
100
AcDbTrace
 10
69.9480699193
 20
123.31
 30
0.0
 11
69.5080699193
 21
120.81
 31
0.0
 12
70.3880699193
 22
120.81
 32
0.0
 13
70.3880699193
 23
120.81
 33
0.0
  0
SOLID
  5
3D8
330
3D4
100
AcDbEntity
  8
0
  6
SLD-Durchgehend
 62
     7
370
     0
100
AcDbTrace
 10
69.9480699193
 20
112.91
 30
0.0
 11
70.3880699193
 21
115.41
 31
0.0
 12
69.5080699193
 22
115.41
 32
0.0
 13
69.5080699193
 23
115.41
 33
0.0
  0
LINE
  5
3D9
330
3D4
100
AcDbEntity
  8
0
  6
SLD-Durchgehend
 62
     7
370
     0
100
AcDbLine
 10
84.8420773747
 20
123.31
 30
0.0
 11
68.9480699193
 21
123.31
 31
0.0
  0
LINE
  5
3DA
330
3D4
100
AcDbEntity
  8
0
  6
SLD-Durchgehend
 62
     7
370
     0
100
AcDbLine
 10
77.4420773747
 20
112.91
 30
0.0
 11
68.9480699193
 21
112.91
 31
0.0
  0
LINE
  5
3DB
330
3D4
100
AcDbEntity
  8
0
  6
SLD-Durchgehend
 62
     7
370
     0
100
AcDbLine
 10
69.9480699193
 20
123.31
 30
0.0
 11
69.9480699193
 21
112.91
 31
0.0
  0
MTEXT
  5
3DC
330
3D4
100
AcDbEntity
  8
0
  6
SLD-Durchgehend
 62
     7
370
     0
100
AcDbMText
 10
66.0808664672
 20
115.8183334234
 30
0.0
 40
3.0
 41
0.0
 71
     1
 72
     1
  1
10
  7
SLDTEXTSTYLE0
 11
-7.044195017643634E-15
 21
1.0
 31
0.0
 73
     1
 44
1.0
  0
ENDBLK
  5
3D6
330
3D4
100
AcDbEntity
  8
0
100
AcDbBlockEnd
  0
ENDSEC
  0
SECTION
  2
ENTITIES
  0
HATCH
  5
96
330
1F
100
AcDbEntity
  8
0
  6
Continuous
 62
    52
100
AcDbHatch
 10
0.0
 20
0.0
 30
0.0
210
0.0
220
0.0
230
1.0
  2
SOLID
 70
     1
 71
     0
 91
        1
 92
        0
 93
        6
 72
     2
 10
192.2166905884209
 20
22.19368183392314
 40
9.336383935046273
 50
28.83743273930616
 51
198.8193368338524
 73
     1
 72
     1
 10
183.3794255903912
 20
19.18190290159951
 11
183.7816097341537
 21
19.18190290159951
 72
     1
 10
183.7816097341537
 20
19.18190290159951
 11
185.8103449730125
 21
26.54854125382066
 72
     1
 10
185.8103449730125
 20
26.54854125382066
 11
187.6133250240623
 21
26.54854125382066
 72
     2
 10
193.3341692458887
 20
24.54038196427235
 40
6.063065424568993
 50
199.342348098532
 51
339.1651749394908
 73
     0
 72
     1
 10
199.0007687940603
 20
26.69686333522488
 11
200.3952859047893
 21
26.69686333522488
 97
        0
 75
     0
 76
     1
 98
        1
 10
0.0
 20
0.0
  0
HATCH
  5
97
330
1F
100
AcDbEntity
  8
0
  6
Continuous
 62
     7
100
AcDbHatch
 10
0.0
 20
0.0
 30
0.0
210
0.0
220
0.0
230
1.0
  2
SOLID
 70
     1
 71
     0
 91
        2
 92
        0
 93
        6
 72
     1
 10
185.9093832949075
 20
26.41854125382066
 11
187.7062226385283
 21
26.41854125382066
 72
     2
 10
193.3341692458887
 20
24.54038196427235
 40
5.933065424568984
 50
198.4548941224165
 51
340.0282228512785
 73
     0
 72
     1
 10
198.9104259280544
 20
26.56686333522488
 11
200.6123864120185
 21
26.56686333522488
 72
     2
 10
192.2166905884209
 20
22.19368183392314
 40
9.466383935046263
 50
27.51427472226149
 51
199.3834076115144
 73
     1
 72
     1
 10
183.2868725641771
 20
19.05190290159951
 11
183.8806480560487
 21
19.05190290159951
 72
     1
 10
183.8806480560487
 20
19.05190290159951
 11
185.9093832949075
 21
26.41854125382066
 97
        0
 92
        0
 93
        6
 72
     1
 10
183.7816097341537
 20
19.18190290159951
 11
183.3794255903912
 21
19.18190290159951
 72
     2
 10
192.2166905884209
 20
22.19368183392314
 40
9.336383935046273
 50
161.1806631661484
 51
331.1625672606947
 73
     0
 72
     1
 10
200.3952859047893
 20
26.69686333522488
 11
199.0007687940603
 21
26.69686333522488
 72
     2
 10
193.3341692458887
 20
24.54038196427235
 40
6.063065424568993
 50
20.83482506051003
 51
160.6576519014688
 73
     1
 72
     1
 10
187.6133250240623
 20
26.54854125382066
 11
185.8103449730125
 21
26.54854125382066
 72
     1
 10
185.8103449730125
 20
26.54854125382066
 11
183.7816097341537
 21
19.18190290159951
 97
        0
 75
     0
 76
     1
 98
        1
 10
0.0
 20
0.0
  0
HATCH
  5
98
330
1F
100
AcDbEntity
  8
0
  6
Continuous
 62
     7
100
AcDbHatch
 10
0.0
 20
0.0
 30
0.0
210
0.0
220
0.0
230
1.0
  2
SOLID
 70
     1
 71
     0
 91
        2
 92
        0
 93
        3
 72
     1
 10
188.1360432780339
 20
21.32616695171929
 11
187.5549013500252
 21
19.05190290159951
 72
     1
 10
187.5549013500252
 20
19.05190290159951
 11
189.0761880166766
 21
19.05190290159951
 72
     1
 10
189.0761880166766
 20
19.05190290159951
 11
188.1360432780339
 21
21.32616695171929
 97
        0
 92
        0
 93
        3
 72
     1
 10
188.8817783160102
 20
19.18190290159951
 11
187.7222972997866
 21
19.18190290159951
 72
     1
 10
187.7222972997866
 20
19.18190290159951
 11
188.1652269908361
 21
20.91528165906799
 72
     1
 10
188.1652269908361
 20
20.91528165906799
 11
188.8817783160102
 21
19.18190290159951
 97
        0
 75
     0
 76
     1
 98
        1
 10
0.0
 20
0.0
  0
HATCH
  5
99
330
1F
100
AcDbEntity
  8
0
  6
Continuous
 62
    52
100
AcDbHatch
 10
0.0
 20
0.0
 30
0.0
210
0.0
220
0.0
230
1.0
  2
SOLID
 70
     1
 71
     0
 91
        1
 92
        0
 93
        3
 72
     1
 10
188.1652269908361
 20
20.91528165906799
 11
187.7222972997866
 21
19.18190290159951
 72
     1
 10
187.7222972997866
 20
19.18190290159951
 11
188.8817783160102
 21
19.18190290159951
 72
     1
 10
188.8817783160102
 20
19.18190290159951
 11
188.1652269908361
 21
20.91528165906799
 97
        0
 75
     0
 76
     1
 98
        1
 10
0.0
 20
0.0
  0
HATCH
  5
9A
330
1F
100
AcDbEntity
  8
0
  6
Continuous
 62
     7
100
AcDbHatch
 10
0.0
 20
0.0
 30
0.0
210
0.0
220
0.0
230
1.0
  2
SOLID
 70
     1
 71
     0
 91
        1
 92
        0
 93
       10
 72
     1
 10
186.2557525416791
 20
26.17133921476775
 11
184.4249433061573
 21
19.10134359540109
 72
     1
 10
184.4249433061573
 20
19.10134359540109
 11
186.9979725360538
 21
19.10134359540109
 72
     1
 10
186.9979725360538
 20
19.10134359540109
 11
187.9875987755306
 21
22.90826414852663
 72
     1
 10
187.9875987755306
 20
22.90826414852663
 11
189.5215202651155
 21
19.1013435954011
 72
     1
 10
189.5215202651155
 20
19.1013435954011
 11
192.1935124966802
 21
19.1013435954011
 72
     1
 10
192.1935124966802
 20
19.1013435954011
 11
193.8758772296986
 21
26.07245782716463
 72
     1
 10
193.8758772296986
 20
26.07245782716463
 11
191.4512925023056
 21
26.07245782716463
 72
     1
 10
191.4512925023056
 20
26.07245782716463
 11
190.5606280054267
 21
22.16665660141341
 72
     1
 10
190.5606280054267
 20
22.16665660141341
 11
188.8782632724091
 21
26.17133921476775
 72
     1
 10
188.8782632724091
 20
26.17133921476775
 11
186.2557525416791
 21
26.17133921476775
 97
        0
 75
     0
 76
     1
 98
        1
 10
0.0
 20
0.0
  0
HATCH
  5
9B
330
1F
100
AcDbEntity
  8
0
  6
Continuous
 62
     7
100
AcDbHatch
 10
0.0
 20
0.0
 30
0.0
210
0.0
220
0.0
230
1.0
  2
SOLID
 70
     1
 71
     0
 91
        1
 92
        0
 93
        8
 72
     1
 10
194.469653980641
 20
26.1218985209666
 11
193.7274339862659
 21
23.25434757518244
 72
     1
 10
193.7274339862659
 20
23.25434757518244
 11
194.1727662347047
 21
19.00246292277559
 72
     1
 10
194.1727662347047
 20
19.00246292277559
 11
197.3395709564733
 21
19.00246292277558
 72
     1
 10
197.3395709564733
 20
19.00246292277558
 11
201.5454846776287
 21
26.07245782718087
 72
     1
 10
201.5454846776287
 20
26.07245782718087
 11
198.7745294443889
 21
26.07245782718087
 72
     1
 10
198.7745294443889
 20
26.07245782718087
 11
196.5478694612618
 21
22.06777521384519
 72
     1
 10
196.5478694612618
 20
22.06777521384519
 11
196.0530569710605
 21
26.1218985209666
 72
     1
 10
196.0530569710605
 20
26.1218985209666
 11
194.469653980641
 21
26.1218985209666
 97
        0
 75
     0
 76
     1
 98
        1
 10
0.0
 20
0.0
  0
HATCH
  5
9C
330
1F
100
AcDbEntity
  8
0
  6
Continuous
 62
     7
100
AcDbHatch
 10
0.0
 20
0.0
 30
0.0
210
0.0
220
0.0
230
1.0
  2
SOLID
 70
     1
 71
     0
 91
        2
 92
        0
 93
        3
 72
     2
 10
193.6015949770801
 20
21.88049322517952
 40
8.003675602344133
 50
339.3038849228831
 51
377.0191257258724
 73
     1
 72
     1
 10
201.2547664701381
 20
24.22309631691353
 11
198.0323094500141
 21
19.05190290159951
 72
     1
 10
198.0323094500141
 20
19.05190290159951
 11
201.088777352908
 21
19.05190290159951
 97
        0
 92
        0
 93
        3
 72
     1
 10
198.2664948845861
 20
19.18190290159951
 11
201.2102984795193
 21
23.90593107979706
 72
     2
 10
193.6015949770801
 20
21.88049322517952
 40
7.873675602344147
 50
345.0935417050616
 51
380.0436402959712
 73
     0
 72
     1
 10
200.9983765580401
 20
19.18190290159951
 11
198.2664948845861
 21
19.18190290159951
 97
        0
 75
     0
 76
     1
 98
        1
 10
0.0
 20
0.0
  0
HATCH
  5
9D
330
1F
100
AcDbEntity
  8
0
  6
Continuous
 62
    52
100
AcDbHatch
 10
0.0
 20
0.0
 30
0.0
210
0.0
220
0.0
230
1.0
  2
SOLID
 70
     1
 71
     0
 91
        1
 92
        0
 93
        3
 72
     2
 10
193.6015949770801
 20
21.88049322517952
 40
7.873675602344147
 50
339.9563597040304
 51
374.90645829494
 73
     1
 72
     1
 10
201.2102984795193
 20
23.90593107979706
 11
198.2664948845861
 21
19.18190290159951
 72
     1
 10
198.2664948845861
 20
19.18190290159951
 11
200.9983765580401
 21
19.18190290159951
 97
        0
 75
     0
 76
     1
 98
        1
 10
0.0
 20
0.0
  0
LINE
  5
9E
330
1F
100
AcDbEntity
  8
0
  6
SLD-Durchgehend
 62
     7
370
     0
100
AcDbLine
 10
17.0
 20
148.5
 30
0.0
 11
0.0
 21
148.5
 31
0.0
  0
LINE
  5
9F
330
1F
100
AcDbEntity
  8
0
  6
SLD-Durchgehend
 62
     7
370
     0
100
AcDbLine
 10
17.0
 20
292.0
 30
0.0
 11
205.0
 21
292.0
 31
0.0
  0
LINE
  5
A0
330
1F
100
AcDbEntity
  8
0
  6
SLD-Durchgehend
 62
     7
370
     0
100
AcDbLine
 10
17.0
 20
292.0
 30
0.0
 11
17.0
 21
5.0
 31
0.0
  0
LINE
  5
A1
330
1F
100
AcDbEntity
  8
0
  6
SLD-Durchgehend
 62
     7
370
     0
100
AcDbLine
 10
17.0
 20
5.0
 30
0.0
 11
205.0
 21
5.0
 31
0.0
  0
LINE
  5
A2
330
1F
100
AcDbEntity
  8
0
  6
SLD-Durchgehend
 62
     7
370
     0
100
AcDbLine
 10
205.0
 20
292.0
 30
0.0
 11
205.0
 21
5.0
 31
0.0
  0
LINE
  5
A3
330
1F
100
AcDbEntity
  8
0
  6
SLD-Durchgehend
 62
     7
370
     0
100
AcDbLine
 10
17.0
 20
40.0
 30
0.0
 11
17.0
 21
5.0
 31
0.0
  0
LINE
  5
A4
330
1F
100
AcDbEntity
  8
0
  6
SLD-Durchgehend
 62
     7
370
     0
100
AcDbLine
 10
17.0
 20
5.0
 30
0.0
 11
205.0
 21
5.0
 31
0.0
  0
LINE
  5
A5
330
1F
100
AcDbEntity
  8
0
  6
SLD-Durchgehend
 62
     7
370
     0
100
AcDbLine
 10
205.0
 20
40.0
 30
0.0
 11
205.0
 21
5.0
 31
0.0
  0
LINE
  5
A6
330
1F
100
AcDbEntity
  8
0
  6
SLD-Durchgehend
 62
     7
370
     0
100
AcDbLine
 10
17.0
 20
40.0
 30
0.0
 11
205.0
 21
40.0
 31
0.0
  0
LINE
  5
A7
330
1F
100
AcDbEntity
  8
0
  6
SLD-Durchgehend
 62
     7
370
     0
100
AcDbLine
 10
140.0
 20
40.0
 30
0.0
 11
140.0
 21
5.0
 31
0.0
  0
LINE
  5
A8
330
1F
100
AcDbEntity
  8
0
  6
SLD-Durchgehend
 62
     7
370
     0
100
AcDbLine
 10
69.0
 20
40.0
 30
0.0
 11
69.0
 21
5.0
 31
0.0
  0
LINE
  5
A9
330
1F
100
AcDbEntity
  8
0
  6
SLD-Durchgehend
 62
     7
370
     0
100
AcDbLine
 10
17.0
 20
45.5
 30
0.0
 11
17.0
 21
37.5
 31
0.0
  0
LINE
  5
AA
330
1F
100
AcDbEntity
  8
0
  6
SLD-Durchgehend
 62
     7
370
     0
100
AcDbLine
 10
17.0
 20
19.5
 30
0.0
 11
69.0
 21
19.5
 31
0.0
  0
LINE
  5
AB
330
1F
100
AcDbEntity
  8
0
  6
SLD-Durchgehend
 62
     7
370
     0
100
AcDbLine
 10
205.0
 20
45.5
 30
0.0
 11
205.0
 21
37.5
 31
0.0
  0
LINE
  5
AC
330
1F
100
AcDbEntity
  8
0
  6
SLD-Durchgehend
 62
     7
370
     0
100
AcDbLine
 10
17.0
 20
12.25
 30
0.0
 11
69.0
 21
12.25
 31
0.0
  0
LINE
  5
AD
330
1F
100
AcDbEntity
  8
0
  6
SLD-Durchgehend
 62
     7
370
     0
100
AcDbLine
 10
0.0
 20
0.0
 30
0.0
 11
210.0
 21
0.0
 31
0.0
  0
LINE
  5
AE
330
1F
100
AcDbEntity
  8
0
  6
SLD-Durchgehend
 62
     7
370
     0
100
AcDbLine
 10
0.0
 20
0.0
 30
0.0
 11
0.0
 21
297.0
 31
0.0
  0
LINE
  5
AF
330
1F
100
AcDbEntity
  8
0
  6
SLD-Durchgehend
 62
     7
370
     0
100
AcDbLine
 10
0.0
 20
297.0
 30
0.0
 11
210.0
 21
297.0
 31
0.0
  0
LINE
  5
B0
330
1F
100
AcDbEntity
  8
0
  6
SLD-Durchgehend
 62
     7
370
     0
100
AcDbLine
 10
210.0
 20
0.0
 30
0.0
 11
210.0
 21
297.0
 31
0.0
  0
LINE
  5
B1
330
1F
100
AcDbEntity
  8
0
  6
SLD-Durchgehend
 62
     7
370
     0
100
AcDbLine
 10
183.2868725642
 20
19.0519029016
 30
0.0
 11
183.880648056
 21
19.0519029016
 31
0.0
  0
LINE
  5
B2
330
1F
100
AcDbEntity
  8
0
  6
SLD-Durchgehend
 62
     7
370
     0
100
AcDbLine
 10
183.880648056
 20
19.0519029016
 30
0.0
 11
185.9093832949
 21
26.4185412538
 31
0.0
  0
LINE
  5
B3
330
1F
100
AcDbEntity
  8
0
  6
SLD-Durchgehend
 62
     7
370
     0
100
AcDbLine
 10
185.9093832949
 20
26.4185412538
 30
0.0
 11
187.7062226385
 21
26.4185412538
 31
0.0
  0
LINE
  5
B4
330
1F
100
AcDbEntity
  8
0
  6
SLD-Durchgehend
 62
     7
370
     0
100
AcDbLine
 10
198.9104259281
 20
26.5668633352
 30
0.0
 11
200.612386412
 21
26.5668633352
 31
0.0
  0
LINE
  5
B5
330
1F
100
AcDbEntity
  8
0
  6
SLD-Durchgehend
 62
     7
370
     0
100
AcDbLine
 10
186.2557525417
 20
26.1713392148
 30
0.0
 11
188.8782632724
 21
26.1713392148
 31
0.0
  0
LINE
  5
B6
330
1F
100
AcDbEntity
  8
0
  6
SLD-Durchgehend
 62
     7
370
     0
100
AcDbLine
 10
188.8782632724
 20
26.1713392148
 30
0.0
 11
190.5606280054
 21
22.1666566014
 31
0.0
  0
LINE
  5
B7
330
1F
100
AcDbEntity
  8
0
  6
SLD-Durchgehend
 62
     7
370
     0
100
AcDbLine
 10
190.5606280054
 20
22.1666566014
 30
0.0
 11
191.4512925023
 21
26.0724578272
 31
0.0
  0
LINE
  5
B8
330
1F
100
AcDbEntity
  8
0
  6
SLD-Durchgehend
 62
     7
370
     0
100
AcDbLine
 10
191.4512925023
 20
26.0724578272
 30
0.0
 11
193.8758772297
 21
26.0724578272
 31
0.0
  0
LINE
  5
B9
330
1F
100
AcDbEntity
  8
0
  6
SLD-Durchgehend
 62
     7
370
     0
100
AcDbLine
 10
193.8758772297
 20
26.0724578272
 30
0.0
 11
192.1935124967
 21
19.1013435954
 31
0.0
  0
LINE
  5
BA
330
1F
100
AcDbEntity
  8
0
  6
SLD-Durchgehend
 62
     7
370
     0
100
AcDbLine
 10
192.1935124967
 20
19.1013435954
 30
0.0
 11
189.5215202651
 21
19.1013435954
 31
0.0
  0
LINE
  5
BB
330
1F
100
AcDbEntity
  8
0
  6
SLD-Durchgehend
 62
     7
370
     0
100
AcDbLine
 10
189.5215202651
 20
19.1013435954
 30
0.0
 11
187.9875987755
 21
22.9082641485
 31
0.0
  0
LINE
  5
BC
330
1F
100
AcDbEntity
  8
0
  6
SLD-Durchgehend
 62
     7
370
     0
100
AcDbLine
 10
187.9875987755
 20
22.9082641485
 30
0.0
 11
186.9979725361
 21
19.1013435954
 31
0.0
  0
LINE
  5
BD
330
1F
100
AcDbEntity
  8
0
  6
SLD-Durchgehend
 62
     7
370
     0
100
AcDbLine
 10
186.9979725361
 20
19.1013435954
 30
0.0
 11
184.4249433062
 21
19.1013435954
 31
0.0
  0
LINE
  5
BE
330
1F
100
AcDbEntity
  8
0
  6
SLD-Durchgehend
 62
     7
370
     0
100
AcDbLine
 10
184.4249433062
 20
19.1013435954
 30
0.0
 11
186.2557525417
 21
26.1713392148
 31
0.0
  0
LINE
  5
BF
330
1F
100
AcDbEntity
  8
0
  6
SLD-Durchgehend
 62
     7
370
     0
100
AcDbLine
 10
188.136043278
 20
21.3261669517
 30
0.0
 11
189.0761880167
 21
19.0519029016
 31
0.0
  0
LINE
  5
C0
330
1F
100
AcDbEntity
  8
0
  6
SLD-Durchgehend
 62
     7
370
     0
100
AcDbLine
 10
189.0761880167
 20
19.0519029016
 30
0.0
 11
187.55490135
 21
19.0519029016
 31
0.0
  0
LINE
  5
C1
330
1F
100
AcDbEntity
  8
0
  6
SLD-Durchgehend
 62
     7
370
     0
100
AcDbLine
 10
187.55490135
 20
19.0519029016
 30
0.0
 11
188.136043278
 21
21.3261669517
 31
0.0
  0
LINE
  5
C2
330
1F
100
AcDbEntity
  8
0
  6
SLD-Durchgehend
 62
     7
370
     0
100
AcDbLine
 10
194.4696539806
 20
26.121898521
 30
0.0
 11
196.0530569711
 21
26.121898521
 31
0.0
  0
LINE
  5
C3
330
1F
100
AcDbEntity
  8
0
  6
SLD-Durchgehend
 62
     7
370
     0
100
AcDbLine
 10
196.0530569711
 20
26.121898521
 30
0.0
 11
196.5478694613
 21
22.0677752138
 31
0.0
  0
LINE
  5
C4
330
1F
100
AcDbEntity
  8
0
  6
SLD-Durchgehend
 62
     7
370
     0
100
AcDbLine
 10
196.5478694613
 20
22.0677752138
 30
0.0
 11
198.7745294444
 21
26.0724578272
 31
0.0
  0
LINE
  5
C5
330
1F
100
AcDbEntity
  8
0
  6
SLD-Durchgehend
 62
     7
370
     0
100
AcDbLine
 10
198.7745294444
 20
26.0724578272
 30
0.0
 11
201.5454846776
 21
26.0724578272
 31
0.0
  0
LINE
  5
C6
330
1F
100
AcDbEntity
  8
0
  6
SLD-Durchgehend
 62
     7
370
     0
100
AcDbLine
 10
201.5454846776
 20
26.0724578272
 30
0.0
 11
197.3395709565
 21
19.0024629228
 31
0.0
  0
LINE
  5
C7
330
1F
100
AcDbEntity
  8
0
  6
SLD-Durchgehend
 62
     7
370
     0
100
AcDbLine
 10
197.3395709565
 20
19.0024629228
 30
0.0
 11
194.1727662347
 21
19.0024629228
 31
0.0
  0
LINE
  5
C8
330
1F
100
AcDbEntity
  8
0
  6
SLD-Durchgehend
 62
     7
370
     0
100
AcDbLine
 10
194.1727662347
 20
19.0024629228
 30
0.0
 11
193.7274339863
 21
23.2543475752
 31
0.0
  0
LINE
  5
C9
330
1F
100
AcDbEntity
  8
0
  6
SLD-Durchgehend
 62
     7
370
     0
100
AcDbLine
 10
193.7274339863
 20
23.2543475752
 30
0.0
 11
194.4696539806
 21
26.121898521
 31
0.0
  0
LINE
  5
CA
330
1F
100
AcDbEntity
  8
0
  6
SLD-Durchgehend
 62
     7
370
     0
100
AcDbLine
 10
198.03230945
 20
19.0519029016
 30
0.0
 11
201.2547664701
 21
24.2230963169
 31
0.0
  0
LINE
  5
CB
330
1F
100
AcDbEntity
  8
0
  6
SLD-Durchgehend
 62
     7
370
     0
100
AcDbLine
 10
198.03230945
 20
19.0519029016
 30
0.0
 11
201.0887773529
 21
19.0519029016
 31
0.0
  0
LINE
  5
CC
330
1F
100
AcDbEntity
  8
0
  6
SLD-Durchgehend
 62
     7
370
     0
100
AcDbLine
 10
198.2664948846
 20
19.1819029016
 30
0.0
 11
200.998376558
 21
19.1819029016
 31
0.0
  0
LINE
  5
CD
330
1F
100
AcDbEntity
  8
0
  6
SLD-Durchgehend
 62
     7
370
     0
100
AcDbLine
 10
198.2664948846
 20
19.1819029016
 30
0.0
 11
201.2102984795
 21
23.9059310798
 31
0.0
  0
LINE
  5
CE
330
1F
100
AcDbEntity
  8
0
  6
SLD-Durchgehend
 62
     7
370
     0
100
AcDbLine
 10
199.0007687941
 20
26.6968633352
 30
0.0
 11
200.3952859048
 21
26.6968633352
 31
0.0
  0
LINE
  5
CF
330
1F
100
AcDbEntity
  8
0
  6
SLD-Durchgehend
 62
     7
370
     0
100
AcDbLine
 10
183.3794255904
 20
19.1819029016
 30
0.0
 11
183.7816097342
 21
19.1819029016
 31
0.0
  0
LINE
  5
D0
330
1F
100
AcDbEntity
  8
0
  6
SLD-Durchgehend
 62
     7
370
     0
100
AcDbLine
 10
183.7816097342
 20
19.1819029016
 30
0.0
 11
185.810344973
 21
26.5485412538
 31
0.0
  0
LINE
  5
D1
330
1F
100
AcDbEntity
  8
0
  6
SLD-Durchgehend
 62
     7
370
     0
100
AcDbLine
 10
185.810344973
 20
26.5485412538
 30
0.0
 11
187.6133250241
 21
26.5485412538
 31
0.0
  0
LINE
  5
D2
330
1F
100
AcDbEntity
  8
0
  6
SLD-Durchgehend
 62
     7
370
     0
100
AcDbLine
 10
188.1652269908
 20
20.9152816591
 30
0.0
 11
188.881778316
 21
19.1819029016
 31
0.0
  0
LINE
  5
D3
330
1F
100
AcDbEntity
  8
0
  6
SLD-Durchgehend
 62
     7
370
     0
100
AcDbLine
 10
188.881778316
 20
19.1819029016
 30
0.0
 11
187.7222972998
 21
19.1819029016
 31
0.0
  0
LINE
  5
D4
330
1F
100
AcDbEntity
  8
0
  6
SLD-Durchgehend
 62
     7
370
     0
100
AcDbLine
 10
187.7222972998
 20
19.1819029016
 30
0.0
 11
188.1652269908
 21
20.9152816591
 31
0.0
  0
LINE
  5
D5
330
1F
100
AcDbEntity
  8
0
  6
SLD-Durchgehend
 62
     7
370
     0
100
AcDbLine
 10
17.0
 20
26.75
 30
0.0
 11
69.0
 21
26.75
 31
0.0
  0
CIRCLE
  5
D6
330
1F
100
AcDbEntity
  8
0
  6
SLD-Durchgehend
 62
     7
370
     0
100
AcDbCircle
 10
10.0
 20
188.5
 30
0.0
 40
3.000000000000003
  0
CIRCLE
  5
D7
330
1F
100
AcDbEntity
  8
0
  6
SLD-Durchgehend
 62
     7
370
     0
100
AcDbCircle
 10
10.0
 20
108.5
 30
0.0
 40
3.000000000000003
  0
ARC
  5
D8
330
1F
100
AcDbEntity
  8
0
  6
SLD-Durchgehend
 62
     7
370
     0
100
AcDbCircle
 10
192.2166905884
 20
22.1936818339
 30
0.0
 40
9.466383935046267
100
AcDbArc
 50
27.5142747223
 51
199.3834076115
  0
ARC
  5
D9
330
1F
100
AcDbEntity
  8
0
  6
SLD-Durchgehend
 62
     7
370
     0
100
AcDbCircle
 10
193.3341692459
 20
24.5403819643
 30
0.0
 40
5.933065424569019
100
AcDbArc
 50
19.9717771487
 51
161.5451058776
  0
ARC
  5
DA
330
1F
100
AcDbEntity
  8
0
  6
SLD-Durchgehend
 62
     7
370
     0
100
AcDbCircle
 10
193.6015949771
 20
21.8804932252
 30
0.0
 40
8.003675602344138
100
AcDbArc
 50
339.3038849229
 51
17.0191257259
  0
CIRCLE
  5
DB
330
1F
100
AcDbEntity
  8
0
  6
SLD-Durchgehend
 62
     7
370
     0
100
AcDbCircle
 10
202.3866676737
 20
25.5286123403
 30
0.0
 40
0.6921638106894162
  0
ARC
  5
DC
330
1F
100
AcDbEntity
  8
0
  6
SLD-Durchgehend
 62
     7
370
     0
100
AcDbCircle
 10
193.6015949771
 20
21.8804932252
 30
0.0
 40
7.873675602344139
100
AcDbArc
 50
339.956359704
 51
14.9064582949
  0
ARC
  5
DD
330
1F
100
AcDbEntity
  8
0
  6
SLD-Durchgehend
 62
     7
370
     0
100
AcDbCircle
 10
193.3341692459
 20
24.5403819643
 30
0.0
 40
6.063065424569016
100
AcDbArc
 50
20.8348250605
 51
160.6576519015
  0
ARC
  5
DE
330
1F
100
AcDbEntity
  8
0
  6
SLD-Durchgehend
 62
     7
370
     0
100
AcDbCircle
 10
192.2166905884
 20
22.1936818339
 30
0.0
 40
9.336383935046278
100
AcDbArc
 50
28.8374327393
 51
198.8193368339
  0
INSERT
  5
DF
330
1F
100
AcDbEntity
  8
0
  6
Continuous
 62
     7
100
AcDbBlockReference
  2
Pfeil
 10
145.3542214741
 20
149.0505491436
 30
0.0
  0
INSERT
  5
E0
330
1F
100
AcDbEntity
  8
0
  6
Continuous
 62
     7
100
AcDbBlockReference
  2
Pfeil
 10
94.0342857143
 20
236.3164285714
 30
0.0
 50
270.0
  0
MTEXT
  5
E1
330
1F
100
AcDbEntity
  8
0
  6
Continuous
 62
     7
370
     0
100
AcDbMText
 10
30.333368457
 20
8.977587849
 30
0.0
 40
3.0
 41
0.0
 71
     1
 72
     1
  1
01918600
  7
SLDTEXTSTYLE0
 73
     1
 44
1.0
  0
MTEXT
  5
E2
330
1F
100
AcDbEntity
  8
0
  6
Continuous
 62
     7
370
     0
100
AcDbMText
 10
72.5042038186
 20
12.4849420031
 30
0.0
 40
4.0
 41
0.0
 71
     1
 72
     1
  1
Vibrateur pneum.à piston
  7
SLDTEXTSTYLE0
 73
     1
 44
1.0
  0
MTEXT
  5
E3
330
1F
100
AcDbEntity
  8
0
  6
Continuous
 62
     7
370
     0
100
AcDbMText
 10
18.5009192524
 20
11.6424354296
 30
0.0
 40
2.0
 41
0.0
 71
     1
 72
     1
  1
Bestell Nr.: / Part no.: / No d`article:
  7
SLDTEXTSTYLE0
 73
     1
 44
1.0
  0
INSERT
  5
ED
330
1F
100
AcDbEntity
  8
0
  6
Continuous
 62
     7
370
     0
100
AcDbBlockReference
  2
SW_NOTE_2
 10
142.2177413053
 20
12.0976931256
 30
0.0
  0
MTEXT
  5
EE
330
1F
100
AcDbEntity
  8
0
  6
Continuous
 62
     7
370
     0
100
AcDbMText
 10
142.2177413053
 20
17.8281708005
 30
0.0
 40
1.8520833333
 41
0.0
 71
     1
 72
     1
  1
Fritz-Lenges-Straße 3,  55252 Mainz-Kastel
  7
SLDTEXTSTYLE0
 73
     1
 44
1.0
  0
INSERT
  5
F4
330
1F
100
AcDbEntity
  8
0
  6
Continuous
 62
     7
370
     0
100
AcDbBlockReference
  2
SW_NOTE_3
 10
142.2177413053
 20
18.0066254519
 30
0.0
  0
MTEXT
  5
F5
330
1F
100
AcDbEntity
  8
0
  6
Continuous
 62
     7
370
     0
100
AcDbMText
 10
202.0748866834
 20
25.8708309295
 30
0.0
 40
0.65
 41
0.0
 71
     1
 72
     1
  1
R
  7
SLDTEXTSTYLE0
 73
     1
 44
1.0
  0
MTEXT
  5
F6
330
1F
100
AcDbEntity
  8
0
  6
Continuous
 62
     7
370
     0
100
AcDbMText
 10
72.5042038186
 20
19.4879186679
 30
0.0
 40
4.0
 41
0.0
 71
     1
 72
     1
  1
Pneumatic linear vibrator
  7
SLDTEXTSTYLE0
 73
     1
 44
1.0
  0
MTEXT
  5
F7
330
1F
100
AcDbEntity
  8
0
  6
Continuous
 62
     7
370
     0
100
AcDbMText
 10
72.5042038186
 20
26.495794101
 30
0.0
 40
4.0
 41
0.0
 71
     1
 72
     1
  1
Druckluft-Kolbenvibrator
  7
SLDTEXTSTYLE0
 73
     1
 44
1.0
  0
MTEXT
  5
F9
330
1F
100
AcDbEntity
  8
0
  6
Continuous
 62
     7
370
     0
100
AcDbMText
 10
72.5042038186
 20
35.9994003142
 30
0.0
 40
4.0
 41
0.0
 71
     1
 72
     1
  1
NTS 180 HF
  7
SLDTEXTSTYLE3
 73
     1
 44
1.0
  0
MTEXT
  5
FA
330
1F
100
AcDbEntity
  8
0
  6
Continuous
 62
     7
370
     0
100
AcDbMText
 10
18.5009192524
 20
18.9862304695
 30
0.0
 40
2.0
 41
0.0
 71
     1
 72
     1
  1
Angebot Nr.: / Quotation no.: / Offre no.:
  7
SLDTEXTSTYLE0
 73
     1
 44
1.0
  0
MTEXT
  5
FB
330
1F
100
AcDbEntity
  8
0
  6
Continuous
 62
     7
370
     0
100
AcDbMText
 10
20.29574253
 20
30.6803055821
 30
0.0
 40
2.5
 41
0.0
 71
     1
 72
     1
  1
tous droits réservés
  7
SLDTEXTSTYLE0
 73
     1
 44
1.0
  0
MTEXT
  5
FC
330
1F
100
AcDbEntity
  8
0
  6
Continuous
 62
     7
370
     0
100
AcDbMText
 10
20.29574253
 20
34.503298427
 30
0.0
 40
2.5
 41
0.0
 71
     1
 72
     1
  1
all rights reserved
  7
SLDTEXTSTYLE0
 73
     1
 44
1.0
  0
MTEXT
  5
FD
330
1F
100
AcDbEntity
  8
0
  6
Continuous
 62
     7
370
     0
100
AcDbMText
 10
20.29574253
 20
38.5651106905
 30
0.0
 40
2.5
 41
0.0
 71
     1
 72
     1
  1
alle Schutzrechte vorbehalten
  7
SLDTEXTSTYLE0
 73
     1
 44
1.0
  0
MTEXT
  5
FE
330
1F
100
AcDbEntity
  8
0
  6
Continuous
 62
     7
370
     0
100
AcDbMText
 10
18.5009192524
 20
26.1817224987
 30
0.0
 40
2.0
 41
0.0
 71
     1
 72
     1
  1
Datum: / Date: / Date:
  7
SLDTEXTSTYLE0
 73
     1
 44
1.0
  0
MTEXT
  5
FF
330
1F
100
AcDbEntity
  8
0
  6
Continuous
 62
     7
370
     0
100
AcDbMText
 10
30.333368457
 20
23.5036712568
 30
0.0
 40
3.0
 41
0.0
 71
     1
 72
     1
  1
17.01.22
  7
SLDTEXTSTYLE0
 73
     1
 44
1.0
  0
LINE
  5
100
330
1F
100
AcDbEntity
  8
0
  6
SLD-Durchgehend
 62
     7
370
    15
100
AcDbLine
 10
174.3824926679
 20
74.2041122485
 30
0.0
 11
174.3361882636
 21
74.2170638762
 31
0.0
  0
SPLINE
  5
101
330
1F
100
AcDbEntity
  8
0
  6
SLD-Durchgehend
 62
     7
370
    15
100
AcDbSpline
210
0.0
220
0.0
230
1.0
 70
     8
 71
     3
 72
    17
 73
    13
 74
     0
 42
0.000000001
 43
0.00000001
 40
0.0
 40
0.0
 40
0.0
 40
0.0
 40
0.0295478837375996
 40
0.1472115332366481
 40
0.2647181296381454
 40
0.3836613531903199
 40
0.5047865322837181
 40
0.627582543531279
 40
0.7511486730032594
 40
0.8748049082560433
 40
0.9917506081400154
 40
1.0
 40
1.0
 40
1.0
 40
1.0
 10
176.27574923585
 20
72.45524630161074
 30
0.0
 10
176.2787459416402
 20
72.47702230158202
 30
0.0
 10
176.2936759331737
 20
72.58551326398066
 30
0.0
 10
176.2554657289392
 20
72.78195457018485
 30
0.0
 10
176.160747263876
 20
73.03559671544818
 30
0.0
 10
175.9998558341849
 20
73.27820636427049
 30
0.0
 10
175.7810733914193
 20
73.50694527621799
 30
0.0
 10
175.5050890753932
 20
73.71819835853633
 30
0.0
 10
175.1774867643506
 20
73.90784973056478
 30
0.0
 10
174.8108341027961
 20
74.06865316146327
 30
0.0
 10
174.536416782696
 20
74.16124877577172
 30
0.0
 10
174.3920080881464
 20
74.20146247553633
 30
0.0
 10
174.3824926679113
 20
74.2041122484857
 30
0.0
  0
SPLINE
  5
102
330
1F
100
AcDbEntity
  8
0
  6
SLD-Durchgehend
 62
     7
370
    15
100
AcDbSpline
210
0.0
220
0.0
230
1.0
 70
     8
 71
     3
 72
    20
 73
    16
 74
     0
 42
0.000000001
 43
0.00000001
 40
0.0
 40
0.0
 40
0.0
 40
0.0
 40
0.0027768466957444
 40
0.0881523156070474
 40
0.1735499564247601
 40
0.2590050616581636
 40
0.3445622100912917
 40
0.4302680967769815
 40
0.5161678207763818
 40
0.6022889401737226
 40
0.6885981989054878
 40
0.7748117587996101
 40
0.8603314951550577
 40
0.9444097165321822
 40
1.0
 40
1.0
 40
1.0
 40
1.0
 10
172.7158205913869
 20
74.42749005934817
 30
0.0
 10
172.7106132600823
 20
74.42769130169066
 30
0.0
 10
172.5453040576191
 20
74.43407983531603
 30
0.0
 10
172.2178793827196
 20
74.41550008808733
 30
0.0
 10
171.7442913473446
 20
74.36922792294041
 30
0.0
 10
171.2869087682951
 20
74.28613257321882
 30
0.0
 10
170.8542176060886
 20
74.17249628732769
 30
0.0
 10
170.4536304775728
 20
74.02863455554359
 30
0.0
 10
170.0922163660256
 20
73.85691922858834
 30
0.0
 10
169.7763698855513
 20
73.65951758284902
 30
0.0
 10
169.5124771718787
 20
73.43908134790836
 30
0.0
 10
169.305491437393
 20
73.19889800181487
 30
0.0
 10
169.1641431222469
 20
72.94352764124196
 30
0.0
 10
169.088777064738
 20
72.70741748961291
 30
0.0
 10
169.0901033204497
 20
72.55833588220389
 30
0.0
 10
169.0906311912896
 20
72.49899903439481
 30
0.0
  0
SPLINE
  5
103
330
1F
100
AcDbEntity
  8
0
  6
SLD-Durchgehend
 62
     7
370
    15
100
AcDbSpline
210
0.0
220
0.0
230
1.0
 70
     8
 71
     3
 72
    11
 73
     7
 74
     0
 42
0.000000001
 43
0.00000001
 40
0.0
 40
0.0
 40
0.0
 40
0.0
 40
0.1507213845579587
 40
0.4370766714923111
 40
0.7232783394130149
 40
1.0
 40
1.0
 40
1.0
 40
1.0
 10
174.3361882635937
 20
74.2170638762368
 30
0.0
 10
174.2602328675261
 20
74.23665118666337
 30
0.0
 10
174.0399699513348
 20
74.29345239287468
 30
0.0
 10
173.655053158554
 20
74.36314130744827
 30
0.0
 10
173.1874300486542
 20
74.41671209749819
 30
0.0
 10
172.8712488424436
 20
74.4239379682387
 30
0.0
 10
172.7158205913869
 20
74.42749005934817
 30
0.0
  0
LINE
  5
104
330
1F
100
AcDbEntity
  8
0
  6
SLD-Durchgehend
 62
     7
370
    15
100
AcDbLine
 10
176.2833431493
 20
72.4521551757
 30
0.0
 11
176.2833431493
 21
72.5093006297
 31
0.0
  0
LINE
  5
105
330
1F
100
AcDbEntity
  8
0
  6
SLD-Durchgehend
 62
     7
370
    15
100
AcDbLine
 10
169.0833434698
 20
72.509300495
 30
0.0
 11
169.0833434698
 21
72.4521550409
 31
0.0
  0
LINE
  5
106
330
1F
100
AcDbEntity
  8
0
  6
SLD-Durchgehend
 62
     7
370
    15
100
AcDbLine
 10
170.9789250681
 20
70.758817348
 30
0.0
 11
171.0304961591
 21
70.744391327
 31
0.0
  0
SPLINE
  5
107
330
1F
100
AcDbEntity
  8
0
  6
SLD-Durchgehend
 62
     7
370
    15
100
AcDbSpline
210
0.0
220
0.0
230
1.0
 70
     8
 71
     3
 72
    16
 73
    12
 74
     0
 42
0.000000001
 43
0.00000001
 40
0.0
 40
0.0
 40
0.0
 40
0.0
 40
0.0525584809681754
 40
0.1833413434164606
 40
0.3157223634568805
 40
0.4505323947415296
 40
0.587202030582886
 40
0.7247294579980169
 40
0.8623558201468674
 40
0.9925141678172245
 40
1.0
 40
1.0
 40
1.0
 40
1.0
 10
169.1044085888594
 20
72.28523108185462
 30
0.0
 10
169.1080401456177
 20
72.25034548223877
 30
0.0
 10
169.1207082152136
 20
72.12865298691473
 30
0.0
 10
169.2093359958952
 20
71.92600069483461
 30
0.0
 10
169.3658953886606
 20
71.68321077517102
 30
0.0
 10
169.5858665624177
 20
71.45452129272712
 30
0.0
 10
169.8615277178309
 20
71.24325606260714
 30
0.0
 10
170.1892117538378
 20
71.05360180890213
 30
0.0
 10
170.5558680283627
 20
70.89282331408047
 30
0.0
 10
170.8285405654001
 20
70.80072622459767
 30
0.0
 10
170.9711682083888
 20
70.76097901544628
 30
0.0
 10
170.9789250681498
 20
70.75881734803865
 30
0.0
  0
SPLINE
  5
108
330
1F
100
AcDbEntity
  8
0
  6
SLD-Durchgehend
 62
     7
370
    15
100
AcDbSpline
210
0.0
220
0.0
230
1.0
 70
     8
 71
     3
 72
    15
 73
    11
 74
     0
 42
0.000000001
 43
0.00000001
 40
0.0
 40
0.0
 40
0.0
 40
0.0
 40
0.046706535948289
 40
0.1993118091321754
 40
0.3523103111801357
 40
0.5056431865501826
 40
0.6588059866697495
 40
0.8107363354772746
 40
0.960105491279494
 40
1.0
 40
1.0
 40
1.0
 40
1.0
 10
174.7836007192247
 20
70.89329827831723
 30
0.0
 10
174.8248392000926
 20
70.90766607421125
 30
0.0
 10
175.0008170597381
 20
70.96897807979545
 30
0.0
 10
175.2727716380303
 20
71.10584146118863
 30
0.0
 10
175.5908007296078
 20
71.30158471901139
 30
0.0
 10
175.8539652483777
 20
71.52247567014547
 30
0.0
 10
176.0616788330776
 20
71.76250771820106
 30
0.0
 10
176.2008788383996
 20
72.01802615314163
 30
0.0
 10
176.2710002449722
 20
72.21906755869317
 30
0.0
 10
176.2722056272815
 20
72.33266032467863
 30
0.0
 10
176.2724597074039
 20
72.35660431627691
 30
0.0
  0
SPLINE
  5
109
330
1F
100
AcDbEntity
  8
0
  6
SLD-Durchgehend
 62
     7
370
    15
100
AcDbSpline
210
0.0
220
0.0
230
1.0
 70
     8
 71
     3
 72
    10
 73
     6
 74
     0
 42
0.000000001
 43
0.00000001
 40
0.0
 40
0.0
 40
0.0
 40
0.0
 40
0.278942518560176
 40
0.9320468053810478
 40
1.0
 40
1.0
 40
1.0
 40
1.0
 10
171.0737367384268
 20
70.73364211264737
 30
0.0
 10
171.1354917348183
 20
70.71798710115446
 30
0.0
 10
171.3418372837151
 20
70.66567810385467
 30
0.0
 10
171.5731485357553
 20
70.61794075067426
 30
0.0
 10
171.747070023881
 20
70.5994363377358
 30
0.0
 10
171.7634605628258
 20
70.59769246293234
 30
0.0
  0
LINE
  5
10A
330
1F
100
AcDbEntity
  8
0
  6
SLD-Durchgehend
 62
     7
370
    15
100
AcDbLine
 10
171.0304961591
 20
70.744391327
 30
0.0
 11
171.0737367384
 21
70.7336421126
 31
0.0
  0
SPLINE
  5
10B
330
1F
100
AcDbEntity
  8
0
  6
SLD-Durchgehend
 62
     7
370
    15
100
AcDbSpline
210
0.0
220
0.0
230
1.0
 70
     8
 71
     3
 72
    12
 73
     8
 74
     0
 42
0.000000001
 43
0.00000001
 40
0.0
 40
0.0
 40
0.0
 40
0.0
 40
0.1971363229636766
 40
0.4109945429236383
 40
0.6252818871385933
 40
0.8424878397558917
 40
1.0
 40
1.0
 40
1.0
 40
1.0
 10
170.4732383289415
 20
71.66110092824414
 30
0.0
 10
170.396663030051
 20
71.71266038492317
 30
0.0
 10
170.237017006966
 20
71.82015277908279
 30
0.0
 10
170.0613900860717
 20
72.00050734702933
 30
0.0
 10
169.9371425598112
 20
72.19101500154657
 30
0.0
 10
169.8720419072723
 20
72.36517600470665
 30
0.0
 10
169.8732539394742
 20
72.4750340929474
 30
0.0
 10
169.8737634152744
 20
72.52121276487482
 30
0.0
  0
SPLINE
  5
10C
330
1F
100
AcDbEntity
  8
0
  6
SLD-Durchgehend
 62
     7
370
    15
100
AcDbSpline
210
0.0
220
0.0
230
1.0
 70
     8
 71
     3
 72
    11
 73
     7
 74
     0
 42
0.000000001
 43
0.00000001
 40
0.0
 40
0.0
 40
0.0
 40
0.0
 40
0.1727899171910786
 40
0.4622506580666038
 40
0.7415518613439689
 40
1.0
 40
1.0
 40
1.0
 40
1.0
 10
175.4770990275638
 20
72.3730886089349
 30
0.0
 10
175.469656002448
 20
72.33303690091083
 30
0.0
 10
175.4497442893473
 20
72.22588985962626
 30
0.0
 10
175.3445689925426
 20
72.0527303192105
 30
0.0
 10
175.1788701120311
 20
71.86271072176451
 30
0.0
 10
175.0219254528865
 20
71.74951125325492
 30
0.0
 10
174.9464961555077
 20
71.69510636671805
 30
0.0
  0
LINE
  5
10D
330
1F
100
AcDbEntity
  8
0
  6
SLD-Durchgehend
 62
     7
370
    15
100
AcDbLine
 10
169.6347081319
 20
71.4273181024
 30
0.0
 11
169.6649108605
 21
71.1170376514
 31
0.0
  0
LINE
  5
10E
330
1F
100
AcDbEntity
  8
0
  6
SLD-Durchgehend
 62
     7
370
    15
100
AcDbLine
 10
175.7017736257
 20
71.1170375814
 30
0.0
 11
175.7324163849
 21
71.4318337286
 31
0.0
  0
LINE
  5
10F
330
1F
100
AcDbEntity
  8
0
  6
SLD-Durchgehend
 62
     7
370
    15
100
AcDbLine
 10
188.3904241448
 20
69.7142352472
 30
0.0
 11
179.8691745428
 21
72.0301283007
 31
0.0
  0
LINE
  5
110
330
1F
100
AcDbEntity
  8
0
  6
SLD-Durchgehend
 62
     7
370
    15
100
AcDbLine
 10
174.0468870066
 20
50.60722002
 30
0.0
 11
182.5681366086
 21
48.2913269664
 31
0.0
  0
LINE
  5
111
330
1F
100
AcDbEntity
  8
0
  6
SLD-Durchgehend
 62
     7
370
    15
100
AcDbLine
 10
137.0066619736
 20
78.9123804704
 30
0.0
 11
133.7637933485
 21
79.7937226764
 31
0.0
  0
LINE
  5
112
330
1F
100
AcDbEntity
  8
0
  6
SLD-Durchgehend
 62
     7
370
    15
100
AcDbLine
 10
141.7235593957
 20
77.6304288219
 30
0.0
 11
138.1858841326
 21
78.5918931552
 31
0.0
  0
LINE
  5
113
330
1F
100
AcDbEntity
  8
0
  6
SLD-Durchgehend
 62
     7
370
    15
100
AcDbLine
 10
146.4404524248
 20
76.3484783674
 30
0.0
 11
142.9027815547
 21
77.3099415068
 31
0.0
  0
LINE
  5
114
330
1F
100
AcDbEntity
  8
0
  6
SLD-Durchgehend
 62
     7
370
    15
100
AcDbLine
 10
149.1532630286
 20
75.6111945738
 30
0.0
 11
147.6196789768
 21
76.0279898583
 31
0.0
  0
LINE
  5
115
330
1F
100
AcDbEntity
  8
0
  6
SLD-Durchgehend
 62
     7
370
    15
100
AcDbLine
 10
130.3543459376
 20
67.2487767788
 30
0.0
 11
145.7438156177
 21
63.0662486762
 31
0.0
  0
SPLINE
  5
116
330
1F
100
AcDbEntity
  8
0
  6
SLD-Durchgehend
 62
     7
370
    15
100
AcDbSpline
210
0.0
220
0.0
230
1.0
 70
     8
 71
     3
 72
    29
 73
    25
 74
     0
 42
0.000000001
 43
0.00000001
 40
0.0
 40
0.0
 40
0.0
 40
0.0
 40
0.0209135144022743
 40
0.0631187520659855
 40
0.1057283062992538
 40
0.1497634879702846
 40
0.1955742855506081
 40
0.242778420860599
 40
0.2906608438586928
 40
0.3386223791636424
 40
0.3864076124482916
 40
0.4339827593710175
 40
0.4813702462434475
 40
0.5286067365543607
 40
0.5757283474653213
 40
0.6227666803647077
 40
0.6697487111301387
 40
0.7166978518398807
 40
0.7636352430230363
 40
0.8105790352375025
 40
0.8575449847999411
 40
0.9045547137980641
 40
0.9516323950059029
 40
1.0
 40
1.0
 40
1.0
 40
1.0
 10
133.7360070431928
 20
79.79244482621678
 30
0.0
 10
133.689602837867
 20
79.80575648664475
 30
0.0
 10
133.5495510285707
 20
79.84593220163833
 30
0.0
 10
133.3006738787043
 20
79.84438106786565
 30
0.0
 10
132.9985950093409
 20
79.79347184072283
 30
0.0
 10
132.6897745100271
 20
79.67847205400841
 30
0.0
 10
132.3746624420871
 20
79.50245857030606
 30
0.0
 10
132.0550142074476
 20
79.26358485979095
 30
0.0
 10
131.7352555996942
 20
78.96446505943702
 30
0.0
 10
131.4199647499366
 20
78.60969013664935
 30
0.0
 10
131.1127842146841
 20
78.20464987197207
 30
0.0
 10
130.81637729992
 20
77.75429767088754
 30
0.0
 10
130.5329590829652
 20
77.26333763958463
 30
0.0
 10
130.2647038486733
 20
76.73660214014804
 30
0.0
 10
130.013799513631
 20
76.17916228711005
 30
0.0
 10
129.7823550232718
 20
75.59637726489434
 30
0.0
 10
129.5724205092871
 20
74.99385028177939
 30
0.0
 10
129.3859138690659
 20
74.37739628089003
 30
0.0
 10
129.2245770198134
 20
73.75296203121525
 30
0.0
 10
129.0900165508405
 20
73.12665351894363
 30
0.0
 10
128.983383873664
 20
72.50433307539191
 30
0.0
 10
128.9065619057011
 20
71.89265162334019
 30
0.0
 10
128.8571623595601
 20
71.28975104394101
 30
0.0
 10
128.850937312604
 20
70.90649501107086
 30
0.0
 10
128.8477827239992
 20
70.71227718065597
 30
0.0
  0
SPLINE
  5
117
330
1F
100
AcDbEntity
  8
0
  6
SLD-Durchgehend
 62
     7
370
    15
100
AcDbSpline
210
0.0
220
0.0
230
1.0
 70
     8
 71
     3
 72
    18
 73
    14
 74
     0
 42
0.000000001
 43
0.00000001
 40
0.0
 40
0.0
 40
0.0
 40
0.0
 40
0.0535112836781765
 40
0.1557850902054896
 40
0.2584368536210064
 40
0.3616071390891332
 40
0.4653615927358972
 40
0.5696285644021155
 40
0.673726104863795
 40
0.7761065662769423
 40
0.8748737078967131
 40
0.9693241976166044
 40
1.0
 40
1.0
 40
1.0
 40
1.0
 10
128.8477827239992
 20
70.71227718065597
 30
0.0
 10
128.8486512192918
 20
70.61495224842425
 30
0.0
 10
128.8511796321463
 20
70.33161437452554
 30
0.0
 10
128.8794671737631
 20
69.88482740280493
 30
0.0
 10
128.9434763368972
 20
69.3870484898035
 30
0.0
 10
129.0404062923912
 20
68.92794913757308
 30
0.0
 10
129.1704847386469
 20
68.51108068923999
 30
0.0
 10
129.3347401878336
 20
68.14098008856588
 30
0.0
 10
129.5336937464384
 20
67.82383625914349
 30
0.0
 10
129.7656210084369
 20
67.56474379709286
 30
0.0
 10
130.0272750011138
 20
67.37642211359868
 30
0.0
 10
130.2460077297411
 20
67.26914715336508
 30
0.0
 10
130.3782726512193
 20
67.24751902972197
 30
0.0
 10
130.4106985508869
 20
67.24221670648001
 30
0.0
  0
LINE
  5
118
330
1F
100
AcDbEntity
  8
0
  6
SLD-Durchgehend
 62
     7
370
    15
100
AcDbLine
 10
128.8883575466
 20
76.4566553942
 30
0.0
 11
127.8105707236
 21
71.9760332394
 31
0.0
  0
ARC
  5
119
330
1F
100
AcDbEntity
  8
0
  6
SLD-Durchgehend
 62
     7
370
    15
100
AcDbCircle
 10
129.2124474305
 20
76.378697494
 30
0.0
 40
0.3333333333333327
100
AcDbArc
 50
134.305033619
 51
166.4747984159
  0
LINE
  5
11A
330
1F
100
AcDbEntity
  8
0
  6
SLD-Durchgehend
 62
     7
370
    15
100
AcDbLine
 10
131.1351945575
 20
78.7211473589
 30
0.0
 11
128.9796209114
 21
76.6172413981
 31
0.0
  0
ARC
  5
11B
330
1F
100
AcDbEntity
  8
0
  6
SLD-Durchgehend
 62
     7
370
    15
100
AcDbCircle
 10
128.1346605968
 20
71.8980753004
 30
0.0
 40
0.3333333333333391
100
AcDbArc
 50
166.4747984159
 51
204.3932128691
  0
LINE
  5
11C
330
1F
100
AcDbEntity
  8
0
  6
SLD-Durchgehend
 62
     7
370
    15
100
AcDbLine
 10
127.8310836728
 20
71.7604095999
 30
0.0
 11
128.9088704958
 21
69.3836934225
 31
0.0
  0
LINE
  5
11D
330
1F
100
AcDbEntity
  8
0
  6
SLD-Durchgehend
 62
     7
370
    15
100
AcDbLine
 10
131.5733496205
 20
78.7722241545
 30
0.0
 11
131.45544278
 21
78.8042687073
 31
0.0
  0
ARC
  5
11E
330
1F
100
AcDbEntity
  8
0
  6
SLD-Durchgehend
 62
     7
370
    15
100
AcDbCircle
 10
131.3680210979
 20
78.4826034756
 30
0.0
 40
0.3333333333333429
100
AcDbArc
 50
74.7954868413
 51
134.305033619
  0
ARC
  5
11F
330
1F
100
AcDbEntity
  8
0
  6
SLD-Durchgehend
 62
     7
370
    15
100
AcDbCircle
 10
129.2124474305
 20
69.5213590884
 30
0.0
 40
0.333333333333338
100
AcDbArc
 50
204.3932128691
 51
221.6016488985
  0
LINE
  5
120
330
1F
100
AcDbEntity
  8
0
  6
SLD-Durchgehend
 62
     7
370
    15
100
AcDbLine
 10
165.9423331772
 20
75.8842302416
 30
0.0
 11
154.1500896219
 21
79.0891093627
 31
0.0
  0
LINE
  5
121
330
1F
100
AcDbEntity
  8
0
  6
SLD-Durchgehend
 62
     7
370
    15
100
AcDbLine
 10
148.2928335311
 20
57.5375350382
 30
0.0
 11
160.0850770864
 21
54.332655917
 31
0.0
  0
LINE
  5
122
330
1F
100
AcDbEntity
  8
0
  6
SLD-Durchgehend
 62
     7
370
    15
100
AcDbLine
 10
151.97483863
 20
78.5197988685
 30
0.0
 11
151.340251994
 21
78.0706999809
 31
0.0
  0
LINE
  5
123
330
1F
100
AcDbEntity
  8
0
  6
SLD-Durchgehend
 62
     7
370
    15
100
AcDbLine
 10
146.3850222745
 20
59.8381005789
 30
0.0
 11
146.7049910896
 21
59.1295738201
 31
0.0
  0
LINE
  5
124
330
1F
100
AcDbEntity
  8
0
  6
SLD-Durchgehend
 62
     7
370
    15
100
AcDbLine
 10
196.5431998218
 20
67.5675703849
 30
0.0
 11
188.8782426091
 21
69.6507415151
 31
0.0
  0
LINE
  5
125
330
1F
100
AcDbEntity
  8
0
  6
SLD-Durchgehend
 62
     7
370
    15
100
AcDbLine
 10
179.7392555011
 20
72.1345223863
 30
0.0
 11
176.0884935644
 21
73.1267212543
 31
0.0
  0
LINE
  5
126
330
1F
100
AcDbEntity
  8
0
  6
SLD-Durchgehend
 62
     7
370
    15
100
AcDbLine
 10
171.6220427477
 20
74.3406068818
 30
0.0
 11
166.0602553931
 21
75.8521815101
 31
0.0
  0
LINE
  5
127
330
1F
100
AcDbEntity
  8
0
  6
SLD-Durchgehend
 62
     7
370
    15
100
AcDbLine
 10
160.2029993023
 20
54.3006071855
 30
0.0
 11
173.8819994103
 21
50.5829480617
 31
0.0
  0
LINE
  5
128
330
1F
100
AcDbEntity
  8
0
  6
SLD-Durchgehend
 62
     7
370
    15
100
AcDbLine
 10
183.0209865182
 20
48.0991671906
 30
0.0
 11
190.6859437309
 21
46.0159960603
 31
0.0
  0
LINE
  5
129
330
1F
100
AcDbEntity
  8
0
  6
SLD-Durchgehend
 62
     7
370
    15
100
AcDbLine
 10
176.2833431493
 20
72.5093006297
 30
0.0
 11
176.2820854302
 21
72.4603080576
 31
0.0
  0
ARC
  5
12A
330
1F
100
AcDbEntity
  8
0
  6
SLD-Durchgehend
 62
     7
370
    15
100
AcDbCircle
 10
172.6907555011
 20
76.4710701895
 30
0.0
 40
5.657070171445733
100
AcDbArc
 50
241.379542852
 51
297.3494587602
  0
LINE
  5
12B
330
1F
100
AcDbEntity
  8
0
  6
SLD-Durchgehend
 62
     7
370
    15
100
AcDbLine
 10
176.279396291
 20
72.3653558573
 30
0.0
 11
176.2833431493
 21
72.4521551757
 31
0.0
  0
LINE
  5
12C
330
1F
100
AcDbEntity
  8
0
  6
SLD-Durchgehend
 62
     7
370
    15
100
AcDbLine
 10
169.0833434698
 20
72.4521550409
 30
0.0
 11
169.0954789916
 21
72.300037807
 31
0.0
  0
ARC
  5
12D
330
1F
100
AcDbEntity
  8
0
  6
SLD-Durchgehend
 62
     7
370
    15
100
AcDbCircle
 10
172.6772053184
 20
76.8126299351
 30
0.0
 40
6.262921122029759
100
AcDbArc
 50
262.1222691234
 51
288.7583527363
  0
ARC
  5
12E
330
1F
100
AcDbEntity
  8
0
  6
SLD-Durchgehend
 62
     7
370
    15
100
AcDbCircle
 10
172.6783844085
 20
75.8792532521
 30
0.0
 40
4.79306137667146
100
AcDbArc
 50
241.5888184111
 51
299.2913415112
  0
LINE
  5
12F
330
1F
100
AcDbEntity
  8
0
  6
SLD-Durchgehend
 62
     7
370
    15
100
AcDbLine
 10
175.483443457
 20
72.3627955784
 30
0.0
 11
175.4962444347
 21
72.446158157
 31
0.0
  0
LINE
  5
130
330
1F
100
AcDbEntity
  8
0
  6
SLD-Durchgehend
 62
     7
370
    15
100
AcDbLine
 10
169.8670387606
 20
72.532680107
 30
0.0
 11
169.870441459
 21
72.4461583708
 31
0.0
  0
LWPOLYLINE
  5
131
330
1F
100
AcDbEntity
  8
0
  6
SLD-Durchgehend
 62
     7
370
    15
100
AcDbPolyline
 90
       41
 70
   128
 43
0.0
 10
174.0468870066
 20
50.60722002
 10
173.890480091
 20
50.6575898002
 10
173.56459188
 20
50.8176255171
 10
173.2607018687
 20
51.0457352654
 10
172.9807804429
 20
51.3404414471
 10
172.7266420963
 20
51.6998327754
 10
172.499934709
 20
52.1215804197
 10
172.3021273775
 20
52.6029490126
 10
172.1345028811
 20
53.1408190989
 10
171.9981475397
 20
53.7317033157
 10
171.8939454194
 20
54.371771204
 10
171.8225722464
 20
55.0568737378
 10
171.7844904819
 20
55.7825694176
 10
171.7799470038
 20
56.5441537396
 10
171.8089707883
 20
57.3366891651
 10
171.8713746487
 20
58.1550389486
 10
171.9667534969
 20
58.9938973396
 10
172.0944895589
 20
59.847827071
 10
172.2537538238
 20
60.7112910755
 10
172.443514447
 20
61.5786930847
 10
172.6625410961
 20
62.4444088803
 10
172.9094139344
 20
63.3028269942
 10
173.1825326028
 20
64.1483827542
 10
173.4801266517
 20
64.9755945441
 10
173.8002665515
 20
65.7790995637
 10
174.1408773122
 20
66.5536894737
 10
174.4997509424
 20
67.2943422482
 10
174.8745605034
 20
67.9962571793
 10
175.2628764802
 20
68.654883097
 10
175.6621817049
 20
69.2659504965
 10
176.0698873657
 20
69.8254988727
 10
176.4833505739
 20
70.3299013165
 10
176.8998910204
 20
70.7758860945
 10
177.3168083486
 20
71.1605631843
 10
177.7313998562
 20
71.4814383595
 10
178.1409778907
 20
71.7364312325
 10
178.5428872122
 20
71.9238900719
 10
178.9345225649
 20
72.0425988416
 10
179.3133449037
 20
72.0917882484
 10
179.6768984902
 20
72.0711391232
 10
179.8691745428
 20
72.0301283007
  0
LWPOLYLINE
  5
132
330
1F
100
AcDbEntity
  8
0
  6
SLD-Durchgehend
 62
     7
370
    15
100
AcDbPolyline
 90
       37
 70
   128
 43
0.0
 10
182.2509255734
 20
48.5218694863
 10
182.1048828877
 20
48.6420763722
 10
181.824961462
 20
48.936782554
 10
181.5708231154
 20
49.2961738823
 10
181.3441157281
 20
49.7179215266
 10
181.1463083966
 20
50.1992901194
 10
180.9786839001
 20
50.7371602058
 10
180.8423285588
 20
51.3280444226
 10
180.7381264385
 20
51.9681123108
 10
180.6667532655
 20
52.6532148447
 10
180.628671501
 20
53.3789105244
 10
180.6241280229
 20
54.1404948465
 10
180.6531518074
 20
54.933030272
 10
180.7155556678
 20
55.7513800555
 10
180.810934516
 20
56.5902384465
 10
180.938670578
 20
57.4441681779
 10
181.0979348429
 20
58.3076321824
 10
181.287695466
 20
59.1750341916
 10
181.5067221152
 20
60.0407499872
 10
181.7535949535
 20
60.8991681011
 10
182.0267136219
 20
61.7447238611
 10
182.3243076708
 20
62.571935651
 10
182.6444475706
 20
63.3754406706
 10
182.9850583313
 20
64.1500305806
 10
183.3439319615
 20
64.8906833551
 10
183.7187415225
 20
65.5925982862
 10
184.1070574993
 20
66.2512242039
 10
184.506362724
 20
66.8622916034
 10
184.9140683848
 20
67.4218399796
 10
185.327531593
 20
67.9262424234
 10
185.7440720395
 20
68.3722272014
 10
186.1609893677
 20
68.7569042912
 10
186.5755808753
 20
69.0777794664
 10
186.9851589098
 20
69.3327723394
 10
187.3870682313
 20
69.5202311788
 10
187.778703584
 20
69.6389399485
 10
188.0001568504
 20
69.6759701889
  0
LWPOLYLINE
  5
133
330
1F
100
AcDbEntity
  8
0
  6
SLD-Durchgehend
 62
     7
370
    15
100
AcDbPolyline
 90
       30
 70
   128
 43
0.0
 10
181.7493563057
 20
49.2186367126
 10
181.5267403668
 20
49.5747261259
 10
181.3116802783
 20
50.0219712556
 10
181.1264944277
 20
50.5283791671
 10
180.9724148856
 20
51.0905810715
 10
180.8504668322
 20
51.704837275
 10
180.7614610234
 20
52.3670600283
 10
180.7059900238
 20
53.0728447752
 10
180.6844229909
 20
53.8174960956
 10
180.696902488
 20
54.5960590885
 10
180.7433468021
 20
55.4033554947
 10
180.823445887
 20
56.2340135329
 10
180.9366677387
 20
57.0825079491
 10
181.0822583947
 20
57.9431931793
 10
181.259249758
 20
58.8103441154
 10
181.4664639436
 20
59.6781908153
 10
181.7025228404
 20
60.5409605667
 10
181.9658556452
 20
61.3929134463
 10
182.2547107427
 20
62.2283818564
 10
182.5671664273
 20
63.0418068005
 10
182.901143652
 20
63.8277774694
 10
183.2544210965
 20
64.5810651071
 10
183.6246483511
 20
65.2966582309
 10
184.0093622886
 20
65.9697956416
 10
184.4060034357
 20
66.5959999647
 10
184.8119332862
 20
67.1711051931
 10
185.2244510713
 20
67.6912842312
 10
185.640812594
 20
68.1530773895
 10
186.0582478502
 20
68.5534127772
 10
186.1103315427
 20
68.5989675743
  0
LWPOLYLINE
  5
134
330
1F
100
AcDbEntity
  8
0
  6
SLD-Durchgehend
 62
     7
370
    15
100
AcDbPolyline
 90
       24
 70
   128
 43
0.0
 10
141.7022086287
 20
67.1151968133
 10
141.7199913616
 20
67.734947863
 10
141.7731306413
 20
68.3821454329
 10
141.861003768
 20
69.0492021517
 10
141.9825806354
 20
69.7282974571
 10
142.1364353217
 20
70.4114688042
 10
142.3207644891
 20
71.0907073928
 10
142.5334067982
 20
71.7580494946
 10
142.7718694209
 20
72.4056711184
 10
143.0333565826
 20
73.0259797308
 10
143.3148023047
 20
73.6117020964
 10
143.612907205
 20
74.1559720841
 10
143.9241761667
 20
74.6524081474
 10
144.2449598105
 20
75.0951902575
 10
144.5714972528
 20
75.4791266508
 10
144.8999601859
 20
75.799716543
 10
145.2264976282
 20
76.053201258
 10
145.547281272
 20
76.2366084887
 10
145.8585502337
 20
76.3477885235
 10
146.1566551341
 20
76.3854375789
 10
146.4381008562
 20
76.3491145192
 10
146.6995880178
 20
76.2392448787
 10
146.9380506405
 20
76.0571169153
 10
146.9823331805
 20
76.0126084028
  0
LINE
  5
135
330
1F
100
AcDbEntity
  8
0
  6
SLD-Durchgehend
 62
     7
370
    15
100
AcDbLine
 10
142.8814351807
 20
66.7947083042
 30
0.0
 11
141.7022086287
 21
67.1151968133
 31
0.0
  0
LWPOLYLINE
  5
136
330
1F
100
AcDbEntity
  8
0
  6
SLD-Durchgehend
 62
     7
370
    15
100
AcDbPolyline
 90
       22
 70
   128
 43
0.0
 10
142.8814351807
 20
66.7947083042
 10
142.8992179136
 20
67.414459354
 10
142.9523571933
 20
68.0616569238
 10
143.04023032
 20
68.7287136427
 10
143.1618071874
 20
69.407808948
 10
143.3156618737
 20
70.0909802951
 10
143.4999910411
 20
70.7702188837
 10
143.7126333502
 20
71.4375609855
 10
143.9510959729
 20
72.0851826093
 10
144.2125831346
 20
72.7054912218
 10
144.4940288567
 20
73.2912135873
 10
144.792133757
 20
73.8354835751
 10
145.1034027187
 20
74.3319196383
 10
145.4241863625
 20
74.7747017485
 10
145.7507238048
 20
75.1586381417
 10
146.0791867379
 20
75.4792280339
 10
146.4057241802
 20
75.732712749
 10
146.726507824
 20
75.9161199796
 10
147.0377767857
 20
76.0273000144
 10
147.3358816861
 20
76.0649490698
 10
147.6173274082
 20
76.0286260101
 10
147.6196789768
 20
76.0279898583
  0
LINE
  5
137
330
1F
100
AcDbEntity
  8
0
  6
SLD-Durchgehend
 62
     7
370
    15
100
AcDbLine
 10
133.7637933485
 20
79.7937226764
 30
0.0
 11
133.7434899705
 21
79.799021516
 31
0.0
  0
LWPOLYLINE
  5
138
330
1F
100
AcDbEntity
  8
0
  6
SLD-Durchgehend
 62
     7
370
    15
100
AcDbPolyline
 90
       22
 70
   128
 43
0.0
 10
138.1645377586
 20
68.0766599526
 10
138.1823204915
 20
68.6964110024
 10
138.2354597712
 20
69.3436085723
 10
138.3233328979
 20
70.0106652911
 10
138.4449097653
 20
70.6897605964
 10
138.5987644516
 20
71.3729319436
 10
138.783093619
 20
72.0521705321
 10
138.9957359281
 20
72.719512634
 10
139.2341985508
 20
73.3671342577
 10
139.4956857125
 20
73.9874428702
 10
139.7771314346
 20
74.5731652358
 10
140.0752363349
 20
75.1174352235
 10
140.3865052966
 20
75.6138712867
 10
140.7072889404
 20
76.0566533969
 10
141.0338263827
 20
76.4405897902
 10
141.3622893158
 20
76.7611796824
 10
141.6888267581
 20
77.0146643974
 10
142.0096104019
 20
77.1980716281
 10
142.3208793636
 20
77.3092516629
 10
142.618984264
 20
77.3469007183
 10
142.9004299861
 20
77.3105776585
 10
142.9027815547
 20
77.3099415068
  0
LWPOLYLINE
  5
139
330
1F
100
AcDbEntity
  8
0
  6
SLD-Durchgehend
 62
     7
370
    15
100
AcDbPolyline
 90
       24
 70
   128
 43
0.0
 10
136.9853155996
 20
68.3971472678
 10
137.0030983324
 20
69.0168983176
 10
137.0562376121
 20
69.6640958874
 10
137.1441107388
 20
70.3311526063
 10
137.2656876062
 20
71.0102479116
 10
137.4195422926
 20
71.6934192587
 10
137.60387146
 20
72.3726578473
 10
137.816513769
 20
73.0399999491
 10
138.0549763918
 20
73.6876215729
 10
138.3164635534
 20
74.3079301854
 10
138.5979092755
 20
74.8936525509
 10
138.8960141759
 20
75.4379225387
 10
139.2072831376
 20
75.9343586019
 10
139.5280667814
 20
76.3771407121
 10
139.8546042237
 20
76.7610771053
 10
140.1830671568
 20
77.0816669975
 10
140.5096045991
 20
77.3351517126
 10
140.8303882428
 20
77.5185589432
 10
141.1416572045
 20
77.629738978
 10
141.4397621049
 20
77.6673880334
 10
141.721207827
 20
77.6310649737
 10
141.9826949887
 20
77.5211953332
 10
142.2211576114
 20
77.3390673699
 10
142.2654401513
 20
77.2945588573
  0
LINE
  5
13A
330
1F
100
AcDbEntity
  8
0
  6
SLD-Durchgehend
 62
     7
370
    15
100
AcDbLine
 10
136.9853155996
 20
68.3971472678
 30
0.0
 11
138.1645377586
 21
68.0766599526
 31
0.0
  0
LWPOLYLINE
  5
13B
330
1F
100
AcDbEntity
  8
0
  6
SLD-Durchgehend
 62
     7
370
    15
100
AcDbPolyline
 90
       22
 70
   128
 43
0.0
 10
133.4476403365
 20
69.3586116011
 10
133.4654230694
 20
69.9783626508
 10
133.5185623491
 20
70.6255602207
 10
133.6064354757
 20
71.2926169395
 10
133.7280123432
 20
71.9717122449
 10
133.8818670295
 20
72.654883592
 10
134.0661961969
 20
73.3341221806
 10
134.278838506
 20
74.0014642824
 10
134.5173011287
 20
74.6490859062
 10
134.7787882904
 20
75.2693945187
 10
135.0602340125
 20
75.8551168842
 10
135.3583389128
 20
76.399386872
 10
135.6696078745
 20
76.8958229352
 10
135.9903915183
 20
77.3386050453
 10
136.3169289606
 20
77.7225414386
 10
136.6453918937
 20
78.0431313308
 10
136.971929336
 20
78.2966160458
 10
137.2927129798
 20
78.4800232765
 10
137.6039819415
 20
78.5912033113
 10
137.9020868418
 20
78.6288523667
 10
138.183532564
 20
78.592529307
 10
138.1858841326
 20
78.5918931552
  0
LWPOLYLINE
  5
13C
330
1F
100
AcDbEntity
  8
0
  6
SLD-Durchgehend
 62
     7
370
    15
100
AcDbPolyline
 90
       24
 70
   128
 43
0.0
 10
132.2684181775
 20
69.6790989162
 10
132.2862009103
 20
70.298849966
 10
132.33934019
 20
70.9460475359
 10
132.4272133167
 20
71.6131042547
 10
132.5487901841
 20
72.29219956
 10
132.7026448705
 20
72.9753709072
 10
132.8869740379
 20
73.6546094957
 10
133.0996163469
 20
74.3219515976
 10
133.3380789697
 20
74.9695732213
 10
133.5995661313
 20
75.5898818338
 10
133.8810118534
 20
76.1756041994
 10
134.1791167538
 20
76.7198741871
 10
134.4903857155
 20
77.2163102503
 10
134.8111693593
 20
77.6590923605
 10
135.1377068015
 20
78.0430287538
 10
135.4661697347
 20
78.363618646
 10
135.792707177
 20
78.617103361
 10
136.1134908207
 20
78.8005105917
 10
136.4247597824
 20
78.9116906265
 10
136.7228646828
 20
78.9493396819
 10
137.0043104049
 20
78.9130166221
 10
137.2657975665
 20
78.8031469817
 10
137.5042601893
 20
78.6210190183
 10
137.5485427292
 20
78.5765105057
  0
LINE
  5
13D
330
1F
100
AcDbEntity
  8
0
  6
SLD-Durchgehend
 62
     7
370
    15
100
AcDbLine
 10
132.2684181775
 20
69.6790989162
 30
0.0
 11
133.4476403365
 21
69.3586116011
 31
0.0
  0
LWPOLYLINE
  5
13E
330
1F
100
AcDbEntity
  8
0
  6
SLD-Durchgehend
 62
     7
370
    15
100
AcDbPolyline
 90
       20
 70
   128
 43
0.0
 10
146.1704672495
 20
75.5566950818
 10
146.0580323932
 20
75.5731434432
 10
145.7832041252
 20
75.5584076135
 10
145.4942105936
 20
75.4695316162
 10
145.1949599356
 20
75.3077176118
 10
144.889498958
 20
75.0751532954
 10
144.5819584807
 20
74.7749843615
 10
144.2764975032
 20
74.4112701211
 10
143.9772468451
 20
73.988928493
 10
143.6882533135
 20
73.5136713976
 10
143.4134250455
 20
72.9919255977
 10
143.1564787541
 20
72.4307471484
 10
142.9208891279
 20
71.8377249098
 10
142.7098421071
 20
71.2208782635
 10
142.5261915637
 20
70.5885491055
 10
142.3724213432
 20
69.9492888245
 10
142.2506107822
 20
69.3117421569
 10
142.1624073261
 20
68.6845310502
 10
142.1090034931
 20
68.0761370487
 10
142.0911213717
 20
67.4947875731
  0
LINE
  5
13F
330
1F
100
AcDbEntity
  8
0
  6
SLD-Durchgehend
 62
     7
370
    15
100
AcDbLine
 10
142.0911213717
 20
67.4947875731
 30
0.0
 11
141.7022086287
 21
67.1151968133
 31
0.0
  0
LINE
  5
140
330
1F
100
AcDbEntity
  8
0
  6
SLD-Durchgehend
 62
     7
370
    15
100
AcDbLine
 10
142.8923255897
 20
67.2770374344
 30
0.0
 11
142.0911213717
 21
67.4947875731
 31
0.0
  0
LWPOLYLINE
  5
141
330
1F
100
AcDbEntity
  8
0
  6
SLD-Durchgehend
 62
     7
370
    15
100
AcDbPolyline
 90
       20
 70
   128
 43
0.0
 10
141.4535742204
 20
76.8386455364
 10
141.341139364
 20
76.8550938978
 10
141.0663110961
 20
76.840358068
 10
140.7773175644
 20
76.7514820707
 10
140.4780669064
 20
76.5896680664
 10
140.1726059288
 20
76.3571037499
 10
139.8650654516
 20
76.056934816
 10
139.559604474
 20
75.6932205756
 10
139.260353816
 20
75.2708789476
 10
138.9713602843
 20
74.7956218521
 10
138.6965320164
 20
74.2738760523
 10
138.439585725
 20
73.7126976029
 10
138.2039960988
 20
73.1196753643
 10
137.9929490779
 20
72.5028287181
 10
137.8092985346
 20
71.87049956
 10
137.6555283141
 20
71.2312392791
 10
137.533717753
 20
70.5936926114
 10
137.445514297
 20
69.9664815047
 10
137.392110464
 20
69.3580875033
 10
137.3742283426
 20
68.7767380276
  0
LINE
  5
142
330
1F
100
AcDbEntity
  8
0
  6
SLD-Durchgehend
 62
     7
370
    15
100
AcDbLine
 10
137.3742283426
 20
68.7767380276
 30
0.0
 11
136.9853155996
 21
68.3971472678
 31
0.0
  0
LINE
  5
143
330
1F
100
AcDbEntity
  8
0
  6
SLD-Durchgehend
 62
     7
370
    15
100
AcDbLine
 10
137.3742283426
 20
68.7767380276
 30
0.0
 11
138.1754281676
 21
68.5589890828
 31
0.0
  0
LWPOLYLINE
  5
144
330
1F
100
AcDbEntity
  8
0
  6
SLD-Durchgehend
 62
     7
370
    15
100
AcDbPolyline
 90
       20
 70
   128
 43
0.0
 10
136.7366767983
 20
78.1205971848
 10
136.6242419419
 20
78.1370455462
 10
136.349413674
 20
78.1223097165
 10
136.0604201423
 20
78.0334337192
 10
135.7611694843
 20
77.8716197148
 10
135.4557085067
 20
77.6390553983
 10
135.1481680295
 20
77.3388864645
 10
134.8427070519
 20
76.975172224
 10
134.5434563939
 20
76.552830596
 10
134.2544628622
 20
76.0775735005
 10
133.9796345943
 20
75.5558277007
 10
133.7226883029
 20
74.9946492514
 10
133.4870986767
 20
74.4016270127
 10
133.2760516558
 20
73.7847803665
 10
133.0924011125
 20
73.1524512084
 10
132.938630892
 20
72.5131909275
 10
132.8168203309
 20
71.8756442599
 10
132.7286168749
 20
71.2484331531
 10
132.6752130419
 20
70.6400391517
 10
132.6573309204
 20
70.0586896761
  0
LINE
  5
145
330
1F
100
AcDbEntity
  8
0
  6
SLD-Durchgehend
 62
     7
370
    15
100
AcDbLine
 10
132.6573309204
 20
70.0586896761
 30
0.0
 11
132.2684181775
 21
69.6790989162
 31
0.0
  0
LINE
  5
146
330
1F
100
AcDbEntity
  8
0
  6
SLD-Durchgehend
 62
     7
370
    15
100
AcDbLine
 10
132.6573309204
 20
70.0586896761
 30
0.0
 11
133.4585307455
 21
69.8409407312
 31
0.0
  0
LWPOLYLINE
  5
147
330
1F
100
AcDbEntity
  8
0
  6
SLD-Durchgehend
 62
     7
370
    15
100
AcDbPolyline
 90
       40
 70
   128
 43
0.0
 10
194.7010306237
 20
56.5750163396
 10
194.6839071008
 20
56.9478846031
 10
194.6329801588
 20
57.2776697894
 10
194.5495686523
 20
57.5558304141
 10
194.4358329791
 20
57.7751624067
 10
194.294718866
 20
57.9299852064
 10
194.1298810168
 20
58.0162889001
 10
193.9455886855
 20
58.0318382917
 10
193.7466149145
 20
57.9762307166
 10
193.5381130418
 20
57.8509062716
 10
193.3254831518
 20
57.6591108516
 10
193.1142322513
 20
57.4058119323
 10
192.9098316427
 20
57.0975696735
 10
192.7175751129
 20
56.7423674731
 10
192.5424421422
 20
56.3494049114
 10
192.3889684938
 20
55.9288594812
 10
192.261129059
 20
55.491623059
 10
192.1622348829
 20
55.049019919
 10
192.0948471052
 20
54.6125130824
 10
192.0607111835
 20
54.1934079466
 10
192.0607111835
 20
53.8025591667
 10
192.0948471052
 20
53.4500895762
 10
192.1622348829
 20
53.1451278135
 10
192.261129059
 20
52.8955720687
 10
192.3889684938
 20
52.7078860282
 10
192.5424421422
 20
52.5869306362
 10
192.7175751129
 20
52.5358385375
 10
192.9098316427
 20
52.5559328378
 10
193.1142322513
 20
52.6466929663
 10
193.3254831518
 20
52.8057686908
 10
193.5381130418
 20
53.0290399195
 10
193.7466149145
 20
53.3107239803
 10
193.9455886855
 20
53.6435254723
 10
194.1298810168
 20
54.0188246278
 10
194.294718866
 20
54.426902126
 10
194.4358329791
 20
54.8571881519
 10
194.5495686523
 20
55.2985392104
 10
194.6329801588
 20
55.7395242764
 10
194.6839071008
 20
56.1687219095
 10
194.7010306237
 20
56.5750163396
  0
LWPOLYLINE
  5
148
330
1F
100
AcDbEntity
  8
0
  6
SLD-Durchgehend
 62
     7
370
    15
100
AcDbPolyline
 90
       24
 70
   128
 43
0.0
 10
193.8454223428
 20
50.5969128447
 10
193.828116016
 20
50.8112822476
 10
193.777480539
 20
50.9759696526
 10
193.6972713442
 20
51.0787612401
 10
193.5934371861
 20
51.1120336547
 10
193.4736789324
 20
51.0733185841
 10
193.3468785298
 20
50.9654878317
 10
193.2224401771
 20
50.7965381686
 10
193.109592898
 20
50.5790005656
 10
193.0167060628
 20
50.3290081503
 10
192.9506686514
 20
50.0651017361
 10
192.9163783948
 20
49.8068546759
 10
192.9163783948
 20
49.5734197325
 10
192.9506686514
 20
49.3821093556
 10
193.0167060628
 20
49.2471120174
 10
193.109592898
 20
49.1784403995
 10
193.2224401771
 20
49.1811876043
 10
193.3468785298
 20
49.2551497676
 10
193.4736789324
 20
49.3948406433
 10
193.5934371861
 20
49.5899010269
 10
193.6972713442
 20
49.8258640843
 10
193.777480539
 20
50.0852289378
 10
193.828116016
 20
50.3487598985
 10
193.8454223428
 20
50.5969128447
  0
LWPOLYLINE
  5
149
330
1F
100
AcDbEntity
  8
0
  6
SLD-Durchgehend
 62
     7
370
    15
100
AcDbPolyline
 90
       24
 70
   128
 43
0.0
 10
193.8454223428
 20
60.8829202765
 10
193.828116016
 20
61.0972896794
 10
193.777480539
 20
61.2619773504
 10
193.6972713442
 20
61.364768938
 10
193.5934371861
 20
61.3980410864
 10
193.4736789324
 20
61.3593260158
 10
193.3468785298
 20
61.2514952634
 10
193.2224401771
 20
61.0825458665
 10
193.109592898
 20
60.8650079973
 10
193.0167060628
 20
60.615015582
 10
192.9506686514
 20
60.3511097
 10
192.9163783948
 20
60.0928623738
 10
192.9163783948
 20
59.8594271642
 10
192.9506686514
 20
59.6681167874
 10
193.0167060628
 20
59.5331197152
 10
193.109592898
 20
59.4644483634
 10
193.2224401771
 20
59.4671953022
 10
193.3468785298
 20
59.5411571993
 10
193.4736789324
 20
59.6808483412
 10
193.5934371861
 20
59.8759087247
 10
193.6972713442
 20
60.111871516
 10
193.777480539
 20
60.3712366357
 10
193.828116016
 20
60.6347678624
 10
193.8454223428
 20
60.8829202765
  0
LWPOLYLINE
  5
14A
330
1F
100
AcDbEntity
  8
0
  6
SLD-Durchgehend
 62
     7
370
    15
100
AcDbPolyline
 90
       42
 70
   128
 43
0.0
 10
166.0010202523
 20
75.8671974804
 10
165.9741357854
 20
75.8752699152
 10
165.6194211182
 20
75.9410384845
 10
165.2478072045
 20
75.9365532703
 10
164.8617042898
 20
75.8618436954
 10
164.4636165028
 20
75.717393243
 10
164.0561254112
 20
75.5041404378
 10
163.6418737951
 20
75.2234683296
 10
163.2235483338
 20
74.8771955785
 10
162.8038619298
 20
74.4675687821
 10
162.3855364684
 20
73.997244584
 10
161.9712848524
 20
73.4692721387
 10
161.5637937608
 20
72.8870773487
 10
161.1657059738
 20
72.2544360329
 10
160.7796030591
 20
71.5754490452
 10
160.4079891454
 20
70.8545211151
 10
160.0532744782
 20
70.096327767
 10
159.7177591935
 20
69.3057861776
 10
159.4036194085
 20
68.4880235059
 10
159.1128924443
 20
67.6483422462
 10
158.8474637864
 20
66.7921894061
 10
158.6090546249
 20
65.9251166712
 10
158.3992114229
 20
65.0527473392
 10
158.2192949057
 20
64.1807392288
 10
158.0704722373
 20
63.3147477727
 10
157.9537077477
 20
62.460388495
 10
157.8697600355
 20
61.6232038471
 10
157.8191721157
 20
60.808621594
 10
157.8022731589
 20
60.02192571
 10
157.8191721157
 20
59.2682176258
 10
157.8697600355
 20
58.5523860937
 10
157.9537077477
 20
57.8790725272
 10
158.0704722373
 20
57.2526446923
 10
158.2192949057
 20
56.6771642098
 10
158.3992114229
 20
56.156364172
 10
158.6090546249
 20
55.6936216364
 10
158.8474637864
 20
55.2919382024
 10
159.1128924443
 20
54.9539183766
 10
159.4036194085
 20
54.6817539763
 10
159.7177591935
 20
54.4772114257
 10
160.0532744782
 20
54.3416162435
 10
160.1443123924
 20
54.3176398894
  0
LWPOLYLINE
  5
14B
330
1F
100
AcDbEntity
  8
0
  6
SLD-Durchgehend
 62
     7
370
    15
100
AcDbPolyline
 90
       14
 70
   128
 43
0.0
 10
146.0100296037
 20
63.2268048311
 10
146.0269285605
 20
62.4730967469
 10
146.0775164802
 20
61.7572652148
 10
146.1614641924
 20
61.0839516483
 10
146.2782286821
 20
60.4575238134
 10
146.4270513505
 20
59.8820433309
 10
146.6069678676
 20
59.3612432931
 10
146.8168110696
 20
58.8985007575
 10
147.0552202312
 20
58.4968173235
 10
147.320648889
 20
58.1587974977
 10
147.6113758532
 20
57.8866330974
 10
147.9255156382
 20
57.6820905468
 10
148.261030923
 20
57.5464953646
 10
148.2928335311
 20
57.5375350382
  0
LWPOLYLINE
  5
14C
330
1F
100
AcDbEntity
  8
0
  6
SLD-Durchgehend
 62
     7
370
    15
100
AcDbPolyline
 90
       28
 70
   128
 43
0.0
 10
154.1500896219
 20
79.0891093627
 10
153.827177563
 20
79.1459176056
 10
153.4555636492
 20
79.1414323914
 10
153.0694607345
 20
79.0667228165
 10
152.6713729475
 20
78.9222723641
 10
152.2638818559
 20
78.7090195589
 10
151.8496302399
 20
78.4283474507
 10
151.4313047785
 20
78.0820746996
 10
151.0116183745
 20
77.6724479032
 10
150.5932929132
 20
77.2021237051
 10
150.1790412971
 20
76.6741512598
 10
149.7715502055
 20
76.0919564698
 10
149.3734624185
 20
75.459315154
 10
148.9873595038
 20
74.7803281663
 10
148.6157455901
 20
74.0594002363
 10
148.261030923
 20
73.3012068881
 10
147.9255156382
 20
72.5106652987
 10
147.6113758532
 20
71.692902627
 10
147.320648889
 20
70.8532213673
 10
147.0552202312
 20
69.9970685272
 10
146.8168110696
 20
69.1299957923
 10
146.6069678676
 20
68.2576264603
 10
146.4270513505
 20
67.3856183499
 10
146.2782286821
 20
66.5196268939
 10
146.1614641924
 20
65.6652676161
 10
146.0775164802
 20
64.8280829682
 10
146.0269285605
 20
64.0135007151
 10
146.0100296037
 20
63.2268048311
  0
LWPOLYLINE
  5
14D
330
1F
100
AcDbEntity
  8
0
  6
SLD-Durchgehend
 62
     7
370
    15
100
AcDbPolyline
 90
       22
 70
   128
 43
0.0
 10
145.7315510309
 20
63.6907206127
 10
145.7482883002
 20
64.4502920027
 10
145.7983847825
 20
65.2373459571
 10
145.8814991374
 20
66.0465069264
 10
145.9970628506
 20
66.8722468185
 10
146.1442871884
 20
67.7089256472
 10
146.3221660947
 20
68.5508278227
 10
146.5294845948
 20
69.3922022851
 10
146.7648263291
 20
70.2273012573
 10
147.0265836944
 20
71.0504199471
 10
147.3129688553
 20
71.8559368311
 10
147.6220250446
 20
72.6383481014
 10
147.9516416314
 20
73.3923100465
 10
148.2995668703
 20
74.112672251
 10
148.6634239832
 20
74.7945135154
 10
149.0407273862
 20
75.4331763212
 10
149.4288997857
 20
76.0242973539
 10
149.8252895636
 20
76.5638399063
 10
150.227188997
 20
77.0481169821
 10
150.6318526935
 20
77.4738220632
 10
151.0365163899
 20
77.8380453287
 10
151.340251994
 20
78.0706999809
  0
ARC
  5
14E
330
1F
100
AcDbEntity
  8
0
  6
SLD-Durchgehend
 62
     7
370
    15
100
AcDbCircle
 10
155.4869914517
 20
63.3636826229
 30
0.0
 40
9.760920635391857
100
AcDbArc
 50
178.0799552822
 51
201.1735170661
  0
LWPOLYLINE
  5
14F
330
1F
100
AcDbEntity
  8
0
  6
SLD-Durchgehend
 62
     7
370
    15
100
AcDbPolyline
 90
       24
 70
   128
 43
0.0
 10
197.8148303857
 20
66.5573923585
 10
197.5497253926
 20
66.9079101377
 10
197.2584933722
 20
67.1912628346
 10
196.9430676206
 20
67.4055683687
 10
196.6055425422
 20
67.5494041952
 10
196.2481591613
 20
67.6218155166
 10
195.8732899092
 20
67.6223206582
 10
195.4834241369
 20
67.5509176833
 10
195.0811501491
 20
67.4080790985
 10
194.6691388329
 20
67.1947539702
 10
194.2501257648
 20
66.9123595074
 10
193.8268930103
 20
66.5627691515
 10
193.4022505424
 20
66.1483050848
 10
192.9790177878
 20
65.6717191542
 10
192.5600047198
 20
65.1361744173
 10
192.1479934035
 20
64.5452281947
 10
191.7457194157
 20
63.9028032907
 10
191.3558536434
 20
63.2131643744
 10
190.9809843914
 20
62.4808914685
 10
190.6236010104
 20
61.7108458753
 10
190.286075932
 20
60.9081404011
 10
189.9706501805
 20
60.0781044603
 10
189.67941816
 20
59.2262490033
 10
189.414313167
 20
58.3582300233
  0
LINE
  5
150
330
1F
100
AcDbEntity
  8
0
  6
SLD-Durchgehend
 62
     7
370
    15
100
AcDbLine
 10
181.7493559543
 20
60.4414011535
 30
0.0
 11
189.414313167
 21
58.3582300233
 31
0.0
  0
LWPOLYLINE
  5
151
330
1F
100
AcDbEntity
  8
0
  6
SLD-Durchgehend
 62
     7
370
    15
100
AcDbPolyline
 90
       20
 70
   128
 43
0.0
 10
188.8782426091
 20
69.6507415151
 10
188.5832019486
 20
69.7049866469
 10
188.2083326965
 20
69.7054917885
 10
187.8184669243
 20
69.6340888135
 10
187.4161929365
 20
69.4912502287
 10
187.0041816202
 20
69.2779251005
 10
186.5851685521
 20
68.9955306376
 10
186.1619357976
 20
68.6459402817
 10
185.7372933297
 20
68.231476215
 10
185.3140605752
 20
67.7548902845
 10
184.8950475071
 20
67.2193455475
 10
184.4830361908
 20
66.6283993249
 10
184.080762203
 20
65.9859744209
 10
183.6908964308
 20
65.2963355047
 10
183.3160271787
 20
64.5640625988
 10
182.9586437977
 20
63.7940170055
 10
182.6211187193
 20
62.9913115313
 10
182.3056929678
 20
62.1612755905
 10
182.0144609473
 20
61.3094201335
 10
181.7493559543
 20
60.4414011535
  0
SPLINE
  5
152
330
1F
100
AcDbEntity
  8
0
  6
SLD-Durchgehend
 62
     7
370
    15
100
AcDbSpline
210
0.0
220
0.0
230
1.0
 70
    11
 71
     3
 72
    22
 73
    18
 74
     0
 42
0.000000001
 43
0.00000001
 40
0.0
 40
0.0
 40
0.0
 40
0.0
 40
0.125
 40
0.125
 40
0.25
 40
0.25
 40
0.375
 40
0.375
 40
0.5
 40
0.5
 40
0.625
 40
0.625
 40
0.75
 40
0.75
 40
0.875
 40
0.875
 40
1.0
 40
1.0
 40
1.0
 40
1.0
 10
189.921334159978
 20
67.16884652590235
 30
0.0
 10
189.9992440766601
 20
67.14767227995573
 30
0.0
 10
190.0922930432392
 20
67.1444530130843
 30
0.0
 10
190.2584797528883
 20
67.17315006007095
 30
0.0
 10
190.3309979144317
 20
67.20514463073823
 30
0.0
 10
190.4122470291835
 20
67.28434644839176
 30
0.0
 10
190.4213604739668
 20
67.33126210329199
 30
0.0
 10
190.3694587426878
 20
67.41562720999941
 30
0.0
 10
190.3095124637481
 20
67.45156199264022
 30
0.0
 10
190.1556255098434
 20
67.49341953978868
 30
0.0
 10
190.0618242582021
 20
67.49895050600014
 30
0.0
 10
189.8956758452865
 20
67.47480967908278
 30
0.0
 10
189.8233672603619
 20
67.44525398242111
 30
0.0
 10
189.741135452164
 20
67.36519484597866
 30
0.0
 10
189.7327183565372
 20
67.3161916112654
 30
0.0
 10
189.7840022996907
 20
67.22828917826808
 30
0.0
 10
189.8434242432959
 20
67.19002077184898
 30
0.0
 10
189.921334159978
 20
67.16884652590235
 30
0.0
  0
LINE
  5
153
330
1F
100
AcDbEntity
  8
0
  6
SLD-Durchgehend
 62
     7
370
    15
100
AcDbLine
 10
197.8148303857
 20
55.2253364219
 30
0.0
 11
197.8148303857
 21
66.5573923585
 31
0.0
  0
LWPOLYLINE
  5
154
330
1F
100
AcDbEntity
  8
0
  6
SLD-Durchgehend
 62
     7
370
    15
100
AcDbPolyline
 90
       24
 70
   128
 43
0.0
 10
189.414313167
 20
47.0261740868
 10
189.67941816
 20
46.6756563075
 10
189.9706501805
 20
46.3923036106
 10
190.286075932
 20
46.1779980765
 10
190.6236010104
 20
46.03416225
 10
190.9809843914
 20
45.9617509286
 10
191.3558536434
 20
45.961245787
 10
191.7457194157
 20
46.032648762
 10
192.1479934035
 20
46.1754873467
 10
192.5600047198
 20
46.388812475
 10
192.9790177878
 20
46.6712069378
 10
193.4022505424
 20
47.0207972938
 10
193.8268930103
 20
47.4352613604
 10
194.2501257648
 20
47.911847291
 10
194.6691388329
 20
48.4473920279
 10
195.0811501491
 20
49.0383382505
 10
195.4834241369
 20
49.6807631545
 10
195.8732899092
 20
50.3704020708
 10
196.2481591613
 20
51.1026749767
 10
196.6055425422
 20
51.87272057
 10
196.9430676206
 20
52.6754260441
 10
197.2584933722
 20
53.5054619849
 10
197.5497253926
 20
54.357317442
 10
197.8148303857
 20
55.2253364219
  0
LINE
  5
155
330
1F
100
AcDbEntity
  8
0
  6
SLD-Durchgehend
 62
     7
370
    15
100
AcDbLine
 10
189.414313167
 20
58.3582300233
 30
0.0
 11
189.414313167
 21
47.0261740868
 31
0.0
  0
LWPOLYLINE
  5
156
330
1F
100
AcDbEntity
  8
0
  6
SLD-Durchgehend
 62
     7
370
    15
100
AcDbPolyline
 90
       68
 70
   128
 43
0.0
 10
193.6145717763
 20
62.3062264025
 10
193.2533014831
 20
61.9224797212
 10
192.8952060467
 20
61.4798342806
 10
192.5434323979
 20
60.9821801044
 10
192.201071978
 20
60.4338900462
 10
191.8711334648
 20
59.8397830576
 10
191.5565162959
 20
59.2050797184
 10
191.2599855311
 20
58.5353585436
 10
190.9841468608
 20
57.8365044474
 10
190.7314242944
 20
57.1146587607
 10
190.5040391523
 20
56.3761657298
 10
190.3039893478
 20
55.627515041
 10
190.1330331606
 20
54.8752859352
 10
189.9926730099
 20
54.1260889272
 10
189.8841421256
 20
53.386507858
 10
189.8083941163
 20
52.6630420821
 10
189.7660951465
 20
51.9620498356
 10
189.7576166918
 20
51.2896913384
 10
189.7830335111
 20
50.6518752913
 10
189.8421219074
 20
50.054207019
 10
189.9343626263
 20
49.5019382448
 10
190.0589452015
 20
48.999922969
 10
190.2147746202
 20
48.5525724838
 10
190.4004817538
 20
48.1638181884
 10
190.6144343695
 20
47.8370768335
 10
190.8547521975
 20
47.5752194585
 10
191.1193237375
 20
47.3805481459
 10
191.4058232097
 20
47.254772119
 10
191.7117334461
 20
47.1989976203
 10
192.0343658842
 20
47.2137149618
 10
192.3708853413
 20
47.2987944993
 10
192.7183342104
 20
47.4534884272
 10
193.0736592625
 20
47.6764372481
 10
193.4337378707
 20
47.9656820624
 10
193.795405682
 20
48.3186809337
 10
194.1554842901
 20
48.7323316399
 10
194.5108093422
 20
49.2029991067
 10
194.8582582113
 20
49.7265466743
 10
195.1947776685
 20
50.2983737502
 10
195.5174101065
 20
50.9134547093
 10
195.823320343
 20
51.5663847457
 10
196.1098198152
 20
52.2514253085
 10
196.3743913552
 20
52.9625564888
 10
196.6147091832
 20
53.6935289986
 10
196.8286617989
 20
54.4379189773
 10
197.0143689325
 20
55.1891849838
 10
197.1701983512
 20
55.9407240486
 10
197.2947809264
 20
56.6859321498
 10
197.3870216452
 20
57.4182604628
 10
197.4461100416
 20
58.1312729076
 10
197.4715268608
 20
58.8187041442
 10
197.4630484061
 20
59.474512178
 10
197.4207494363
 20
60.092934242
 10
197.3450014271
 20
60.6685352595
 10
197.2364705427
 20
61.1962573881
 10
197.096110392
 20
61.6714627761
 10
196.9251542048
 20
62.0899749226
 10
196.7251044003
 20
62.4481161274
 10
196.4977192582
 20
62.7427394193
 10
196.2449966919
 20
62.9712551613
 10
195.9691580216
 20
63.1316552607
 10
195.6726272568
 20
63.2225302014
 10
195.3580100878
 20
63.2430815367
 10
195.0280715747
 20
63.1931283183
 10
194.6857111548
 20
63.0731098457
 10
194.333937506
 20
62.8840802912
 10
193.9758420695
 20
62.6277014841
 10
193.6145717763
 20
62.3062264025
  0
LINE
  5
157
330
1F
100
AcDbEntity
  8
0
  6
SLD-Durchgehend
 62
     7
370
    15
100
AcDbLine
 10
176.1911144423
 20
69.9595113862
 30
0.0
 11
175.9728836207
 21
69.8145585224
 31
0.0
  0
LWPOLYLINE
  5
158
330
1F
100
AcDbEntity
  8
0
  6
SLD-Durchgehend
 62
     7
370
    15
100
AcDbPolyline
 90
       27
 70
   128
 43
0.0
 10
175.9728836207
 20
69.8145585224
 10
175.5642917209
 20
69.2595650695
 10
175.1639872497
 20
68.6520359589
 10
174.7746318943
 20
67.9960108071
 10
174.3988146839
 20
67.2958521422
 10
174.0390345312
 20
66.5562155906
 10
173.6976837168
 20
65.7820188556
 10
173.3770318063
 20
64.9784100544
 10
173.0792114529
 20
64.1507325725
 10
172.8062026045
 20
63.3044904908
 10
172.5598206241
 20
62.4453098479
 10
172.3417038296
 20
61.5789041267
 10
172.153302483
 20
60.7110345025
 10
171.9958698077
 20
59.8474720706
 10
171.8704521365
 20
58.9939586935
 10
171.7778834064
 20
58.1561691634
 10
171.7187787833
 20
57.3396742454
 10
171.6935323445
 20
56.5499042047
 10
171.7023115728
 20
55.7921100544
 10
171.7450573566
 20
55.0713299264
 10
171.821486308
 20
54.3923574405
 10
171.9310901835
 20
53.7597071269
 10
172.0731393605
 20
53.1775851738
 10
172.2466900824
 20
52.649863035
 10
172.4505882244
 20
52.180049175
 10
172.6834779873
 20
51.7712681494
 10
172.6859571964
 20
51.7674840839
  0
LWPOLYLINE
  5
159
330
1F
100
AcDbEntity
  8
0
  6
SLD-Durchgehend
 62
     7
370
    15
100
AcDbPolyline
 90
        3
 70
   128
 43
0.0
 10
178.1081719266
 20
71.7183380822
 10
178.0569631904
 20
71.6924888402
 10
177.6483712906
 20
71.4498858527
  0
LWPOLYLINE
  5
15A
330
1F
100
AcDbEntity
  8
0
  6
SLD-Durchgehend
 62
     7
370
    15
100
AcDbPolyline
 90
       16
 70
   128
 43
0.0
 10
181.7493559543
 20
60.1467270775
 10
181.5262561118
 20
59.2863960451
 10
181.3322301827
 20
58.4233605281
 10
181.1685539919
 20
57.5632936704
 10
181.0363031383
 20
56.711848017
 10
180.9363466201
 20
55.8746201538
 10
180.869341329
 20
55.0571127369
 10
180.8357288635
 20
54.2647002809
 10
180.8357288635
 20
53.5025899912
 10
180.869341329
 20
52.7757911289
 10
180.9363466201
 20
52.0890821483
 10
181.0363031383
 20
51.4469755374
 10
181.1685539919
 20
50.8536916589
 10
181.3322301827
 20
50.3131307612
 10
181.5262561118
 20
49.828845754
 10
181.7493559543
 20
49.4040192931
  0
LINE
  5
15B
330
1F
100
AcDbEntity
  8
0
  6
SLD-Durchgehend
 62
     7
370
    15
100
AcDbLine
 10
189.414313167
 20
47.0261740868
 30
0.0
 11
181.7493559543
 21
49.109345217
 31
0.0
  0
LINE
  5
15C
330
1F
100
AcDbEntity
  8
0
  6
SLD-Durchgehend
 62
     7
370
    15
100
AcDbLine
 10
181.7493559543
 20
49.4040192931
 30
0.0
 11
181.7493559543
 21
49.109345217
 31
0.0
  0
LINE
  5
15D
330
1F
100
AcDbEntity
  8
0
  6
SLD-Durchgehend
 62
     7
370
    15
100
AcDbLine
 10
181.7493559543
 20
60.1467270775
 30
0.0
 11
181.7493559543
 21
49.4040192931
 31
0.0
  0
LINE
  5
15E
330
1F
100
AcDbEntity
  8
0
  6
SLD-Durchgehend
 62
     7
370
    15
100
AcDbLine
 10
181.7493559543
 20
60.4414011535
 30
0.0
 11
181.7493559543
 21
60.1467270775
 31
0.0
  0
LWPOLYLINE
  5
15F
330
1F
100
AcDbEntity
  8
0
  6
SLD-Durchgehend
 62
     7
370
    15
100
AcDbPolyline
 90
       41
 70
   128
 43
0.0
 10
166.0602553931
 20
75.8521815101
 10
165.7373433341
 20
75.908989753
 10
165.3657294204
 20
75.9045045388
 10
164.9796265057
 20
75.8297949638
 10
164.5815387187
 20
75.6853445115
 10
164.1740476271
 20
75.4720917063
 10
163.759796011
 20
75.1914195981
 10
163.3414705497
 20
74.845146847
 10
162.9217841457
 20
74.4355200506
 10
162.5034586843
 20
73.9651958524
 10
162.0892070683
 20
73.4372234071
 10
161.6817159767
 20
72.8550286171
 10
161.2836281897
 20
72.2223873013
 10
160.897525275
 20
71.5434003137
 10
160.5259113613
 20
70.8224723836
 10
160.1711966941
 20
70.0642790355
 10
159.8356814094
 20
69.273737446
 10
159.5215416244
 20
68.4559747744
 10
159.2308146602
 20
67.6162935147
 10
158.9653860023
 20
66.7601406745
 10
158.7269768408
 20
65.8930679397
 10
158.5171336388
 20
65.0206986077
 10
158.3372171216
 20
64.1486904973
 10
158.1883944532
 20
63.2826990412
 10
158.0716299636
 20
62.4283397634
 10
157.9876822514
 20
61.5911551155
 10
157.9370943316
 20
60.7765728625
 10
157.9201953748
 20
59.9898769785
 10
157.9370943316
 20
59.2361688943
 10
157.9876822514
 20
58.5203373622
 10
158.0716299636
 20
57.8470237957
 10
158.1883944532
 20
57.2205959608
 10
158.3372171216
 20
56.6451154782
 10
158.5171336388
 20
56.1243154405
 10
158.7269768408
 20
55.6615729049
 10
158.9653860023
 20
55.2598894709
 10
159.2308146602
 20
54.9218696451
 10
159.5215416244
 20
54.6497052447
 10
159.8356814094
 20
54.4451626942
 10
160.1711966941
 20
54.309567512
 10
160.2029993023
 20
54.3006071855
  0
LINE
  5
160
330
1F
100
AcDbEntity
  8
0
  6
SLD-Durchgehend
 62
     7
370
    15
100
AcDbLine
 10
176.1894895151
 20
72.931826218
 30
0.0
 11
176.5324473036
 21
72.8386176398
 31
0.0
  0
SPLINE
  5
161
330
1F
100
AcDbEntity
  8
0
  6
SLD-Durchgehend
 62
     7
370
    15
100
AcDbSpline
210
0.0
220
0.0
230
1.0
 70
     8
 71
     3
 72
    18
 73
    14
 74
     0
 42
0.000000001
 43
0.00000001
 40
0.0
 40
0.0
 40
0.0
 40
0.0
 40
0.069842045492297
 40
0.1663380791980527
 40
0.2627881350204102
 40
0.3516626796563272
 40
0.4405395476646357
 40
0.5252996812012403
 40
0.6100877272295592
 40
0.698714170694203
 40
0.787361168038895
 40
0.8937049637418301
 40
1.0
 40
1.0
 40
1.0
 40
1.0
 10
170.4401183417143
 20
74.01444002582
 30
0.0
 10
170.2556189442463
 20
74.00452768031182
 30
0.0
 10
169.8162091994183
 20
73.98092011698006
 30
0.0
 10
169.2071889486889
 20
73.82931942651587
 30
0.0
 10
168.6406984148932
 20
73.57710287986959
 30
0.0
 10
168.205570955156
 20
73.22916277285057
 30
0.0
 10
167.9013304746763
 20
72.81950959462974
 30
0.0
 10
167.7239203460463
 20
72.3519685130412
 30
0.0
 10
167.6629740582063
 20
71.84346020713772
 30
0.0
 10
167.724189153706
 20
71.30125331570456
 30
0.0
 10
167.9208368673711
 20
70.71272574755764
 30
0.0
 10
168.2685593833816
 20
70.10309558043394
 30
0.0
 10
168.6457067012378
 20
69.73522829964588
 30
0.0
 10
168.8342371190193
 20
69.55133683641252
 30
0.0
  0
LINE
  5
162
330
1F
100
AcDbEntity
  8
0
  6
SLD-Durchgehend
 62
     7
370
    15
100
AcDbLine
 10
172.2213000114
 20
68.6308057182
 30
0.0
 11
168.834237119
 21
69.5513368364
 31
0.0
  0
SPLINE
  5
163
330
1F
100
AcDbEntity
  8
0
  6
SLD-Durchgehend
 62
     7
370
    15
100
AcDbSpline
210
0.0
220
0.0
230
1.0
 70
     8
 71
     3
 72
    16
 73
    12
 74
     0
 42
0.000000001
 43
0.00000001
 40
0.0
 40
0.0
 40
0.0
 40
0.0
 40
0.2500000000000009
 40
0.2500000000000009
 40
0.3750000000000012
 40
0.3750000000000012
 40
0.5000000000000014
 40
0.5000000000000014
 40
0.7500000000000009
 40
0.7500000000000009
 40
1.0
 40
1.0
 40
1.0
 40
1.0
 10
172.2213009977753
 20
68.63080532565976
 30
0.0
 10
172.5629779252958
 20
68.66564898222138
 30
0.0
 10
172.8996579887038
 20
68.72750935951811
 30
0.0
 10
173.3991209193921
 20
68.85238066612936
 30
0.0
 10
173.5646719181951
 20
68.89940931180169
 30
0.0
 10
173.8941216207019
 20
69.0034644082753
 30
0.0
 10
174.0582567169784
 20
69.06064300114404
 30
0.0
 10
174.5378610328773
 20
69.24209525399735
 30
0.0
 10
174.8442962397272
 20
69.37719596890798
 30
0.0
 10
175.4319549806174
 20
69.66922946492147
 30
0.0
 10
175.7136083459813
 20
69.82677568214268
 30
0.0
 10
175.9728836030874
 20
69.98829271534484
 30
0.0
  0
LWPOLYLINE
  5
164
330
1F
100
AcDbEntity
  8
0
  6
SLD-Durchgehend
 62
     7
370
    15
100
AcDbPolyline
 90
       32
 70
   128
 43
0.0
 10
175.9728836207
 20
69.988292922
 10
175.5617548491
 20
69.4325945644
 10
175.1587235666
 20
68.8245461053
 10
174.7664030702
 20
68.1680904365
 10
174.387337041
 20
67.4674835576
 10
174.0239833907
 20
66.7272681653
 10
173.6786981792
 20
65.9522441196
 10
173.3537198229
 20
65.1474365321
 10
173.0511557654
 20
64.3180630655
 10
172.7729676997
 20
63.4695014143
 10
172.5209593982
 20
62.6072540105
 10
172.2967645427
 20
61.7369111314
 10
172.1018374518
 20
60.8641168363
 10
171.9374412009
 20
59.9945288981
 10
171.8046424061
 20
59.1337865709
 10
171.7043016626
 20
58.2874705218
 10
171.6370703567
 20
57.4610687198
 10
171.6033831324
 20
56.6599383481
 10
171.6034590502
 20
55.8892743709
 10
171.6372981101
 20
55.1540741749
 10
171.7046800926
 20
54.459103907
 10
171.8051686151
 20
53.8088703022
 10
171.9381122911
 20
53.2075893844
 10
172.1026482077
 20
52.6591592248
 10
172.2977103279
 20
52.1671362121
 10
172.5220338381
 20
51.7347105559
 10
172.7741638398
 20
51.3646857662
 10
173.052466072
 20
51.0594614434
 10
173.3551356031
 20
50.8210162172
 10
173.6802104504
 20
50.6508965578
 10
174.0255823009
 20
50.55020542
 10
174.3698179922
 20
50.519454522
  0
ARC
  5
165
330
1F
100
AcDbEntity
  8
0
  6
SLD-Durchgehend
 62
     7
370
    15
100
AcDbCircle
 10
179.1697989592
 20
69.791363431
 30
0.0
 40
2.381576622676326
100
AcDbArc
 50
64.579640717
 51
129.7047894601
  0
SPLINE
  5
166
330
1F
100
AcDbEntity
  8
0
  6
SLD-Durchgehend
 62
     7
370
    15
100
AcDbSpline
210
0.0
220
0.0
230
1.0
 70
     8
 71
     3
 72
    16
 73
    12
 74
     0
 42
0.000000001
 43
0.00000001
 40
0.0
 40
0.0
 40
0.0
 40
0.0
 40
0.2499999999999996
 40
0.2499999999999996
 40
0.3749999999999992
 40
0.3749999999999992
 40
0.4999999999999987
 40
0.4999999999999987
 40
0.7499999999999987
 40
0.7499999999999987
 40
1.0
 40
1.0
 40
1.0
 40
1.0
 10
177.6483713258328
 20
71.62362009719496
 30
0.0
 10
177.6890260086817
 20
71.75485953638368
 30
0.0
 10
177.6938171851877
 20
71.87456222170037
 30
0.0
 10
177.6510654792604
 20
72.0425653947134
 30
0.0
 10
177.62841261238
 20
72.09662880790003
 30
0.0
 10
177.5660318676436
 20
72.20178562376472
 30
0.0
 10
177.5261596073716
 20
72.25288836467928
 30
0.0
 10
177.3834669283629
 20
72.3999899514407
 30
0.0
 10
177.2572894430737
 20
72.49101194545175
 30
0.0
 10
176.9416451581542
 20
72.66788470620735
 30
0.0
 10
176.7513461302996
 20
72.75378559089464
 30
0.0
 10
176.5324483326285
 20
72.83861728880771
 30
0.0
  0
LINE
  5
167
330
1F
100
AcDbEntity
  8
0
  6
SLD-Durchgehend
 62
     7
370
    15
100
AcDbLine
 10
177.6483712906
 20
71.6236202522
 30
0.0
 11
177.6483712906
 21
71.4498858527
 31
0.0
  0
LINE
  5
168
330
1F
100
AcDbEntity
  8
0
  6
SLD-Durchgehend
 62
     7
370
    15
100
AcDbLine
 10
175.9728836207
 20
69.8145585224
 30
0.0
 11
175.9728836207
 21
69.988292922
 31
0.0
  0
ARC
  5
169
330
1F
100
AcDbEntity
  8
0
  6
SLD-Durchgehend
 62
     7
370
    15
100
AcDbCircle
 10
190.0773369999
 20
66.845488363
 30
0.0
 40
0.4881574755328011
100
AcDbArc
 50
53.9109978523
 51
126.772688203
  0
ARC
  5
16A
330
1F
100
AcDbEntity
  8
0
  6
SLD-Durchgehend
 62
     7
370
    15
100
AcDbCircle
 10
183.6642480319
 20
50.2143814533
 30
0.0
 40
2.210863350038946
100
AcDbArc
 50
209.9881673134
 51
253.0848671662
  0
ARC
  5
16B
330
1F
100
AcDbEntity
  8
0
  6
SLD-Durchgehend
 62
     7
370
    15
100
AcDbCircle
 10
175.4542205189
 20
70.8058257816
 30
0.0
 40
2.301046661424583
100
AcDbArc
 50
17.532822035
 51
62.0577733618
  0
ARC
  5
16C
330
1F
100
AcDbEntity
  8
0
  6
SLD-Durchgehend
 62
     7
370
    15
100
AcDbCircle
 10
170.0703581362
 20
70.7397557684
 30
0.0
 40
2.461560526361135
100
AcDbArc
 50
110.7250735673
 51
164.3988189585
  0
LWPOLYLINE
  5
16D
330
1F
100
AcDbEntity
  8
0
  6
SLD-Durchgehend
 62
     8
370
     0
100
AcDbPolyline
 90
       24
 70
   128
 43
0.0
 10
176.2820854302
 20
72.4603080576
 10
176.277464703
 20
72.40339157
 10
176.2116179705
 20
72.1410289212
 10
176.0739443727
 20
71.8861635865
 10
175.8672486302
 20
71.643983319
 10
175.5957370725
 20
71.4194186013
 10
175.2649383079
 20
71.2170405488
 10
174.8815843562
 20
71.0409695588
 10
174.4534817294
 20
70.8947892233
 10
173.9893437377
 20
70.7814758401
 10
173.4986207942
 20
70.7033355655
 10
172.9912991522
 20
70.6619600882
 10
172.4777096862
 20
70.6581907374
 10
171.9683048533
 20
70.6921049785
 10
171.4734574915
 20
70.7630118885
 10
171.0032387676
 20
70.8694683938
 10
170.5672243727
 20
71.009306632
 10
170.1742846226
 20
71.179681236
 10
169.8324253491
 20
71.3771223386
 10
169.548601715
 20
71.5976114835
 10
169.3285910255
 20
71.8366603037
 10
169.1768732447
 20
72.0894022014
 10
169.0965388403
 20
72.3506915151
 10
169.0833910233
 20
72.4996363137
  0
LWPOLYLINE
  5
16E
330
1F
100
AcDbEntity
  8
0
  6
SLD-Durchgehend
 62
     8
370
     0
100
AcDbPolyline
 90
       20
 70
   128
 43
0.0
 10
174.301219564
 20
74.2026875347
 10
173.8375687781
 20
74.3071841968
 10
173.3493161614
 20
74.3757983856
 10
172.8468693511
 20
74.4070673534
 10
172.3409378629
 20
74.4003245581
 10
171.842305438
 20
74.3557131747
 10
171.3615960855
 20
74.2741852307
 10
170.9090584386
 20
74.1574775042
 10
170.494337049
 20
74.008077414
 10
170.1262690443
 20
73.8291698128
 10
169.8127026992
 20
73.6245667976
 10
169.5603169723
 20
73.3986302405
 10
169.3744940411
 20
73.1561747863
 10
169.259194463
 20
72.9023679326
 10
169.2168725263
 20
72.6426200014
 10
169.2484338617
 20
72.3824660254
 10
169.3532049512
 20
72.1274510226
 10
169.5289512052
 20
71.8830106018
 10
169.7719263141
 20
71.6543546836
 10
169.9809888697
 20
71.5052260791
  0
LWPOLYLINE
  5
16F
330
1F
100
AcDbEntity
  8
0
  6
SLD-Durchgehend
 62
     8
370
     0
100
AcDbPolyline
 90
       14
 70
   128
 43
0.0
 10
175.2897066197
 20
71.4463417383
 10
175.4044591921
 20
71.5173594648
 10
175.6881922449
 20
71.7332050459
 10
175.9078823258
 20
71.968027579
 10
176.0588468351
 20
72.216822289
 10
176.1378684605
 20
72.4742865026
 10
176.1432622396
 20
72.7349330666
 10
176.0749132514
 20
72.9932066192
 10
175.9342812298
 20
73.243601835
 10
175.7243589978
 20
73.4807831916
 10
175.4496233202
 20
73.6996945949
 10
175.115930959
 20
73.8956703376
 10
174.7303902134
 20
74.0645344615
 10
174.301219564
 20
74.2026875347
  0
LWPOLYLINE
  5
170
330
1F
100
AcDbEntity
  8
0
  6
SLD-Durchgehend
 62
     8
370
     0
100
AcDbPolyline
 90
       16
 70
   128
 43
0.0
 10
171.0032387676
 20
70.8123229398
 10
171.4734574915
 20
70.7058664345
 10
171.9683048533
 20
70.6349595244
 10
172.4777096862
 20
70.6010452833
 10
172.9912991522
 20
70.6048146341
 10
173.4986207942
 20
70.6461901115
 10
173.9893437377
 20
70.7243303861
 10
174.4534817294
 20
70.8376437692
 10
174.8815843562
 20
70.9838241048
 10
175.2649383079
 20
71.1598950947
 10
175.5957370725
 20
71.3622731473
 10
175.8672486302
 20
71.586837865
 10
176.0739443727
 20
71.8290181325
 10
176.2116179705
 20
72.0838834672
 10
176.277464703
 20
72.3462461159
 10
176.279396291
 20
72.3653558573
  0
ARC
  5
171
330
1F
100
AcDbEntity
  8
0
  6
SLD-Durchgehend
 62
     8
370
     0
100
AcDbCircle
 10
171.2264829859
 20
73.0656564638
 30
0.0
 40
2.264365242495201
100
AcDbArc
 50
199.7621465869
 51
264.3420063894
  0
LWPOLYLINE
  5
172
330
1F
100
AcDbEntity
  8
0
  6
SLD-Durchgehend
 62
     8
370
     0
100
AcDbPolyline
 90
       13
 70
   128
 43
0.0
 10
174.0597700681
 20
73.9670254246
 10
174.450872188
 20
73.8395868196
 10
174.7984503114
 20
73.6822065429
 10
175.0939477359
 20
73.4987596247
 10
175.3300866228
 20
73.2937635923
 10
175.5010552327
 20
73.072265213
 10
175.6026441031
 20
72.8397185152
 10
175.632347342
 20
72.6018506869
 10
175.5894369053
 20
72.3645180514
 10
175.4749702572
 20
72.1335641712
 10
175.2917630889
 20
71.9146767373
 10
175.044328761
 20
71.7132448691
 10
175.0233928495
 20
71.6990172813
  0
LWPOLYLINE
  5
173
330
1F
100
AcDbEntity
  8
0
  6
SLD-Durchgehend
 62
     8
370
     0
100
AcDbPolyline
 90
       19
 70
   128
 43
0.0
 10
170.397865609
 20
71.6634886281
 10
170.2727388832
 20
71.7484190586
 10
170.0365977998
 20
71.9534156879
 10
169.86562919
 20
72.1749140672
 10
169.764042516
 20
72.4074601681
 10
169.7343392771
 20
72.6453279964
 10
169.7772475174
 20
72.8826612288
 10
169.8917152637
 20
73.1136148105
 10
170.0749235302
 20
73.332501946
 10
170.3223567599
 20
73.5339341127
 10
170.6279267185
 20
73.7129502079
 10
170.9841095684
 20
73.8651421141
 10
171.3821305262
 20
73.9867636707
 10
171.8121921222
 20
74.0748191637
 10
172.2637048577
 20
74.1271404515
 10
172.7255511843
 20
74.1424390588
 10
173.186357612
 20
74.1203387956
 10
173.6347780581
 20
74.0613837173
 10
174.0597700681
 20
73.9670254246
  0
LWPOLYLINE
  5
174
330
1F
100
AcDbEntity
  8
0
  6
SLD-Durchgehend
 62
     8
370
     0
100
AcDbPolyline
 90
       22
 70
   128
 43
0.0
 10
175.4962444347
 20
72.446158157
 10
175.4977383926
 20
72.5739691535
 10
175.444107175
 20
72.8057741424
 10
175.3189736951
 20
73.0301462906
 10
175.12557823
 20
73.2412748836
 10
174.8689320458
 20
73.4336909101
 10
174.5556770029
 20
73.6024123331
 10
174.193931757
 20
73.7430680561
 10
173.7930638744
 20
73.852015357
 10
173.363451705
 20
73.9264336228
 10
172.9162273944
 20
73.9643941929
 10
172.4629702854
 20
73.9649146701
 10
172.015423023
 20
73.9279805768
 10
171.5851731114
 20
73.8545497339
 10
171.1833649961
 20
73.7465233968
 10
170.8204051032
 20
73.6066995535
 10
170.505695361
 20
73.4386992065
 10
170.2473841869
 20
73.246874072
 10
170.0521644279
 20
73.0361915865
 10
169.9250885245
 20
72.8121093173
 10
169.8694530934
 20
72.5804294218
 10
169.8670387606
 20
72.532680107
  0
ARC
  5
175
330
1F
100
AcDbEntity
  8
0
  6
SLD-Durchgehend
 62
     8
370
     0
100
AcDbCircle
 10
185.1644812137
 20
66.2548016654
 30
0.0
 40
4.807558057385518
100
AcDbArc
 50
118.6328406744
 51
129.884447125
  0
LINE
  5
176
330
1F
100
AcDbEntity
  8
0
  6
SLD-Durchgehend
 62
     8
370
     0
100
AcDbLine
 10
182.2711111579
 20
70.6346799793
 30
0.0
 11
182.8607233357
 21
70.4744360232
 31
0.0
  0
ARC
  5
177
330
1F
100
AcDbEntity
  8
0
  6
SLD-Durchgehend
 62
     8
370
     0
100
AcDbCircle
 10
184.574869036
 20
66.4150456214
 30
0.0
 40
4.807558057388458
100
AcDbArc
 50
118.6328406744
 51
129.884447125
  0
LINE
  5
178
330
1F
100
AcDbEntity
  8
0
  6
SLD-Durchgehend
 62
     8
370
     0
100
AcDbLine
 10
180.6303237609
 20
70.3382761096
 30
0.0
 11
181.4920639602
 21
70.1040735883
 31
0.0
  0
ARC
  5
179
330
1F
100
AcDbEntity
  8
0
  6
SLD-Durchgehend
 62
     8
370
     0
100
AcDbCircle
 10
183.6136271745
 20
66.7871572426
 30
0.0
 40
4.637946147285169
100
AcDbArc
 50
116.7595845675
 51
130.0336983399
  0
LINE
  5
17A
330
1F
100
AcDbEntity
  8
0
  6
SLD-Durchgehend
 62
     8
370
     0
100
AcDbLine
 10
180.9357898812
 20
71.0886401838
 30
0.0
 11
181.5254020589
 21
70.9283962277
 31
0.0
  0
ARC
  5
17B
330
1F
100
AcDbEntity
  8
0
  6
SLD-Durchgehend
 62
     8
370
     0
100
AcDbCircle
 10
183.3017168865
 20
66.5036131126
 30
0.0
 40
5.159465460471109
100
AcDbArc
 50
117.2942574422
 51
134.5497421481
  0
LINE
  5
17C
330
1F
100
AcDbEntity
  8
0
  6
SLD-Durchgehend
 62
     8
370
     0
100
AcDbLine
 10
183.2198782412
 20
69.2189997881
 30
0.0
 11
179.6822062729
 21
70.1804632259
 31
0.0
  0
ARC
  5
17D
330
1F
100
AcDbEntity
  8
0
  6
SLD-Durchgehend
 62
     8
370
     0
100
AcDbCircle
 10
187.8518322316
 20
64.3590602931
 30
0.0
 40
6.713718020871953
100
AcDbArc
 50
129.5331752958
 51
133.6240789465
  0
LINE
  5
17E
330
1F
100
AcDbEntity
  8
0
  6
SLD-Durchgehend
 62
     8
370
     0
100
AcDbLine
 10
182.081676138
 20
69.9438296322
 30
0.0
 11
183.5783835515
 21
69.5370566278
 31
0.0
  0
ARC
  5
17F
330
1F
100
AcDbEntity
  8
0
  6
SLD-Durchgehend
 62
     8
370
     0
100
AcDbCircle
 10
190.8608078683
 20
60.7296672294
 30
0.0
 40
12.81403370043802
100
AcDbArc
 50
140.9916626905
 51
146.663148746
  0
LINE
  5
180
330
1F
100
AcDbEntity
  8
0
  6
SLD-Durchgehend
 62
     8
370
     0
100
AcDbLine
 10
182.4456693235
 20
68.3761493898
 30
0.0
 11
180.9036068737
 21
68.7952489212
 31
0.0
  0
ARC
  5
181
330
1F
100
AcDbEntity
  8
0
  6
SLD-Durchgehend
 62
     8
370
     0
100
AcDbCircle
 10
190.2192220378
 20
62.054150103
 30
0.0
 40
10.01977029600134
100
AcDbArc
 50
137.7471165453
 51
140.8795674828
  0
LINE
  5
182
330
1F
100
AcDbEntity
  8
0
  6
SLD-Durchgehend
 62
     8
370
     0
100
AcDbLine
 10
179.2650735153
 20
69.7529477545
 30
0.0
 11
182.8027454836
 21
68.7914843166
 31
0.0
  0
ARC
  5
183
330
1F
100
AcDbEntity
  8
0
  6
SLD-Durchgehend
 62
     8
370
     0
100
AcDbCircle
 10
186.6815500695
 20
63.0156135408
 30
0.0
 40
10.01977029601886
100
AcDbArc
 50
137.7471165453
 51
140.8795674828
  0
LINE
  5
184
330
1F
100
AcDbEntity
  8
0
  6
SLD-Durchgehend
 62
     8
370
     0
100
AcDbLine
 10
180.3139946959
 20
68.9554928773
 30
0.0
 11
178.9079973551
 21
69.3376128276
 31
0.0
  0
ARC
  5
185
330
1F
100
AcDbEntity
  8
0
  6
SLD-Durchgehend
 62
     8
370
     0
100
AcDbCircle
 10
190.2711956906
 20
60.8899111854
 30
0.0
 40
12.81403370044679
100
AcDbArc
 50
140.9916626905
 51
146.663148746
  0
LINE
  5
186
330
1F
100
AcDbEntity
  8
0
  6
SLD-Durchgehend
 62
     8
370
     0
100
AcDbLine
 10
178.1596617369
 20
68.3141150252
 30
0.0
 11
179.5656590776
 21
67.9319950748
 31
0.0
  0
ARC
  5
187
330
1F
100
AcDbEntity
  8
0
  6
SLD-Durchgehend
 62
     8
370
     0
100
AcDbCircle
 10
191.3675142832
 20
59.587839047
 30
0.0
 40
15.83020092523404
100
AcDbArc
 50
146.5477199406
 51
148.8567661797
  0
LINE
  5
188
330
1F
100
AcDbEntity
  8
0
  6
SLD-Durchgehend
 62
     8
370
     0
100
AcDbLine
 10
181.3564801234
 20
66.8134278007
 30
0.0
 11
177.8188081551
 21
67.7748912386
 31
0.0
  0
ARC
  5
189
330
1F
100
AcDbEntity
  8
0
  6
SLD-Durchgehend
 62
     8
370
     0
100
AcDbCircle
 10
194.9051862515
 20
58.6263756092
 30
0.0
 40
15.83020092513046
100
AcDbArc
 50
146.5477199406
 51
148.8567661797
  0
LINE
  5
18A
330
1F
100
AcDbEntity
  8
0
  6
SLD-Durchgehend
 62
     8
370
     0
100
AcDbLine
 10
180.1552712554
 20
67.7717511188
 30
0.0
 11
181.6973337052
 21
67.3526515873
 31
0.0
  0
SPLINE
  5
18B
330
1F
100
AcDbEntity
  8
0
  6
SLD-Durchgehend
 62
     8
370
     0
100
AcDbSpline
210
0.0
220
0.0
230
1.0
 70
     8
 71
     3
 72
    13
 73
     9
 74
     0
 42
0.000000001
 43
0.00000001
 40
0.0
 40
0.0
 40
0.0
 40
0.0
 40
0.125022787515685
 40
0.2498698005257171
 40
0.3747894194453448
 40
0.4996633953549519
 40
0.7494610382683078
 40
1.0
 40
1.0
 40
1.0
 40
1.0
 10
179.9244997838213
 20
63.81203863538348
 30
0.0
 10
179.8769152100999
 20
63.71109456041997
 30
0.0
 10
179.7818129637004
 20
63.50934833177967
 30
0.0
 10
179.5455990536953
 20
63.25311025108868
 30
0.0
 10
179.2572376560615
 20
63.06590460185514
 30
0.0
 10
178.8297934394212
 20
62.93359075511618
 30
0.0
 10
178.2878923536658
 20
62.9581513580333
 30
0.0
 10
177.8813110440905
 20
63.05574788733341
 30
0.0
 10
177.6777191856999
 20
63.10461845345322
 30
0.0
  0
SPLINE
  5
18C
330
1F
100
AcDbEntity
  8
0
  6
SLD-Durchgehend
 62
     8
370
     0
100
AcDbSpline
210
0.0
220
0.0
230
1.0
 70
     8
 71
     3
 72
    10
 73
     6
 74
     0
 42
0.000000001
 43
0.00000001
 40
0.0
 40
0.0
 40
0.0
 40
0.0
 40
0.2505974920503067
 40
0.5010910975285545
 40
1.0
 40
1.0
 40
1.0
 40
1.0
 10
179.9059338791949
 20
64.71016311274447
 30
0.0
 10
179.9398521569379
 20
64.64456655202322
 30
0.0
 10
180.007674651415
 20
64.51340062399666
 30
0.0
 10
180.0487048352265
 20
64.20678627617248
 30
0.0
 10
179.9741404466885
 20
63.9698062489574
 30
0.0
 10
179.9244997838213
 20
63.81203863538348
 30
0.0
  0
SPLINE
  5
18D
330
1F
100
AcDbEntity
  8
0
  6
SLD-Durchgehend
 62
     8
370
     0
100
AcDbSpline
210
0.0
220
0.0
230
1.0
 70
     8
 71
     3
 72
    10
 73
     6
 74
     0
 42
0.000000001
 43
0.00000001
 40
0.0
 40
0.0
 40
0.0
 40
0.0
 40
0.500236972218669
 40
0.7504064325779167
 40
1.0
 40
1.0
 40
1.0
 40
1.0
 10
178.6293311761192
 20
65.43634288649969
 30
0.0
 10
178.8746121328528
 20
65.35926070452027
 30
0.0
 10
179.2425585621329
 20
65.24362957686101
 30
0.0
 10
179.6779326099388
 20
64.99275165087494
 30
0.0
 10
179.8299918636916
 20
64.80428690079951
 30
0.0
 10
179.9059338791949
 20
64.71016311274447
 30
0.0
  0
SPLINE
  5
18E
330
1F
100
AcDbEntity
  8
0
  6
SLD-Durchgehend
 62
     8
370
     0
100
AcDbSpline
210
0.0
220
0.0
230
1.0
 70
     8
 71
     3
 72
    10
 73
     6
 74
     0
 42
0.000000001
 43
0.00000001
 40
0.0
 40
0.0
 40
0.0
 40
0.0
 40
0.2495527771104483
 40
0.4996973480984436
 40
1.0
 40
1.0
 40
1.0
 40
1.0
 10
177.0469826096345
 20
65.49025768624577
 30
0.0
 10
177.1818474089735
 20
65.52654431989738
 30
0.0
 10
177.4518968284262
 20
65.59920363796665
 30
0.0
 10
177.9958050438968
 20
65.58353157145399
 30
0.0
 10
178.3759193546288
 20
65.49521867845196
 30
0.0
 10
178.6293311761192
 20
65.43634288649969
 30
0.0
  0
SPLINE
  5
18F
330
1F
100
AcDbEntity
  8
0
  6
SLD-Durchgehend
 62
     8
370
     0
100
AcDbSpline
210
0.0
220
0.0
230
1.0
 70
     8
 71
     3
 72
    11
 73
     7
 74
     0
 42
0.000000001
 43
0.00000001
 40
0.0
 40
0.0
 40
0.0
 40
0.0
 40
0.4986606460048338
 40
0.749040443143896
 40
0.8744931470428422
 40
1.0
 40
1.0
 40
1.0
 40
1.0
 10
176.3414727791356
 20
64.78582860027531
 30
0.0
 10
176.4187847676417
 20
64.93759662660072
 30
0.0
 10
176.5349154601174
 20
65.16556807492866
 30
0.0
 10
176.7766410427761
 20
65.3549235899546
 30
0.0
 10
176.9269828182302
 20
65.44109974510678
 30
0.0
 10
177.0069769257751
 20
65.47386934898809
 30
0.0
 10
177.0469826096345
 20
65.49025768624577
 30
0.0
  0
SPLINE
  5
190
330
1F
100
AcDbEntity
  8
0
  6
SLD-Durchgehend
 62
     8
370
     0
100
AcDbSpline
210
0.0
220
0.0
230
1.0
 70
     8
 71
     3
 72
    10
 73
     6
 74
     0
 42
0.000000001
 43
0.00000001
 40
0.0
 40
0.0
 40
0.0
 40
0.0
 40
0.2506160687795985
 40
0.5011107300947877
 40
1.0
 40
1.0
 40
1.0
 40
1.0
 10
176.3820925178448
 20
63.85945538237394
 30
0.0
 10
176.3454726439693
 20
63.92845949383234
 30
0.0
 10
176.2722506362061
 20
64.0664342886683
 30
0.0
 10
176.221325860399
 20
64.38668156769492
 30
0.0
 10
176.2934544378656
 20
64.62630408954375
 30
0.0
 10
176.3414727791356
 20
64.78582860027531
 30
0.0
  0
SPLINE
  5
191
330
1F
100
AcDbEntity
  8
0
  6
SLD-Durchgehend
 62
     8
370
     0
100
AcDbSpline
210
0.0
220
0.0
230
1.0
 70
     8
 71
     3
 72
    10
 73
     6
 74
     0
 42
0.000000001
 43
0.00000001
 40
0.0
 40
0.0
 40
0.0
 40
0.0
 40
0.5002123552084011
 40
0.7503952073244127
 40
1.0
 40
1.0
 40
1.0
 40
1.0
 10
177.6777191856999
 20
63.10461845345322
 30
0.0
 10
177.432391369938
 20
63.18246646595435
 30
0.0
 10
177.0643620414852
 20
63.29925041755477
 30
0.0
 10
176.6211670261178
 20
63.56192101077573
 30
0.0
 10
176.4617225489046
 20
63.76035376161615
 30
0.0
 10
176.3820925178448
 20
63.85945538237394
 30
0.0
  0
SPLINE
  5
192
330
1F
100
AcDbEntity
  8
0
  6
SLD-Durchgehend
 62
     8
370
     0
100
AcDbSpline
210
0.0
220
0.0
230
1.0
 70
     8
 71
     3
 72
     9
 73
     5
 74
     0
 42
0.000000001
 43
0.00000001
 40
0.0
 40
0.0
 40
0.0
 40
0.0
 40
0.5006541844290706
 40
1.0
 40
1.0
 40
1.0
 40
1.0
 10
178.9358302557302
 20
60.88511019885064
 30
0.0
 10
178.8855826915151
 20
60.7297441764306
 30
0.0
 10
178.7852188759757
 20
60.41941815249612
 30
0.0
 10
178.5664489727469
 20
60.19311681078867
 30
0.0
 10
178.4572071369967
 20
60.08011418274894
 30
0.0
  0
SPLINE
  5
193
330
1F
100
AcDbEntity
  8
0
  6
SLD-Durchgehend
 62
     8
370
     0
100
AcDbSpline
210
0.0
220
0.0
230
1.0
 70
     8
 71
     3
 72
    13
 73
     9
 74
     0
 42
0.000000001
 43
0.00000001
 40
0.0
 40
0.0
 40
0.0
 40
0.0
 40
0.2494716072626645
 40
0.373957902521998
 40
0.4998206553691266
 40
0.6244741917904411
 40
0.7502276562684791
 40
1.0
 40
1.0
 40
1.0
 40
1.0
 10
178.2041075539346
 20
62.41295355501093
 30
0.0
 10
178.3489880425302
 20
62.35905233192531
 30
0.0
 10
178.566163873584
 20
62.2782544064634
 30
0.0
 10
178.783927079236
 20
62.05678157515428
 30
0.0
 10
178.9059190581979
 20
61.85564478436344
 30
0.0
 10
178.9840399527776
 20
61.62708822559451
 30
0.0
 10
179.0236700465748
 20
61.29903904984906
 30
0.0
 10
178.9709174383231
 20
61.05045209044431
 30
0.0
 10
178.9358302557302
 20
60.88511019885064
 30
0.0
  0
SPLINE
  5
194
330
1F
100
AcDbEntity
  8
0
  6
SLD-Durchgehend
 62
     8
370
     0
100
AcDbSpline
210
0.0
220
0.0
230
1.0
 70
     8
 71
     3
 72
    11
 73
     7
 74
     0
 42
0.000000001
 43
0.00000001
 40
0.0
 40
0.0
 40
0.0
 40
0.0
 40
0.2502615331573045
 40
0.5001528910884276
 40
0.7499703356880091
 40
1.0
 40
1.0
 40
1.0
 40
1.0
 10
177.1327833621382
 20
61.99658934441648
 30
0.0
 10
177.2009163437077
 20
62.0782096944541
 30
0.0
 10
177.3370815277075
 20
62.24132966550174
 30
0.0
 10
177.6116586166601
 20
62.39929675576318
 30
0.0
 10
177.9137308371369
 20
62.46742320237703
 30
0.0
 10
178.1072879222065
 20
62.43111524254739
 30
0.0
 10
178.2041075539346
 20
62.41295355501093
 30
0.0
  0
SPLINE
  5
195
330
1F
100
AcDbEntity
  8
0
  6
SLD-Durchgehend
 62
     8
370
     0
100
AcDbSpline
210
0.0
220
0.0
230
1.0
 70
     8
 71
     3
 72
    12
 73
     8
 74
     0
 42
0.000000001
 43
0.00000001
 40
0.0
 40
0.0
 40
0.0
 40
0.0
 40
0.2498546704715201
 40
0.4994808443335332
 40
0.7493154100645864
 40
0.8746187182788815
 40
0.9999999999999999
 40
0.9999999999999999
 40
0.9999999999999999
 40
0.9999999999999999
 10
176.5866527104025
 20
62.74702729933131
 30
0.0
 10
176.6631167618293
 20
62.71877155629036
 30
0.0
 10
176.8159749369266
 20
62.66228591059589
 30
0.0
 10
176.9895142941638
 20
62.48252674785633
 30
0.0
 10
177.0796460118604
 20
62.29226745157534
 30
0.0
 10
177.1200105274473
 20
62.12609744691699
 30
0.0
 10
177.1285248678013
 20
62.03976766265434
 30
0.0
 10
177.1327833621382
 20
61.99658934441648
 30
0.0
  0
SPLINE
  5
196
330
1F
100
AcDbEntity
  8
0
  6
SLD-Durchgehend
 62
     8
370
     0
100
AcDbSpline
210
0.0
220
0.0
230
1.0
 70
     8
 71
     3
 72
    15
 73
    11
 74
     0
 42
0.000000001
 43
0.00000001
 40
0.0
 40
0.0
 40
0.0
 40
0.0
 40
0.2498292188274434
 40
0.3749412376826711
 40
0.4998783365471839
 40
0.6248703452801013
 40
0.7498223736758906
 40
0.8747950907291733
 40
0.9373863153880176
 40
1.0
 40
1.0
 40
1.0
 40
1.0
 10
175.347061894212
 20
61.83804145685578
 30
0.0
 10
175.3936577482924
 20
61.97896643626183
 30
0.0
 10
175.463588348411
 20
62.19046526112669
 30
0.0
 10
175.6322603936403
 20
62.43412828462146
 30
0.0
 10
175.7902489978332
 20
62.58757992524023
 30
0.0
 10
175.9750250739411
 20
62.70232397843773
 30
0.0
 10
176.1774574906601
 20
62.77241982757597
 30
0.0
 10
176.351514222674
 20
62.78398324390301
 30
0.0
 10
176.4878077357482
 20
62.77122881057223
 30
0.0
 10
176.5537004454509
 20
62.7550954344432
 30
0.0
 10
176.5866527104025
 20
62.74702729933131
 30
0.0
  0
SPLINE
  5
197
330
1F
100
AcDbEntity
  8
0
  6
SLD-Durchgehend
 62
     8
370
     0
100
AcDbSpline
210
0.0
220
0.0
230
1.0
 70
     8
 71
     3
 72
    14
 73
    10
 74
     0
 42
0.000000001
 43
0.00000001
 40
0.0
 40
0.0
 40
0.0
 40
0.0
 40
0.125061467464014
 40
0.2500480316812024
 40
0.3746861725208278
 40
0.5000537111133563
 40
0.625045464471569
 40
0.750120498018395
 40
1.0
 40
1.0
 40
1.0
 40
1.0
 10
175.9492004144511
 20
60.42755354362721
 30
0.0
 10
175.8845618768904
 20
60.4489324463164
 30
0.0
 10
175.7553235158225
 20
60.49167744719744
 30
0.0
 10
175.5839303502197
 20
60.61319640077451
 30
0.0
 10
175.4443170762066
 20
60.77432067725793
 30
0.0
 10
175.3428736436179
 20
60.96676408279714
 30
0.0
 10
175.2864892759208
 20
61.17979679345301
 30
0.0
 10
175.2666247791894
 20
61.47537993360848
 30
0.0
 10
175.3148940143654
 20
61.69300825543472
 30
0.0
 10
175.347061894212
 20
61.83804145685578
 30
0.0
  0
SPLINE
  5
198
330
1F
100
AcDbEntity
  8
0
  6
SLD-Durchgehend
 62
     8
370
     0
100
AcDbSpline
210
0.0
220
0.0
230
1.0
 70
     8
 71
     3
 72
    11
 73
     7
 74
     0
 42
0.000000001
 43
0.00000001
 40
0.0
 40
0.0
 40
0.0
 40
0.0
 40
0.2503344941593203
 40
0.5000466007205403
 40
0.74995629299292
 40
1.0
 40
1.0
 40
1.0
 40
1.0
 10
176.8020477120288
 20
60.79267756460391
 30
0.0
 10
176.7492779186492
 20
60.72363855608425
 30
0.0
 10
176.6438695294107
 20
60.58573218547676
 30
0.0
 10
176.4317588158209
 20
60.44406877168536
 30
0.0
 10
176.1895160426779
 20
60.38544634737489
 30
0.0
 10
176.0293199376198
 20
60.41351530354022
 30
0.0
 10
175.9492004144511
 20
60.42755354362721
 30
0.0
  0
SPLINE
  5
199
330
1F
100
AcDbEntity
  8
0
  6
SLD-Durchgehend
 62
     8
370
     0
100
AcDbSpline
210
0.0
220
0.0
230
1.0
 70
     8
 71
     3
 72
    11
 73
     7
 74
     0
 42
0.000000001
 43
0.00000001
 40
0.0
 40
0.0
 40
0.0
 40
0.0
 40
0.2501277884767302
 40
0.5001284381272293
 40
0.7497683000774044
 40
1.0
 40
1.0
 40
1.0
 40
1.0
 10
177.5417005180408
 20
59.88905983830387
 30
0.0
 10
177.4475594252169
 20
59.92324434519229
 30
0.0
 10
177.2593250910619
 20
59.99159598313852
 30
0.0
 10
177.0236706903235
 20
60.19741674186183
 30
0.0
 10
176.8580128912908
 20
60.47353764114852
 30
0.0
 10
176.8207174907866
 20
60.68621365539725
 30
0.0
 10
176.8020477120288
 20
60.79267756460391
 30
0.0
  0
SPLINE
  5
19A
330
1F
100
AcDbEntity
  8
0
  6
SLD-Durchgehend
 62
     8
370
     0
100
AcDbSpline
210
0.0
220
0.0
230
1.0
 70
     8
 71
     3
 72
    10
 73
     6
 74
     0
 42
0.000000001
 43
0.00000001
 40
0.0
 40
0.0
 40
0.0
 40
0.0
 40
0.2506707429975659
 40
0.5012461292791255
 40
1.0
 40
1.0
 40
1.0
 40
1.0
 10
178.4572071369967
 20
60.08011418274894
 30
0.0
 10
178.3898516626692
 20
60.03070396415472
 30
0.0
 10
178.2551663364572
 20
59.93190232292199
 30
0.0
 10
177.9429164552854
 20
59.82378631506981
 30
0.0
 10
177.7020327885849
 20
59.86297550013325
 30
0.0
 10
177.5417005180408
 20
59.88905983830387
 30
0.0
  0
SPLINE
  5
19B
330
1F
100
AcDbEntity
  8
0
  6
SLD-Durchgehend
 62
     8
370
     0
100
AcDbSpline
210
0.0
220
0.0
230
1.0
 70
     8
 71
     3
 72
    14
 73
    10
 74
     0
 42
0.000000001
 43
0.00000001
 40
0.0
 40
0.0
 40
0.0
 40
0.0
 40
0.1633515449701817
 40
0.3328023562947328
 40
0.5002295819690183
 40
0.7498317766275989
 40
0.8331819919530332
 40
0.9176177129199402
 40
1.0
 40
1.0
 40
1.0
 40
1.0
 10
175.4636698861372
 20
57.49999888798599
 30
0.0
 10
175.4441605331803
 20
57.58217949178067
 30
0.0
 10
175.404413381508
 20
57.74960918208195
 30
0.0
 10
175.3053381966305
 20
57.99267460588302
 30
0.0
 10
175.1751808691025
 20
58.26993185801162
 30
0.0
 10
175.0352471273256
 20
58.49369999381884
 30
0.0
 10
174.8906842692997
 20
58.65194278777059
 30
0.0
 10
174.7983404212565
 20
58.74012431021188
 30
0.0
 10
174.7308167962218
 20
58.78956716300414
 30
0.0
 10
174.6974705722294
 20
58.81398428283718
 30
0.0
  0
LINE
  5
19C
330
1F
100
AcDbEntity
  8
0
  6
SLD-Durchgehend
 62
     8
370
     0
100
AcDbLine
 10
176.1439921366
 20
57.3151018779
 30
0.0
 11
175.4636698861
 21
57.499998888
 31
0.0
  0
SPLINE
  5
19D
330
1F
100
AcDbEntity
  8
0
  6
SLD-Durchgehend
 62
     8
370
     0
100
AcDbSpline
210
0.0
220
0.0
230
1.0
 70
     8
 71
     3
 72
     9
 73
     5
 74
     0
 42
0.000000001
 43
0.00000001
 40
0.0
 40
0.0
 40
0.0
 40
0.0
 40
0.5000105106822746
 40
1.0
 40
1.0
 40
1.0
 40
1.0
 10
175.6945026022503
 20
58.39145517633047
 30
0.0
 10
175.7940542323594
 20
58.22167168055463
 30
0.0
 10
175.9931533072432
 20
57.8821118270144
 30
0.0
 10
176.0937132314429
 20
57.50410254548489
 30
0.0
 10
176.1439921365893
 20
57.3151018778556
 30
0.0
  0
LINE
  5
19E
330
1F
100
AcDbEntity
  8
0
  6
SLD-Durchgehend
 62
     8
370
     0
100
AcDbLine
 10
178.2131095694
 20
57.7069517699
 30
0.0
 11
175.6945026023
 21
58.3914551763
 31
0.0
  0
ARC
  5
19F
330
1F
100
AcDbEntity
  8
0
  6
SLD-Durchgehend
 62
     8
370
     0
100
AcDbCircle
 10
203.500975755
 20
53.9525343344
 30
0.0
 40
25.56505088007734
100
AcDbArc
 50
169.8776588805
 51
171.5551468529
  0
LINE
  5
1A0
330
1F
100
AcDbEntity
  8
0
  6
SLD-Durchgehend
 62
     8
370
     0
100
AcDbLine
 10
174.7961799521
 20
59.4070707071
 30
0.0
 11
178.3338519205
 21
58.4456072692
 31
0.0
  0
ARC
  5
1A1
330
1F
100
AcDbEntity
  8
0
  6
SLD-Durchgehend
 62
     8
370
     0
100
AcDbCircle
 10
200.0760350629
 20
54.8949014238
 30
0.0
 40
25.67938367763351
100
AcDbArc
 50
169.8799201557
 51
171.2214462758
  0
SPLINE
  5
1A2
330
1F
100
AcDbEntity
  8
0
  6
SLD-Durchgehend
 62
     8
370
     0
100
AcDbSpline
210
0.0
220
0.0
230
1.0
 70
     8
 71
     3
 72
    18
 73
    14
 74
     0
 42
0.000000001
 43
0.00000001
 40
0.0
 40
0.0
 40
0.0
 40
0.0
 40
0.0624267371326398
 40
0.1250066306587053
 40
0.2501876611610591
 40
0.3753849187294492
 40
0.5005504139136613
 40
0.5631334018931476
 40
0.6256861949159659
 40
0.75033098636518
 40
0.8740179176602383
 40
0.9382618948277739
 40
1.0
 40
1.0
 40
1.0
 40
1.0
 10
175.6176406101547
 20
53.55035783811527
 30
0.0
 10
175.6416605501184
 20
53.58245222073121
 30
0.0
 10
175.6897593600419
 20
53.64671972562042
 30
0.0
 10
175.7408253667211
 20
53.8086126575963
 30
0.0
 10
175.7925806384938
 20
54.02166708524499
 30
0.0
 10
175.8493059323675
 20
54.28975359152169
 30
0.0
 10
175.9235031193546
 20
54.50674300802239
 30
0.0
 10
176.0026245813705
 20
54.67237256249063
 30
0.0
 10
176.1081543461267
 20
54.82127514842863
 30
0.0
 10
176.2994846191488
 20
54.95860286572343
 30
0.0
 10
176.5511282272106
 20
55.00488735115556
 30
0.0
 10
176.765776615155
 20
54.9853080133647
 30
0.0
 10
176.875464490074
 20
54.95855059988118
 30
0.0
 10
176.9292175431439
 20
54.9454380050018
 30
0.0
  0
SPLINE
  5
1A3
330
1F
100
AcDbEntity
  8
0
  6
SLD-Durchgehend
 62
     8
370
     0
100
AcDbSpline
210
0.0
220
0.0
230
1.0
 70
     8
 71
     3
 72
    11
 73
     7
 74
     0
 42
0.000000001
 43
0.00000001
 40
0.0
 40
0.0
 40
0.0
 40
0.0
 40
0.2501338411478322
 40
0.4998696251933618
 40
0.7497276822062378
 40
1.0
 40
1.0
 40
1.0
 40
1.0
 10
175.4178281634682
 20
53.5182210160641
 30
0.0
 10
175.4380595959501
 20
53.51363880048469
 30
0.0
 10
175.4784902650888
 20
53.50448166135578
 30
0.0
 10
175.5334371733124
 20
53.50812565721412
 30
0.0
 10
175.5810984066889
 20
53.52295088915006
 30
0.0
 10
175.6054531512758
 20
53.54121714511295
 30
0.0
 10
175.6176406101547
 20
53.55035783811527
 30
0.0
  0
SPLINE
  5
1A4
330
1F
100
AcDbEntity
  8
0
  6
SLD-Durchgehend
 62
     8
370
     0
100
AcDbSpline
210
0.0
220
0.0
230
1.0
 70
     8
 71
     3
 72
    11
 73
     7
 74
     0
 42
0.000000001
 43
0.00000001
 40
0.0
 40
0.0
 40
0.0
 40
0.0
 40
0.2502723307746316
 40
0.499977764658547
 40
0.7497167802695963
 40
0.9999999999999999
 40
0.9999999999999999
 40
0.9999999999999999
 40
0.9999999999999999
 10
175.1918097019011
 20
53.67137662411872
 30
0.0
 10
175.2065568092308
 20
53.65370728991148
 30
0.0
 10
175.2360176199209
 20
53.61840864466133
 30
0.0
 10
175.2921799255289
 20
53.5732757248898
 30
0.0
 10
175.3543801165991
 20
53.53863206201267
 30
0.0
 10
175.3966634746756
 20
53.52502963282618
 30
0.0
 10
175.4178281634682
 20
53.5182210160641
 30
0.0
  0
SPLINE
  5
1A5
330
1F
100
AcDbEntity
  8
0
  6
SLD-Durchgehend
 62
     8
370
     0
100
AcDbSpline
210
0.0
220
0.0
230
1.0
 70
     8
 71
     3
 72
     9
 73
     5
 74
     0
 42
0.000000001
 43
0.00000001
 40
0.0
 40
0.0
 40
0.0
 40
0.0
 40
0.501105064154058
 40
1.0
 40
1.0
 40
1.0
 40
1.0
 10
175.0253428304171
 20
54.12212090892607
 30
0.0
 10
175.0341533684592
 20
54.04665369634937
 30
0.0
 10
175.0517355855873
 20
53.89605212000311
 30
0.0
 10
175.1451871764653
 20
53.74615802768797
 30
0.0
 10
175.1918097019011
 20
53.67137662411872
 30
0.0
  0
SPLINE
  5
1A6
330
1F
100
AcDbEntity
  8
0
  6
SLD-Durchgehend
 62
     8
370
     0
100
AcDbSpline
210
0.0
220
0.0
230
1.0
 70
     8
 71
     3
 72
    13
 73
     9
 74
     0
 42
0.000000001
 43
0.00000001
 40
0.0
 40
0.0
 40
0.0
 40
0.0
 40
0.2498558784296606
 40
0.3758152397111766
 40
0.4997929623234056
 40
0.6229624059144759
 40
0.7498707969110968
 40
1.0
 40
1.0
 40
1.0
 40
1.0
 10
175.4884806926127
 20
54.56409210345588
 30
0.0
 10
175.4150190414852
 20
54.56919440295451
 30
0.0
 10
175.3045233100997
 20
54.57686891484196
 30
0.0
 10
175.1783838643851
 20
54.53873695757645
 30
0.0
 10
175.1024183774419
 20
54.48616742073099
 30
0.0
 10
175.0538632767118
 20
54.40933105353794
 30
0.0
 10
175.0195367907258
 20
54.2891584335017
 30
0.0
 10
175.0230272421436
 20
54.18873949124943
 30
0.0
 10
175.0253428304171
 20
54.12212090892607
 30
0.0
  0
LINE
  5
1A7
330
1F
100
AcDbEntity
  8
0
  6
SLD-Durchgehend
 62
     8
370
     0
100
AcDbLine
 10
175.4288402976
 20
55.2211793939
 30
0.0
 11
175.4884806926
 21
54.5640921035
 31
0.0
  0
SPLINE
  5
1A8
330
1F
100
AcDbEntity
  8
0
  6
SLD-Durchgehend
 62
     8
370
     0
100
AcDbSpline
210
0.0
220
0.0
230
1.0
 70
     8
 71
     3
 72
    15
 73
    11
 74
     0
 42
0.000000001
 43
0.00000001
 40
0.0
 40
0.0
 40
0.0
 40
0.0
 40
0.2499750449958061
 40
0.3750500978881805
 40
0.5000150944260398
 40
0.6249470698421385
 40
0.7498758956827998
 40
0.8748016244479707
 40
0.9373904682982659
 40
1.0
 40
1.0
 40
1.0
 40
1.0
 10
174.4363548013678
 20
54.27481224165299
 30
0.0
 10
174.432071278044
 20
54.41555644782979
 30
0.0
 10
174.4256444931547
 20
54.62672203959792
 30
0.0
 10
174.5064886152616
 20
54.88314935158458
 30
0.0
 10
174.610697583977
 20
55.05191492077223
 30
0.0
 10
174.7688905974837
 20
55.17607986328386
 30
0.0
 10
174.9659379205772
 20
55.25045281066369
 30
0.0
 10
175.1542082886212
 20
55.26248988450639
 30
0.0
 10
175.3102287347038
 20
55.24628481823004
 30
0.0
 10
175.3892987547719
 20
55.22954879051415
 30
0.0
 10
175.4288402975937
 20
55.22117939392079
 30
0.0
  0
SPLINE
  5
1A9
330
1F
100
AcDbEntity
  8
0
  6
SLD-Durchgehend
 62
     8
370
     0
100
AcDbSpline
210
0.0
220
0.0
230
1.0
 70
     8
 71
     3
 72
    13
 73
     9
 74
     0
 42
0.000000001
 43
0.00000001
 40
0.0
 40
0.0
 40
0.0
 40
0.0
 40
0.125086288867153
 40
0.2501935412361561
 40
0.3759711650224422
 40
0.500378838501398
 40
0.7497457564693095
 40
0.9999999999999999
 40
0.9999999999999999
 40
0.9999999999999999
 40
0.9999999999999999
 10
175.5484822757134
 20
52.94521228476935
 30
0.0
 10
175.4730118547516
 20
52.96961451057746
 30
0.0
 10
175.3220583645648
 20
53.01842305181943
 30
0.0
 10
175.1000194232716
 20
53.14459785415874
 30
0.0
 10
174.896924639601
 20
53.29781124938113
 30
0.0
 10
174.6736712742743
 20
53.53862945426735
 30
0.0
 10
174.493640590206
 20
53.8754731900617
 30
0.0
 10
174.4554726596875
 20
54.14154171217838
 30
0.0
 10
174.4363548013678
 20
54.27481224165299
 30
0.0
  0
SPLINE
  5
1AA
330
1F
100
AcDbEntity
  8
0
  6
SLD-Durchgehend
 62
     8
370
     0
100
AcDbSpline
210
0.0
220
0.0
230
1.0
 70
     8
 71
     3
 72
    11
 73
     7
 74
     0
 42
0.000000001
 43
0.00000001
 40
0.0
 40
0.0
 40
0.0
 40
0.0
 40
0.4985785218659633
 40
0.7490672221861927
 40
0.8745094333175001
 40
1.0
 40
1.0
 40
1.0
 40
1.0
 10
176.2106469268934
 20
53.01826979026553
 30
0.0
 10
176.123859309186
 20
52.96964556725345
 30
0.0
 10
175.9934690960798
 20
52.89659225656067
 30
0.0
 10
175.7774283199626
 20
52.90147936092135
 30
0.0
 10
175.6485434599959
 20
52.91988385525188
 30
0.0
 10
175.581840288446
 20
52.93676839036217
 30
0.0
 10
175.5484822757134
 20
52.94521228476935
 30
0.0
  0
SPLINE
  5
1AB
330
1F
100
AcDbEntity
  8
0
  6
SLD-Durchgehend
 62
     8
370
     0
100
AcDbSpline
210
0.0
220
0.0
230
1.0
 70
     8
 71
     3
 72
     9
 73
     5
 74
     0
 42
0.000000001
 43
0.00000001
 40
0.0
 40
0.0
 40
0.0
 40
0.0
 40
0.5010323943579191
 40
1.0
 40
1.0
 40
1.0
 40
1.0
 10
176.4756418325024
 20
53.61236557338247
 30
0.0
 10
176.4518704631902
 20
53.49643109177887
 30
0.0
 10
176.4044256880024
 20
53.26503990248825
 30
0.0
 10
176.2751508722027
 20
53.10041318787889
 30
0.0
 10
176.2106469268934
 20
53.01826979026553
 30
0.0
  0
SPLINE
  5
1AC
330
1F
100
AcDbEntity
  8
0
  6
SLD-Durchgehend
 62
     8
370
     0
100
AcDbSpline
210
0.0
220
0.0
230
1.0
 70
     8
 71
     3
 72
    11
 73
     7
 74
     0
 42
0.000000001
 43
0.00000001
 40
0.0
 40
0.0
 40
0.0
 40
0.0
 40
0.499944409279067
 40
0.5063794248013721
 40
0.7499704907281366
 40
1.0
 40
1.0
 40
1.0
 40
1.0
 10
176.5920768527138
 20
54.08613080245004
 30
0.0
 10
176.5691313154232
 20
54.00710044002119
 30
0.0
 10
176.5458904355188
 20
53.9270528412766
 30
0.0
 10
176.5183379314755
 20
53.80782129367302
 30
0.0
 10
176.4999315248445
 20
53.72887504491342
 30
0.0
 10
176.4838084958074
 20
53.65153830609741
 30
0.0
 10
176.4756418325024
 20
53.61236557338247
 30
0.0
  0
SPLINE
  5
1AD
330
1F
100
AcDbEntity
  8
0
  6
SLD-Durchgehend
 62
     8
370
     0
100
AcDbSpline
210
0.0
220
0.0
230
1.0
 70
     8
 71
     3
 72
    11
 73
     7
 74
     0
 42
0.000000001
 43
0.00000001
 40
0.0
 40
0.0
 40
0.0
 40
0.0
 40
0.2498257405097242
 40
0.3734169527552906
 40
0.5006371499347464
 40
1.0
 40
1.0
 40
1.0
 40
1.0
 10
176.9456191831288
 20
54.29359788785146
 30
0.0
 10
176.9010277506394
 20
54.30196787692254
 30
0.0
 10
176.8343765048342
 20
54.314478580612
 30
0.0
 10
176.7568834919911
 20
54.2957825868418
 30
0.0
 10
176.6592783789471
 20
54.24048097169344
 30
0.0
 10
176.6218810784308
 20
54.15458590371697
 30
0.0
 10
176.5920768527138
 20
54.08613080245004
 30
0.0
  0
SPLINE
  5
1AE
330
1F
100
AcDbEntity
  8
0
  6
SLD-Durchgehend
 62
     8
370
     0
100
AcDbSpline
210
0.0
220
0.0
230
1.0
 70
     8
 71
     3
 72
    13
 73
     9
 74
     0
 42
0.000000001
 43
0.00000001
 40
0.0
 40
0.0
 40
0.0
 40
0.0
 40
0.2503806520944764
 40
0.4998883693725738
 40
0.6249940079248492
 40
0.7501489098208052
 40
0.8750673410200795
 40
1.0
 40
1.0
 40
1.0
 40
1.0
 10
177.4699877526571
 20
53.51265123917631
 30
0.0
 10
177.4616244435834
 20
53.58520095273379
 30
0.0
 10
177.4449269835343
 20
53.73004744029312
 30
0.0
 10
177.3717266542665
 20
53.9256711587833
 30
0.0
 10
177.2698898223466
 20
54.07083402308778
 30
0.0
 10
177.1769710552213
 20
54.16973936608954
 30
0.0
 10
177.0661147056851
 20
54.25155391691735
 30
0.0
 10
176.9857858820902
 20
54.27958269884004
 30
0.0
 10
176.9456191831288
 20
54.29359788785146
 30
0.0
  0
SPLINE
  5
1AF
330
1F
100
AcDbEntity
  8
0
  6
SLD-Durchgehend
 62
     8
370
     0
100
AcDbSpline
210
0.0
220
0.0
230
1.0
 70
     8
 71
     3
 72
    13
 73
     9
 74
     0
 42
0.000000001
 43
0.00000001
 40
0.0
 40
0.0
 40
0.0
 40
0.0
 40
0.2499430459915448
 40
0.3743856309471715
 40
0.5000647882279213
 40
0.6250769043193607
 40
0.7501711751102473
 40
0.9999999999999999
 40
0.9999999999999999
 40
0.9999999999999999
 40
0.9999999999999999
 10
176.8611997224029
 20
53.01520172582751
 30
0.0
 10
176.9527219721204
 20
53.0082401055457
 30
0.0
 10
177.089811664175
 20
52.99781240754242
 30
0.0
 10
177.2481770189554
 20
53.03236067343534
 30
0.0
 10
177.3481405905767
 20
53.08390514815084
 30
0.0
 10
177.4168895196929
 20
53.1663794085359
 30
0.0
 10
177.4743508507633
 20
53.30191968943948
 30
0.0
 10
177.4717324894668
 20
53.42838288608365
 30
0.0
 10
177.4699877526571
 20
53.51265123917631
 30
0.0
  0
LINE
  5
1B0
330
1F
100
AcDbEntity
  8
0
  6
SLD-Durchgehend
 62
     8
370
     0
100
AcDbLine
 10
176.9945574701
 20
52.449665099
 30
0.0
 11
176.8611997224
 21
53.0152017258
 31
0.0
  0
SPLINE
  5
1B1
330
1F
100
AcDbEntity
  8
0
  6
SLD-Durchgehend
 62
     8
370
     0
100
AcDbSpline
210
0.0
220
0.0
230
1.0
 70
     8
 71
     3
 72
    13
 73
     9
 74
     0
 42
0.000000001
 43
0.00000001
 40
0.0
 40
0.0
 40
0.0
 40
0.0
 40
0.2500104432657377
 40
0.3751508862386435
 40
0.5002031637084066
 40
0.6253952150882982
 40
0.7503267628037784
 40
1.0
 40
1.0
 40
1.0
 40
1.0
 10
178.0608963284454
 20
53.33597444585045
 30
0.0
 10
178.0660883892077
 20
53.18183417379821
 30
0.0
 10
178.0738792885436
 20
52.95054039698585
 30
0.0
 10
177.9904326975906
 20
52.69927267010283
 30
0.0
 10
177.8749816143894
 20
52.55006927740363
 30
0.0
 10
177.7046044564314
 20
52.45338300005501
 30
0.0
 10
177.4206979463675
 20
52.39363855483805
 30
0.0
 10
177.1649877406667
 20
52.42725788912424
 30
0.0
 10
176.9945574701177
 20
52.449665098967
 30
0.0
  0
SPLINE
  5
1B2
330
1F
100
AcDbEntity
  8
0
  6
SLD-Durchgehend
 62
     8
370
     0
100
AcDbSpline
210
0.0
220
0.0
230
1.0
 70
     8
 71
     3
 72
    13
 73
     9
 74
     0
 42
0.000000001
 43
0.00000001
 40
0.0
 40
0.0
 40
0.0
 40
0.0
 40
0.1251188436813561
 40
0.250252502313594
 40
0.3753608645737833
 40
0.5004307216185373
 40
0.7496794837120359
 40
1.0
 40
1.0
 40
1.0
 40
1.0
 10
176.9292175431439
 20
54.9454380050018
 30
0.0
 10
177.0127530915043
 20
54.91730286883493
 30
0.0
 10
177.1798340794215
 20
54.86102926510322
 30
0.0
 10
177.414824939835
 20
54.70527347998797
 30
0.0
 10
177.6244517556959
 20
54.51307529908498
 30
0.0
 10
177.8490436848346
 20
54.21074681757142
 30
0.0
 10
178.0088688077864
 20
53.79167531491973
 30
0.0
 10
178.0435290353776
 20
53.48809183380421
 30
0.0
 10
178.0608963284454
 20
53.33597444585045
 30
0.0
  0
ARC
  5
1B3
330
1F
100
AcDbEntity
  8
0
  6
SLD-Durchgehend
 62
     8
370
     0
100
AcDbCircle
 10
182.9543369998
 20
54.30959052
 30
0.0
 40
7.849390014924905
100
AcDbArc
 50
192.0626516932
 51
197.7151669832
  0
LINE
  5
1B4
330
1F
100
AcDbEntity
  8
0
  6
SLD-Durchgehend
 62
     8
370
     0
100
AcDbLine
 10
174.6886519362
 20
52.8294599278
 30
0.0
 11
175.278264114
 21
52.6692159717
 31
0.0
  0
ARC
  5
1B5
330
1F
100
AcDbEntity
  8
0
  6
SLD-Durchgehend
 62
     8
370
     0
100
AcDbCircle
 10
180.671603835
 20
54.0008699121
 30
0.0
 40
6.096549415458982
100
AcDbArc
 50
191.0778803238
 51
208.8470015256
  0
LINE
  5
1B6
330
1F
100
AcDbEntity
  8
0
  6
SLD-Durchgehend
 62
     8
370
     0
100
AcDbLine
 10
175.9211801742
 20
50.8992092877
 30
0.0
 11
175.3315679964
 21
51.0594532437
 31
0.0
  0
ARC
  5
1B7
330
1F
100
AcDbEntity
  8
0
  6
SLD-Durchgehend
 62
     8
370
     0
100
AcDbCircle
 10
179.9713695903
 20
53.2365609341
 30
0.0
 40
4.676242832162562
100
AcDbArc
 50
202.0036479122
 51
209.9891098987
  0
LINE
  5
1B8
330
1F
100
AcDbEntity
  8
0
  6
SLD-Durchgehend
 62
     8
370
     0
100
AcDbLine
 10
178.5838040663
 20
50.6833140105
 30
0.0
 11
175.6357442757
 21
51.4845334923
 31
0.0
  0
ARC
  5
1B9
330
1F
100
AcDbEntity
  8
0
  6
SLD-Durchgehend
 62
     8
370
     0
100
AcDbCircle
 10
184.2458496975
 20
52.9870330193
 30
0.0
 40
6.112763859449926
100
AcDbArc
 50
197.7849607384
 51
202.1399546321
  0
LINE
  5
1BA
330
1F
100
AcDbEntity
  8
0
  6
SLD-Durchgehend
 62
     8
370
     0
100
AcDbLine
 10
175.4771574758
 20
51.9211370511
 30
0.0
 11
178.4252172664
 21
51.1199175693
 31
0.0
  0
LINE
  5
1BB
330
1F
100
AcDbEntity
  8
0
  6
SLD-Durchgehend
 62
     8
370
     0
100
AcDbLine
 10
179.2907892527
 20
49.5212015565
 30
0.0
 11
177.5321214488
 21
49.7184766794
 31
0.0
  0
ARC
  5
1BC
330
1F
100
AcDbEntity
  8
0
  6
SLD-Durchgehend
 62
     8
370
     0
100
AcDbCircle
 10
181.4571004006
 20
51.5285122786
 30
0.0
 40
2.953337150517574
100
AcDbArc
 50
215.205816885
 51
222.8182858482
  0
LINE
  5
1BD
330
1F
100
AcDbEntity
  8
0
  6
SLD-Durchgehend
 62
     8
370
     0
100
AcDbLine
 10
175.5062968931
 20
50.7873317433
 30
0.0
 11
179.0439688615
 21
49.8258683054
 31
0.0
  0
ARC
  5
1BE
330
1F
100
AcDbEntity
  8
0
  6
SLD-Durchgehend
 62
     8
370
     0
100
AcDbCircle
 10
177.9377624397
 20
52.5041341847
 30
0.0
 40
2.97648035892954
100
AcDbArc
 50
215.2250443743
 51
222.2624915802
  0
LINE
  5
1BF
330
1F
100
AcDbEntity
  8
0
  6
SLD-Durchgehend
 62
     8
370
     0
100
AcDbLine
 10
178.0593859779
 20
49.8706365066
 30
0.0
 11
175.7349540932
 21
50.5023672863
 31
0.0
  0
LINE
  5
1C0
330
1F
100
AcDbEntity
  8
0
  6
SLD-Durchgehend
 62
     8
370
     0
100
AcDbLine
 10
176.2711404335
 20
50.0648350773
 30
0.0
 11
178.0593859779
 21
49.8706365066
 31
0.0
  0
ARC
  5
1C1
330
1F
100
AcDbEntity
  8
0
  6
SLD-Durchgehend
 62
     8
370
     0
100
AcDbCircle
 10
177.1903113594
 20
51.6637302898
 30
0.0
 40
1.844272510167908
100
AcDbArc
 50
240.1063181697
 51
250.2248606317
  0
LINE
  5
1C2
330
1F
100
AcDbEntity
  8
0
  6
SLD-Durchgehend
 62
     8
370
     0
100
AcDbLine
 10
180.1040112728
 20
48.9667554097
 30
0.0
 11
176.5663393044
 21
49.9282188475
 31
0.0
  0
ARC
  5
1C3
330
1F
100
AcDbEntity
  8
0
  6
SLD-Durchgehend
 62
     8
370
     0
100
AcDbCircle
 10
180.726720506
 20
50.6993020884
 30
0.0
 40
1.841055344947514
100
AcDbArc
 50
240.5349749179
 51
250.2306268506
  0
LINE
  5
1C4
330
1F
100
AcDbEntity
  8
0
  6
SLD-Durchgehend
 62
     8
370
     0
100
AcDbLine
 10
177.5321214488
 20
49.7184766794
 30
0.0
 11
179.82111978
 21
49.0963759802
 31
0.0
  0
SPLINE
  5
1C5
330
1F
100
AcDbEntity
  8
0
  6
SLD-Durchgehend
 62
     8
370
     0
100
AcDbSpline
210
0.0
220
0.0
230
1.0
 70
     8
 71
     3
 72
    13
 73
     9
 74
     0
 42
0.000000001
 43
0.00000001
 40
0.0
 40
0.0
 40
0.0
 40
0.0
 40
0.2499098309694634
 40
0.3780403049736605
 40
0.5002454364843787
 40
0.6242108216821701
 40
0.7504896979714109
 40
1.0
 40
1.0
 40
1.0
 40
1.0
 10
176.1837749576564
 20
61.15899649223566
 30
0.0
 10
176.2379721868215
 20
61.14792231086285
 30
0.0
 10
176.3199567048487
 20
61.13117032120616
 30
0.0
 10
176.4303593617207
 20
61.14998009100152
 30
0.0
 10
176.5089054746514
 20
61.18200201940013
 30
0.0
 10
176.5786153924039
 20
61.23295735836342
 30
0.0
 10
176.6564640269947
 20
61.32293249313327
 30
0.0
 10
176.6868759749104
 20
61.40887036916358
 30
0.0
 10
176.7070683986083
 20
61.46592998301409
 30
0.0
  0
SPLINE
  5
1C6
330
1F
100
AcDbEntity
  8
0
  6
SLD-Durchgehend
 62
     8
370
     0
100
AcDbSpline
210
0.0
220
0.0
230
1.0
 70
     8
 71
     3
 72
    13
 73
     9
 74
     0
 42
0.000000001
 43
0.00000001
 40
0.0
 40
0.0
 40
0.0
 40
0.0
 40
0.2494625793341006
 40
0.3748698876850851
 40
0.4988113512158281
 40
0.6235500213898334
 40
0.7487307503344481
 40
1.0
 40
1.0
 40
1.0
 40
1.0
 10
176.7070683986083
 20
61.46592998301409
 30
0.0
 10
176.7188889070755
 20
61.52569132660991
 30
0.0
 10
176.7366517021741
 20
61.61549528927826
 30
0.0
 10
176.7156450036304
 20
61.73292568896245
 30
0.0
 10
176.6817335985345
 20
61.81315271584107
 30
0.0
 10
176.6307667371867
 20
61.88137810269077
 30
0.0
 10
176.5451390267266
 20
61.95483510257297
 30
0.0
 10
176.4656610456076
 20
61.98190129733322
 30
0.0
 10
176.4126118390318
 20
61.99996718346721
 30
0.0
  0
SPLINE
  5
1C7
330
1F
100
AcDbEntity
  8
0
  6
SLD-Durchgehend
 62
     8
370
     0
100
AcDbSpline
210
0.0
220
0.0
230
1.0
 70
     8
 71
     3
 72
    14
 73
    10
 74
     0
 42
0.000000001
 43
0.00000001
 40
0.0
 40
0.0
 40
0.0
 40
0.0
 40
0.2495351751649653
 40
0.3746229078576837
 40
0.4996658421046763
 40
0.6247026696482328
 40
0.7497154030953247
 40
0.8747686972528976
 40
1.0
 40
1.0
 40
1.0
 40
1.0
 10
176.4126118390318
 20
61.99996718346721
 30
0.0
 10
176.3591910503507
 20
62.01026910338081
 30
0.0
 10
176.278991330281
 20
62.02573520026272
 30
0.0
 10
176.169426835202
 20
62.00556307075595
 30
0.0
 10
176.0918807469051
 20
61.9716780825542
 30
0.0
 10
176.0209600471432
 20
61.92248920352863
 30
0.0
 10
175.9636050106101
 20
61.85595046638312
 30
0.0
 10
175.9195873428516
 20
61.77903157094912
 30
0.0
 10
175.9015956541255
 20
61.72286354993778
 30
0.0
 10
175.8925934116957
 20
61.69475956538992
 30
0.0
  0
SPLINE
  5
1C8
330
1F
100
AcDbEntity
  8
0
  6
SLD-Durchgehend
 62
     8
370
     0
100
AcDbSpline
210
0.0
220
0.0
230
1.0
 70
     8
 71
     3
 72
    14
 73
    10
 74
     0
 42
0.000000001
 43
0.00000001
 40
0.0
 40
0.0
 40
0.0
 40
0.0
 40
0.2493949794310382
 40
0.3740751808057317
 40
0.4994433991331111
 40
0.6239056955386466
 40
0.7496093191047022
 40
0.874724856550951
 40
1.0
 40
1.0
 40
1.0
 40
1.0
 10
175.8925934116957
 20
61.69475956538992
 30
0.0
 10
175.8808157668589
 20
61.63566103032976
 30
0.0
 10
175.8631501160433
 20
61.5470173245165
 30
0.0
 10
175.8849511321109
 20
61.43004259711221
 30
0.0
 10
175.9192642076958
 20
61.34998767785363
 30
0.0
 10
175.9692999707923
 20
61.28010811291037
 30
0.0
 10
176.0324122833686
 20
61.22419452274968
 30
0.0
 10
176.1052703264154
 20
61.18355603380144
 30
0.0
 10
176.1575956293736
 20
61.16718648422673
 30
0.0
 10
176.1837749576564
 20
61.15899649223566
 30
0.0
  0
SPLINE
  5
1C9
330
1F
100
AcDbEntity
  8
0
  6
SLD-Durchgehend
 62
     8
370
     0
100
AcDbSpline
210
0.0
220
0.0
230
1.0
 70
     8
 71
     3
 72
    13
 73
     9
 74
     0
 42
0.000000001
 43
0.00000001
 40
0.0
 40
0.0
 40
0.0
 40
0.0
 40
0.2501994119374944
 40
0.4994697309769772
 40
0.624116345456303
 40
0.7508787772629042
 40
0.875340408077913
 40
1.0
 40
1.0
 40
1.0
 40
1.0
 10
177.6557677696389
 20
60.65272829902312
 30
0.0
 10
177.7285388257166
 20
60.6372108557573
 30
0.0
 10
177.8738107091339
 20
60.60623359184846
 30
0.0
 10
178.0633721685743
 20
60.6434435891495
 30
0.0
 10
178.1962468389407
 20
60.72317032891461
 30
0.0
 10
178.2833297101192
 20
60.80420859698574
 30
0.0
 10
178.349953215115
 20
60.90648019644619
 30
0.0
 10
178.3755652068849
 20
60.98309962401314
 30
0.0
 10
178.3883813788966
 20
61.02143978013818
 30
0.0
  0
SPLINE
  5
1CA
330
1F
100
AcDbEntity
  8
0
  6
SLD-Durchgehend
 62
     8
370
     0
100
AcDbSpline
210
0.0
220
0.0
230
1.0
 70
     8
 71
     3
 72
    13
 73
     9
 74
     0
 42
0.000000001
 43
0.00000001
 40
0.0
 40
0.0
 40
0.0
 40
0.0
 40
0.1251238228567783
 40
0.2502029773829458
 40
0.3743349497207354
 40
0.5004870360226564
 40
0.7497097508600916
 40
0.9999999999999999
 40
0.9999999999999999
 40
0.9999999999999999
 40
0.9999999999999999
 10
178.3883813788966
 20
61.02143978013818
 30
0.0
 10
178.3970218672809
 20
61.06028558230918
 30
0.0
 10
178.4142997594556
 20
61.1379633189712
 30
0.0
 10
178.4082407040378
 20
61.25671456032772
 30
0.0
 10
178.3755151170462
 20
61.36809292047931
 30
0.0
 10
178.3010326316691
 20
61.49953882408774
 30
0.0
 10
178.1565973278068
 20
61.62123357543732
 30
0.0
 10
178.018184785358
 20
61.66611363847668
 30
0.0
 10
177.9488306099273
 20
61.68860162771743
 30
0.0
  0
SPLINE
  5
1CB
330
1F
100
AcDbEntity
  8
0
  6
SLD-Durchgehend
 62
     8
370
     0
100
AcDbSpline
210
0.0
220
0.0
230
1.0
 70
     8
 71
     3
 72
    15
 73
    11
 74
     0
 42
0.000000001
 43
0.00000001
 40
0.0
 40
0.0
 40
0.0
 40
0.0
 40
0.2496789266679405
 40
0.3772425370245847
 40
0.4997978673843738
 40
0.6290470224643931
 40
0.749785536937077
 40
0.8747911274497259
 40
0.9373815502525071
 40
1.0
 40
1.0
 40
1.0
 40
1.0
 10
177.9488306099273
 20
61.68860162771743
 30
0.0
 10
177.8791697176732
 20
61.70248080903658
 30
0.0
 10
177.7739183371261
 20
61.72345101121797
 30
0.0
 10
177.6302651894103
 20
61.70277470928173
 30
0.0
 10
177.5257818399353
 20
61.66390114947088
 30
0.0
 10
177.4311065118842
 20
61.60499162275146
 30
0.0
 10
177.3492768364975
 20
61.52533325224189
 30
0.0
 10
177.2986769686265
 20
61.44472776646577
 30
0.0
 10
177.2678602005608
 20
61.37420297534389
 30
0.0
 10
177.2569795027295
 20
61.33726045146383
 30
0.0
 10
177.2515379360379
 20
61.31878505488839
 30
0.0
  0
SPLINE
  5
1CC
330
1F
100
AcDbEntity
  8
0
  6
SLD-Durchgehend
 62
     8
370
     0
100
AcDbSpline
210
0.0
220
0.0
230
1.0
 70
     8
 71
     3
 72
    13
 73
     9
 74
     0
 42
0.000000001
 43
0.00000001
 40
0.0
 40
0.0
 40
0.0
 40
0.0
 40
0.2492304486055561
 40
0.3742688569688063
 40
0.4993834841995101
 40
0.7492767693192233
 40
0.8745984548103167
 40
0.9999999999999999
 40
0.9999999999999999
 40
0.9999999999999999
 40
0.9999999999999999
 10
177.2515379360379
 20
61.31878505488839
 30
0.0
 10
177.236950290898
 20
61.24311421668551
 30
0.0
 10
177.2150440539075
 20
61.12947947310372
 30
0.0
 10
177.2541958217905
 20
60.98286491188886
 30
0.0
 10
177.3279891543193
 20
60.85599253675443
 30
0.0
 10
177.4346284993416
 20
60.75742531690166
 30
0.0
 10
177.5556571084695
 20
60.68446782301727
 30
0.0
 10
177.6223904640052
 20
60.66331038669133
 30
0.0
 10
177.6557677696389
 20
60.65272829902312
 30
0.0
  0
SPLINE
  5
1CD
330
1F
100
AcDbEntity
  8
0
  6
SLD-Durchgehend
 62
     8
370
     0
100
AcDbSpline
210
0.0
220
0.0
230
1.0
 70
     8
 71
     3
 72
    11
 73
     7
 74
     0
 42
0.000000001
 43
0.00000001
 40
0.0
 40
0.0
 40
0.0
 40
0.0
 40
0.2499167135523637
 40
0.4994484392671918
 40
0.7491672653088607
 40
1.0
 40
1.0
 40
1.0
 40
1.0
 10
176.9310849568988
 20
64.62558464422
 30
0.0
 10
176.9161717931904
 20
64.57575075045776
 30
0.0
 10
176.8863684389737
 20
64.47615973027997
 30
0.0
 10
176.910963135854
 20
64.32481145104343
 30
0.0
 10
176.9988704217734
 20
64.20698954458678
 30
0.0
 10
177.0777121047304
 20
64.15100320235645
 30
0.0
 10
177.1172206718694
 20
64.12294773628932
 30
0.0
  0
SPLINE
  5
1CE
330
1F
100
AcDbEntity
  8
0
  6
SLD-Durchgehend
 62
     8
370
     0
100
AcDbSpline
210
0.0
220
0.0
230
1.0
 70
     8
 71
     3
 72
    10
 73
     6
 74
     0
 42
0.000000001
 43
0.00000001
 40
0.0
 40
0.0
 40
0.0
 40
0.0
 40
0.3291461172291316
 40
0.6620625713460031
 40
1.0
 40
1.0
 40
1.0
 40
1.0
 10
177.1172206718694
 20
64.12294773628932
 30
0.0
 10
177.2022632030198
 20
64.07791438859833
 30
0.0
 10
177.3733224192766
 20
63.987331840581
 30
0.0
 10
177.6553191862138
 20
63.89459432148335
 30
0.0
 10
177.8469050373284
 20
63.8398281078175
 30
0.0
 10
177.9434149205607
 20
63.81224005340108
 30
0.0
  0
SPLINE
  5
1CF
330
1F
100
AcDbEntity
  8
0
  6
SLD-Durchgehend
 62
     8
370
     0
100
AcDbSpline
210
0.0
220
0.0
230
1.0
 70
     8
 71
     3
 72
    13
 73
     9
 74
     0
 42
0.000000001
 43
0.00000001
 40
0.0
 40
0.0
 40
0.0
 40
0.0
 40
0.5006352861117027
 40
0.6257764775274977
 40
0.7507901858644103
 40
0.813225632282738
 40
0.8756967026565294
 40
1.0
 40
1.0
 40
1.0
 40
1.0
 10
177.9434149205607
 20
63.81224005340108
 30
0.0
 10
178.1833237720112
 20
63.74513683827042
 30
0.0
 10
178.4832013878188
 20
63.66126018242905
 30
0.0
 10
178.8658696473967
 20
63.65578871765151
 30
0.0
 10
179.0282691634166
 20
63.68227039534916
 30
0.0
 10
179.1511476794555
 20
63.73724505140478
 30
0.0
 10
179.2564230204723
 20
63.82535001145923
 30
0.0
 10
179.3035339995203
 20
63.91356990894814
 30
0.0
 10
179.334887606058
 20
63.97228259143881
 30
0.0
  0
SPLINE
  5
1D0
330
1F
100
AcDbEntity
  8
0
  6
SLD-Durchgehend
 62
     8
370
     0
100
AcDbSpline
210
0.0
220
0.0
230
1.0
 70
     8
 71
     3
 72
    11
 73
     7
 74
     0
 42
0.000000001
 43
0.00000001
 40
0.0
 40
0.0
 40
0.0
 40
0.0
 40
0.2499397639196231
 40
0.499412312537484
 40
0.749142538804625
 40
1.0
 40
1.0
 40
1.0
 40
1.0
 10
179.334887606058
 20
63.97228259143881
 30
0.0
 10
179.3499887216097
 20
64.02194586337656
 30
0.0
 10
179.3801627240224
 20
64.1211795711214
 30
0.0
 10
179.3573031061943
 20
64.26992550607272
 30
0.0
 10
179.2713567932433
 20
64.38547018872478
 30
0.0
 10
179.1933044817258
 20
64.44041787107243
 30
0.0
 10
179.1541904459672
 20
64.467953578477
 30
0.0
  0
SPLINE
  5
1D1
330
1F
100
AcDbEntity
  8
0
  6
SLD-Durchgehend
 62
     8
370
     0
100
AcDbSpline
210
0.0
220
0.0
230
1.0
 70
     8
 71
     3
 72
    10
 73
     6
 74
     0
 42
0.000000001
 43
0.00000001
 40
0.0
 40
0.0
 40
0.0
 40
0.0
 40
0.3284850649004742
 40
0.661821816945933
 40
1.0
 40
1.0
 40
1.0
 40
1.0
 10
179.1541904459672
 20
64.467953578477
 30
0.0
 10
179.0702093185637
 20
64.51214482232776
 30
0.0
 10
178.9010066720318
 20
64.60118000968788
 30
0.0
 10
178.6203765430539
 20
64.6929609820673
 30
0.0
 10
178.4293082920845
 20
64.7475249732286
 30
0.0
 10
178.3330853928238
 20
64.77500366421016
 30
0.0
  0
SPLINE
  5
1D2
330
1F
100
AcDbEntity
  8
0
  6
SLD-Durchgehend
 62
     8
370
     0
100
AcDbSpline
210
0.0
220
0.0
230
1.0
 70
     8
 71
     3
 72
    13
 73
     9
 74
     0
 42
0.000000001
 43
0.00000001
 40
0.0
 40
0.0
 40
0.0
 40
0.0
 40
0.5006604683297626
 40
0.6257928553026048
 40
0.7507601793055846
 40
0.8132379700692188
 40
0.8757070317897782
 40
1.0
 40
1.0
 40
1.0
 40
1.0
 10
178.3330853928238
 20
64.77500366421016
 30
0.0
 10
178.0929272169737
 20
64.84271211071828
 30
0.0
 10
177.7927451972293
 20
64.92734324249064
 30
0.0
 10
177.4070065131884
 20
64.93404455512555
 30
0.0
 10
177.2426837484798
 20
64.91068568474141
 30
0.0
 10
177.1184329775112
 20
64.85701636459956
 30
0.0
 10
177.0104595114715
 20
64.7721203887603
 30
0.0
 10
176.9628018527763
 20
64.68413815644986
 30
0.0
 10
176.9310849568988
 20
64.62558464422
 30
0.0
  0
LWPOLYLINE
  5
1D3
330
1F
100
AcDbEntity
  8
0
  6
SLD-Durchgehend
 62
     8
370
     0
100
AcDbPolyline
 90
       11
 70
   128
 43
0.0
 10
129.0255495524
 20
70.5604411223
 10
129.0427350845
 20
69.9849913019
 10
129.0940969602
 20
69.4496087451
 10
129.1790530464
 20
68.9603593384
 10
129.2966407517
 20
68.5227864848
 10
129.4455280372
 20
68.1418486068
 10
129.6240279048
 20
67.8218615065
 10
129.8301175216
 20
67.5664503741
 10
130.0614621253
 20
67.3785096553
 10
130.3154405229
 20
67.2601685986
 10
130.3543459376
 20
67.2487767788
  0
LWPOLYLINE
  5
1D4
330
1F
100
AcDbEntity
  8
0
  6
SLD-Durchgehend
 62
     8
370
     0
100
AcDbPolyline
 90
       22
 70
   128
 43
0.0
 10
133.7434899705
 20
79.799021516
 10
133.668112133
 20
79.8149509588
 10
133.3856502134
 20
79.8266291038
 10
133.088157509
 20
79.7668648922
 10
132.7790049736
 20
79.6363353784
 10
132.4616951854
 20
79.4365193191
 10
132.1398235282
 20
79.1696811044
 10
131.8170368911
 20
78.8388437529
 10
131.4969925767
 20
78.4477557228
 10
131.1833168466
 20
78.0008488554
 10
130.8795637481
 20
77.5031859472
 10
130.5891749369
 20
76.9604066347
 10
130.3154405229
 20
76.3786599071
 10
130.0614621253
 20
75.7645374462
 10
129.8301175216
 20
75.1249978766
 10
129.6240279048
 20
74.4672871763
 10
129.4455280372
 20
73.79885739
 10
129.2966407517
 20
73.127282402
 10
129.1790530464
 20
72.4601711381
 10
129.0940969602
 20
71.8050822423
 10
129.0427350845
 20
71.1694381549
 10
129.0255495524
 20
70.5604411223
  0
LINE
  5
1D5
330
1F
100
AcDbEntity
  8
0
  6
SLD-Durchgehend
 62
     8
370
     0
100
AcDbLine
 10
127.9999371637
 20
71.9094423933
 30
0.0
 11
128.8931473753
 21
71.666686997
 31
0.0
  0
LINE
  5
1D6
330
1F
100
AcDbEntity
  8
0
  6
SLD-Durchgehend
 62
     8
370
     0
100
AcDbLine
 10
129.0777239868
 20
76.3900646229
 30
0.0
 11
127.9999371637
 21
71.9094423933
 31
0.0
  0
LINE
  5
1D7
330
1F
100
AcDbEntity
  8
0
  6
SLD-Durchgehend
 62
     8
370
     0
100
AcDbLine
 10
130.0026337424
 20
76.1386939698
 30
0.0
 11
129.0777239868
 21
76.3900646229
 31
0.0
  0
ARC
  5
1D8
330
1F
100
AcDbEntity
  8
0
  6
SLD-Durchgehend
 62
     8
370
     0
100
AcDbCircle
 10
129.1888539638
 20
77.0086379943
 30
0.0
 40
0.6284766404304222
100
AcDbArc
 50
241.4363605154
 51
259.8151581507
  0
ARC
  5
1D9
330
1F
100
AcDbEntity
  8
0
  6
SLD-Durchgehend
 62
     8
370
     0
100
AcDbCircle
 10
128.1110664179
 20
72.5280130887
 30
0.0
 40
0.6284738788198339
100
AcDbArc
 50
241.4362984873
 51
259.8151798744
  0
LINE
  5
1DA
330
1F
100
AcDbEntity
  8
0
  6
SLD-Durchgehend
 62
     8
370
     0
100
AcDbLine
 10
129.2124473849
 20
76.6644200299
 30
0.0
 11
130.1256674944
 21
76.4162263721
 31
0.0
  0
ARC
  5
1DB
330
1F
100
AcDbEntity
  8
0
  6
SLD-Durchgehend
 62
     8
370
     0
100
AcDbCircle
 10
129.6643671632
 20
76.2722469319
 30
0.0
 40
0.5983571047531274
100
AcDbArc
 50
139.0487639686
 51
168.6441473081
  0
LINE
  5
1DC
330
1F
100
AcDbEntity
  8
0
  6
SLD-Durchgehend
 62
     8
370
     0
100
AcDbLine
 10
131.3680210311
 20
78.7683259907
 30
0.0
 11
129.2124473849
 21
76.6644200299
 31
0.0
  0
LINE
  5
1DD
330
1F
100
AcDbEntity
  8
0
  6
SLD-Durchgehend
 62
     8
370
     0
100
AcDbLine
 10
131.5305954109
 20
78.7241417578
 30
0.0
 11
131.3680210311
 21
78.7683259907
 31
0.0
  0
LINE
  5
1DE
330
1F
100
AcDbEntity
  8
0
  6
SLD-Durchgehend
 62
     8
370
     0
100
AcDbLine
 10
128.8710112885
 20
71.3869806639
 30
0.0
 11
127.9999371637
 21
71.6237199462
 31
0.0
  0
ARC
  5
1DF
330
1F
100
AcDbEntity
  8
0
  6
SLD-Durchgehend
 62
     8
370
     0
100
AcDbCircle
 10
128.4667050958
 20
71.7665811697
 30
0.0
 40
0.4881409955897792
100
AcDbArc
 50
162.9824956145
 51
197.0175043855
  0
ARC
  5
1E0
330
1F
100
AcDbEntity
  8
0
  6
SLD-Durchgehend
 62
     8
370
     0
100
AcDbCircle
 10
129.1363510229
 20
76.4418670009
 30
0.0
 40
0.2352031186473986
100
AcDbArc
 50
71.1231783026
 51
131.7867983638
  0
LINE
  5
1E1
330
1F
100
AcDbEntity
  8
0
  6
SLD-Durchgehend
 62
     8
370
     0
100
AcDbLine
 10
127.9999371637
 20
71.6237199462
 30
0.0
 11
128.9239749914
 21
69.5860483198
 31
0.0
  0
ARC
  5
1E2
330
1F
100
AcDbEntity
  8
0
  6
SLD-Durchgehend
 62
     8
370
     0
100
AcDbCircle
 10
131.291924669
 20
78.5457729617
 30
0.0
 40
0.2352031186471295
100
AcDbArc
 50
71.1231783025
 51
131.7867983638
  0
ARC
  5
1E3
330
1F
100
AcDbEntity
  8
0
  6
SLD-Durchgehend
 62
     8
370
     0
100
AcDbCircle
 10
128.0596713016
 20
71.8701475156
 30
0.0
 40
0.2535640238232089
100
AcDbArc
 50
205.6442353989
 51
256.3742961668
  0
LWPOLYLINE
  5
1E4
330
1F
100
AcDbEntity
  8
0
  6
SLD-Durchgehend
 62
     8
370
     0
100
AcDbPolyline
 90
        3
 70
   128
 43
0.0
 10
128.9088704958
 20
69.3836934225
 10
128.9366421552
 20
69.3377546481
 10
128.9628371441
 20
69.3092298764
  0
ARC
  5
1E5
330
1F
100
AcDbEntity
  8
0
  6
SLD-Durchgehend
 62
     8
370
     0
100
AcDbCircle
 10
131.4423235907
 20
78.7118906576
 30
0.0
 40
0.0933049687637208
100
AcDbArc
 50
81.9171161503
 51
142.7820879264
  0
ARC
  5
1E6
330
1F
100
AcDbEntity
  8
0
  6
SLD-Durchgehend
 62
     7
370
    15
100
AcDbCircle
 10
111.1420773747
 20
251.6569584525
 30
0.0
 40
0.2000000000000455
100
AcDbArc
 50
270.0
 51
0.0
  0
ARC
  5
1E7
330
1F
100
AcDbEntity
  8
0
  6
SLD-Durchgehend
 62
     7
370
    15
100
AcDbCircle
 10
111.1420773747
 20
262.0569584525
 30
0.0
 40
0.2000000000000455
100
AcDbArc
 50
0.0
 51
90.0
  0
ARC
  5
1E8
330
1F
100
AcDbEntity
  8
0
  6
SLD-Durchgehend
 62
     7
370
    15
100
AcDbCircle
 10
111.0420773747
 20
262.0569584525
 30
0.0
 40
0.2000000000000455
100
AcDbArc
 50
90.0
 51
180.0
  0
ARC
  5
1E9
330
1F
100
AcDbEntity
  8
0
  6
SLD-Durchgehend
 62
     7
370
    15
100
AcDbCircle
 10
111.0420773747
 20
251.6569584525
 30
0.0
 40
0.2000000000000455
100
AcDbArc
 50
180.0
 51
270.0
  0
LINE
  5
1EA
330
1F
100
AcDbEntity
  8
0
  6
SLD-Durchgehend
 62
     7
370
    15
100
AcDbLine
 10
111.0420766028
 20
251.4569583124
 30
0.0
 11
111.1420782956
 21
251.4569583124
 31
0.0
  0
LINE
  5
1EB
330
1F
100
AcDbEntity
  8
0
  6
SLD-Durchgehend
 62
     7
370
    15
100
AcDbLine
 10
111.1420782956
 20
262.2569585926
 30
0.0
 11
111.0420766028
 21
262.2569585926
 31
0.0
  0
ARC
  5
1EC
330
1F
100
AcDbEntity
  8
0
  6
SLD-Durchgehend
 62
     7
370
    15
100
AcDbCircle
 10
110.6420773747
 20
261.7409850288
 30
0.0
 40
0.2000000000000028
100
AcDbArc
 50
274.7636416907
 51
0.0
  0
ARC
  5
1ED
330
1F
100
AcDbEntity
  8
0
  6
SLD-Durchgehend
 62
     7
370
    15
100
AcDbCircle
 10
110.6420773747
 20
251.9729318762
 30
0.0
 40
0.2000000000000281
100
AcDbArc
 50
0.0
 51
85.2363583093
  0
LINE
  5
1EE
330
1F
100
AcDbEntity
  8
0
  6
SLD-Durchgehend
 62
     7
370
    15
100
AcDbLine
 10
110.6586864891
 20
261.5416758469
 30
0.0
 11
109.6967532041
 21
261.4615145846
 31
0.0
  0
LINE
  5
1EF
330
1F
100
AcDbEntity
  8
0
  6
SLD-Durchgehend
 62
     7
370
    15
100
AcDbLine
 10
109.6967532041
 20
252.2524023204
 30
0.0
 11
110.6586864891
 21
252.1722410581
 31
0.0
  0
LINE
  5
1F0
330
1F
100
AcDbEntity
  8
0
  6
SLD-Durchgehend
 62
     7
370
    15
100
AcDbLine
 10
111.3420779558
 20
262.0569584667
 30
0.0
 11
111.3420779558
 21
251.6569584384
 31
0.0
  0
LINE
  5
1F1
330
1F
100
AcDbEntity
  8
0
  6
SLD-Durchgehend
 62
     7
370
    15
100
AcDbLine
 10
110.8420769425
 20
251.6569584384
 30
0.0
 11
110.8420769425
 21
262.0569584667
 31
0.0
  0
LINE
  5
1F2
330
1F
100
AcDbEntity
  8
0
  6
SLD-Durchgehend
 62
     7
370
    15
100
AcDbLine
 10
93.9548044091
 20
240.2109103984
 30
0.0
 11
93.9504473328
 21
240.4108616299
 31
0.0
  0
SPLINE
  5
1F3
330
1F
100
AcDbEntity
  8
0
  6
SLD-Durchgehend
 62
     7
370
    15
100
AcDbSpline
210
0.0
220
0.0
230
1.0
 70
     8
 71
     3
 72
    12
 73
     8
 74
     0
 42
0.000000001
 43
0.00000001
 40
0.0
 40
0.0
 40
0.0
 40
0.0
 40
0.2146724875812609
 40
0.4293449620849273
 40
0.6440087558177348
 40
0.8586375246596242
 40
1.0
 40
1.0
 40
1.0
 40
1.0
 10
93.95044733280149
 20
240.4108616298869
 30
0.0
 10
93.9559732530867
 20
240.4109777658476
 30
0.0
 10
93.9670250933205
 20
240.4112100377621
 30
0.0
 10
94.05320264897894
 20
240.4133012937412
 30
0.0
 10
94.18000452554391
 20
240.4172720017692
 30
0.0
 10
94.3205049644207
 20
240.4228438557568
 30
0.0
 10
94.41331044396311
 20
240.4275036057672
 30
0.0
 10
94.45016307033431
 20
240.4293539709284
 30
0.0
  0
SPLINE
  5
1F4
330
1F
100
AcDbEntity
  8
0
  6
SLD-Durchgehend
 62
     7
370
    15
100
AcDbSpline
210
0.0
220
0.0
230
1.0
 70
     8
 71
     3
 72
    12
 73
     8
 74
     0
 42
0.000000001
 43
0.00000001
 40
0.0
 40
0.0
 40
0.0
 40
0.0
 40
0.2146667828536584
 40
0.4293361328080789
 40
0.6439553093714586
 40
0.8585961358956552
 40
1.0
 40
1.0
 40
1.0
 40
1.0
 10
94.4545221256448
 20
240.2293096071913
 30
0.0
 10
94.39837859469283
 20
240.2265685382084
 30
0.0
 10
94.28609086139436
 20
240.2210863674635
 30
0.0
 10
94.13634487891066
 20
240.2156999971017
 30
0.0
 10
94.02330537265551
 20
240.2124571885428
 30
0.0
 10
93.9633546316299
 20
240.2110941392188
 30
0.0
 10
93.95723488050434
 20
240.2109626282519
 30
0.0
 10
93.9548044090515
 20
240.2109103984072
 30
0.0
  0
LINE
  5
1F5
330
1F
100
AcDbEntity
  8
0
  6
SLD-Durchgehend
 62
     7
370
    15
100
AcDbLine
 10
93.5920773747
 20
240.4069575257
 30
0.0
 11
93.5920773747
 21
240.2069578654
 31
0.0
  0
SPLINE
  5
1F6
330
1F
100
AcDbEntity
  8
0
  6
SLD-Durchgehend
 62
     7
370
    15
100
AcDbSpline
210
0.0
220
0.0
230
1.0
 70
     8
 71
     3
 72
    12
 73
     8
 74
     0
 42
0.000000001
 43
0.00000001
 40
0.0
 40
0.0
 40
0.0
 40
0.0
 40
0.2146660789465941
 40
0.4293351940949827
 40
0.6439520777770601
 40
0.858592801247084
 40
1.0
 40
1.0
 40
1.0
 40
1.0
 10
93.09207735093143
 20
240.4145589805081
 30
0.0
 10
93.14826679632334
 20
240.413022609626
 30
0.0
 10
93.26064648184149
 20
240.4099498461316
 30
0.0
 10
93.41047337338298
 20
240.4078051675245
 30
0.0
 10
93.52355776772987
 20
240.4070127336798
 30
0.0
 10
93.58352449589535
 20
240.4069577668724
 30
0.0
 10
93.58964612293657
 20
240.4069575942231
 30
0.0
 10
93.59207737468016
 20
240.4069575256541
 30
0.0
  0
SPLINE
  5
1F7
330
1F
100
AcDbEntity
  8
0
  6
SLD-Durchgehend
 62
     7
370
    15
100
AcDbSpline
210
0.0
220
0.0
230
1.0
 70
     8
 71
     3
 72
    12
 73
     8
 74
     0
 42
0.000000001
 43
0.00000001
 40
0.0
 40
0.0
 40
0.0
 40
0.0
 40
0.2146729289754991
 40
0.4293458575034192
 40
0.644010232858577
 40
0.8586408718362127
 40
1.0
 40
1.0
 40
1.0
 40
1.0
 10
93.59207737468017
 20
240.2069578654005
 30
0.0
 10
93.58655023377712
 20
240.2069534924469
 30
0.0
 10
93.57549595198252
 20
240.2069447465396
 30
0.0
 10
93.48929331143695
 20
240.2071556243646
 30
0.0
 10
93.36243434540586
 20
240.2083479396656
 30
0.0
 10
93.22184631471278
 20
240.2108272461368
 30
0.0
 10
93.12896097077257
 20
240.2134332419686
 30
0.0
 10
93.09207735093143
 20
240.2144680506422
 30
0.0
  0
ARC
  5
1F8
330
1F
100
AcDbEntity
  8
0
  6
SLD-Durchgehend
 62
     7
370
    15
100
AcDbCircle
 10
93.5920773747
 20
256.8569584525
 30
0.0
 40
16.65
100
AcDbArc
 50
234.1752256313
 51
268.2791473096
  0
ARC
  5
1F9
330
1F
100
AcDbEntity
  8
0
  6
SLD-Durchgehend
 62
     7
370
    15
100
AcDbCircle
 10
93.5920773747
 20
256.8569584525
 30
0.0
 40
16.65000000000001
100
AcDbArc
 50
54.1752256313
 51
125.8247743687
  0
ARC
  5
1FA
330
1F
100
AcDbEntity
  8
0
  6
SLD-Durchgehend
 62
     7
370
    15
100
AcDbCircle
 10
93.5920773747
 20
256.8569584525
 30
0.0
 40
16.64999999999999
100
AcDbArc
 50
272.969163338
 51
305.8247743687
  0
CIRCLE
  5
1FB
330
1F
100
AcDbEntity
  8
0
  6
SLD-Durchgehend
 62
     7
370
    15
100
AcDbCircle
 10
90.8420773747
 20
256.8569584525
 30
0.0
 40
4.249999999999972
  0
CIRCLE
  5
1FC
330
1F
100
AcDbEntity
  8
0
  6
SLD-Durchgehend
 62
     7
370
    15
100
AcDbCircle
 10
81.8420773747
 20
256.8569584525
 30
0.0
 40
1.499999999999972
  0
CIRCLE
  5
1FD
330
1F
100
AcDbEntity
  8
0
  6
SLD-Durchgehend
 62
     7
370
    15
100
AcDbCircle
 10
99.8420773747
 20
256.8569584525
 30
0.0
 40
1.499999999999972
  0
LINE
  5
1FE
330
1F
100
AcDbEntity
  8
0
  6
SLD-Durchgehend
 62
     7
370
    15
100
AcDbLine
 10
83.6768111887
 20
243.3569581023
 30
0.0
 11
103.5073435607
 21
243.3569581023
 31
0.0
  0
ARC
  5
1FF
330
1F
100
AcDbEntity
  8
0
  6
SLD-Durchgehend
 62
     7
370
    15
100
AcDbCircle
 10
93.5920773747
 20
256.8569584525
 30
0.0
 40
16.75000000000004
100
AcDbArc
 50
126.2959478635
 51
233.7040521365
  0
LINE
  5
200
330
1F
100
AcDbEntity
  8
0
  6
SLD-Durchgehend
 62
     7
370
    15
100
AcDbLine
 10
103.5073435607
 20
270.3569588027
 30
0.0
 11
83.6768111887
 21
270.3569588027
 31
0.0
  0
CIRCLE
  5
201
330
1F
100
AcDbEntity
  8
0
  6
SLD-Durchgehend
 62
     7
370
    15
100
AcDbCircle
 10
90.8420773747
 20
256.8569584525
 30
0.0
 40
12.39999999999999
  0
ARC
  5
202
330
1F
100
AcDbEntity
  8
0
  6
SLD-Durchgehend
 62
     7
370
    15
100
AcDbCircle
 10
93.5920773747
 20
256.8569584525
 30
0.0
 40
16.75000000000005
100
AcDbArc
 50
306.2959478635
 51
53.7040521365
  0
ARC
  5
203
330
1F
100
AcDbEntity
  8
0
  6
SLD-Durchgehend
 62
     7
370
    15
100
AcDbCircle
 10
93.5920773747
 20
256.8569584525
 30
0.0
 40
16.44999999999998
100
AcDbArc
 50
235.151788612
 51
304.848211388
  0
ARC
  5
204
330
1F
100
AcDbEntity
  8
0
  6
SLD-Durchgehend
 62
     7
370
    15
100
AcDbCircle
 10
93.5920773747
 20
256.8569584525
 30
0.0
 40
16.45000000000005
100
AcDbArc
 50
55.151788612
 51
124.848211388
  0
ARC
  5
205
330
1F
100
AcDbEntity
  8
0
  6
SLD-Durchgehend
 62
     7
370
    15
100
AcDbCircle
 10
93.5920773747
 20
256.8569584525
 30
0.0
 40
16.75000000000009
100
AcDbArc
 50
53.7040521365
 51
126.2959478635
  0
ARC
  5
206
330
1F
100
AcDbEntity
  8
0
  6
SLD-Durchgehend
 62
     7
370
    15
100
AcDbCircle
 10
93.5920773747
 20
256.8569584525
 30
0.0
 40
16.74999999999999
100
AcDbArc
 50
233.7040521365
 51
306.2959478635
  0
LINE
  5
207
330
1F
100
AcDbEntity
  8
0
  6
SLD-Durchgehend
 62
     8
370
     0
100
AcDbLine
 10
111.1420782956
 20
251.4569583124
 30
0.0
 11
111.1420782956
 21
262.2569585926
 31
0.0
  0
LINE
  5
208
330
1F
100
AcDbEntity
  8
0
  6
SLD-Durchgehend
 62
     8
370
     0
100
AcDbLine
 10
111.0420766028
 20
262.2569585926
 30
0.0
 11
111.0420766028
 21
251.4569583124
 31
0.0
  0
LINE
  5
209
330
1F
100
AcDbEntity
  8
0
  6
SLD-Durchgehend
 62
     8
370
     0
100
AcDbLine
 10
110.6586864891
 20
252.1722410581
 30
0.0
 11
110.6586864891
 21
261.5416758469
 31
0.0
  0
LINE
  5
20A
330
1F
100
AcDbEntity
  8
0
  6
SLD-Durchgehend
 62
     8
370
     0
100
AcDbLine
 10
94.4501630703
 20
240.4293539709
 30
0.0
 11
94.4545221256
 21
240.2293096072
 31
0.0
  0
LINE
  5
20B
330
1F
100
AcDbEntity
  8
0
  6
SLD-Durchgehend
 62
     8
370
     0
100
AcDbLine
 10
93.0920773509
 20
240.2144680506
 30
0.0
 11
93.0920773509
 21
240.4145589805
 31
0.0
  0
DIMENSION
  5
20C
330
1F
100
AcDbEntity
  8
0
  6
SLD-Durchgehend
 62
     7
370
     0
100
AcDbDimension
  2
_D
 10
72.2968235444
 20
255.3569584525
 30
0.0
 11
72.2968235444
 21
256.8569584525
 31
0.0
 70
   160
  1
%%c<>
 71
     2
 42
-1.0
  3
SLDDIMSTYLE0
100
AcDbAlignedDimension
 13
81.8420773747
 23
258.3569584525
 33
0.0
 14
81.8420773747
 24
255.3569584525
 34
0.0
 50
90.0
100
AcDbRotatedDimension
  0
DIMENSION
  5
21A
330
1F
100
AcDbEntity
  8
0
  6
SLD-Durchgehend
 62
     7
370
     0
100
AcDbDimension
  2
_D_1
 10
62.5889732798
 20
243.3569584525
 30
0.0
 11
62.5889732798
 21
256.8569584525
 31
0.0
 70
   160
  1
SW <>
 71
     2
 42
-1.0
  3
SLDDIMSTYLE1
100
AcDbAlignedDimension
 13
83.6768113672
 23
270.3569584525
 33
0.0
 14
83.6768113672
 24
243.3569584525
 34
0.0
 50
90.0
100
AcDbRotatedDimension
  0
DIMENSION
  5
226
330
1F
100
AcDbEntity
  8
0
  6
SLD-Durchgehend
 62
     7
370
     0
100
AcDbDimension
  2
_D_2
 10
99.8420773747
 20
278.2895221425
 30
0.0
 11
90.8420773747
 21
278.2895221425
 31
0.0
 70
   160
  1
<>
 71
     2
 42
-1.0
  3
SLDDIMSTYLE1
100
AcDbAlignedDimension
 13
81.8420773747
 23
259.3569584525
 33
0.0
 14
99.8420773747
 24
259.3569584525
 34
0.0
100
AcDbRotatedDimension
  0
INSERT
  5
23B
330
1F
100
AcDbEntity
  8
0
  6
SLD-Durchgehend
 62
     7
370
     0
100
AcDbBlockReference
  2
SW_CENTERMARKSYMBOL_0
 10
81.8420773747
 20
256.8569584525
 30
0.0
  0
INSERT
  5
247
330
1F
100
AcDbEntity
  8
0
  6
SLD-Durchgehend
 62
     7
370
     0
100
AcDbBlockReference
  2
SW_CENTERMARKSYMBOL_1
 10
99.8420773747
 20
256.8569584525
 30
0.0
  0
INSERT
  5
253
330
1F
100
AcDbEntity
  8
0
  6
SLD-Durchgehend
 62
     7
370
     0
100
AcDbBlockReference
  2
SW_CENTERMARKSYMBOL_2
 10
93.5920773747
 20
256.8569584525
 30
0.0
  0
INSERT
  5
25F
330
1F
100
AcDbEntity
  8
0
  6
SLD-Durchgehend
 62
     7
370
     0
100
AcDbBlockReference
  2
SW_CENTERMARKSYMBOL_3
 10
90.8420773747
 20
256.8569584525
 30
0.0
  0
ARC
  5
260
330
1F
100
AcDbEntity
  8
0
  6
SLD-Durchgehend
 62
     7
370
     0
100
AcDbCircle
 10
90.8420773747
 20
256.8569584525
 30
0.0
 40
12.50000020116571
100
AcDbArc
 50
75.0
 51
345.0
  0
ARC
  5
261
330
1F
100
AcDbEntity
  8
0
  6
SLD-Durchgehend
 62
     7
370
     0
100
AcDbCircle
 10
90.8420773747
 20
256.8569584525
 30
0.0
 40
12.07999979704618
100
AcDbArc
 50
75.0
 51
345.0
  0
ARC
  5
262
330
1F
100
AcDbEntity
  8
0
  6
SLD-Durchgehend
 62
     7
370
     0
100
AcDbCircle
 10
90.8420773747
 20
256.8569584525
 30
0.0
 40
4.999999903142441
100
AcDbArc
 50
75.0
 51
345.0
  0
LINE
  5
263
330
1F
100
AcDbEntity
  8
0
  6
SLD-Durchgehend
 62
     7
370
    15
100
AcDbLine
 10
110.2420779618
 20
126.1599998435
 30
0.0
 11
110.2420779618
 21
141.1599995083
 31
0.0
  0
LINE
  5
264
330
1F
100
AcDbEntity
  8
0
  6
SLD-Durchgehend
 62
     7
370
    15
100
AcDbLine
 10
76.9420767876
 20
135.041126374
 30
0.0
 11
76.9420767876
 21
126.1599998435
 31
0.0
  0
LINE
  5
265
330
1F
100
AcDbEntity
  8
0
  6
SLD-Durchgehend
 62
     7
370
    15
100
AcDbLine
 10
76.9420767876
 20
138.8844059294
 30
0.0
 11
76.9420767876
 21
135.522394765
 31
0.0
  0
LINE
  5
266
330
1F
100
AcDbEntity
  8
0
  6
SLD-Durchgehend
 62
     7
370
    15
100
AcDbLine
 10
76.9420767876
 20
141.1599995083
 30
0.0
 11
76.9420767876
 21
139.7229222095
 31
0.0
  0
LINE
  5
267
330
1F
100
AcDbEntity
  8
0
  6
SLD-Durchgehend
 62
     7
370
    15
100
AcDbLine
 10
76.9420767876
 20
138.9846572167
 30
0.0
 11
76.9420767876
 21
138.8844059294
 31
0.0
  0
LINE
  5
268
330
1F
100
AcDbEntity
  8
0
  6
SLD-Durchgehend
 62
     7
370
    15
100
AcDbLine
 10
76.9420767876
 20
139.7229222095
 30
0.0
 11
76.9420767876
 21
139.6130484974
 31
0.0
  0
LINE
  5
269
330
1F
100
AcDbEntity
  8
0
  6
SLD-Durchgehend
 62
     7
370
    15
100
AcDbLine
 10
76.9420767876
 20
139.6130484974
 30
0.0
 11
76.9420767876
 21
138.9846572167
 31
0.0
  0
LINE
  5
26A
330
1F
100
AcDbEntity
  8
0
  6
SLD-Durchgehend
 62
     7
370
    15
100
AcDbLine
 10
76.9420767876
 20
135.522394765
 30
0.0
 11
76.9420767876
 21
135.041126374
 31
0.0
  0
LINE
  5
26B
330
1F
100
AcDbEntity
  8
0
  6
SLD-Durchgehend
 62
     7
370
    15
100
AcDbLine
 10
110.3420777919
 20
155.9025508797
 30
0.0
 11
110.3420777919
 21
164.6099997199
 31
0.0
  0
LINE
  5
26C
330
1F
100
AcDbEntity
  8
0
  6
SLD-Durchgehend
 62
     7
370
    15
100
AcDbLine
 10
76.8420769574
 20
164.6099997199
 30
0.0
 11
76.8420769574
 21
141.4100000149
 31
0.0
  0
LINE
  5
26D
330
1F
100
AcDbEntity
  8
0
  6
SLD-Durchgehend
 62
     7
370
    15
100
AcDbLine
 10
110.0420783015
 20
125.9100002682
 30
0.0
 11
110.0420783015
 21
126.1599998435
 31
0.0
  0
LINE
  5
26E
330
1F
100
AcDbEntity
  8
0
  6
SLD-Durchgehend
 62
     7
370
    15
100
AcDbLine
 10
77.1420764478
 20
141.4100000149
 30
0.0
 11
77.1420764478
 21
141.1599995083
 31
0.0
  0
LINE
  5
26F
330
1F
100
AcDbEntity
  8
0
  6
SLD-Durchgehend
 62
     7
370
    15
100
AcDbLine
 10
77.1420764478
 20
126.1599998435
 30
0.0
 11
77.1420764478
 21
125.9100002682
 31
0.0
  0
LINE
  5
270
330
1F
100
AcDbEntity
  8
0
  6
SLD-Durchgehend
 62
     7
370
    15
100
AcDbLine
 10
108.292077549
 20
164.6099997199
 30
0.0
 11
108.292077549
 21
164.8099993801
 31
0.0
  0
LINE
  5
271
330
1F
100
AcDbEntity
  8
0
  6
SLD-Durchgehend
 62
     7
370
    15
100
AcDbLine
 10
78.8920772003
 20
164.8099993801
 30
0.0
 11
78.8920772003
 21
164.6099997199
 31
0.0
  0
LINE
  5
272
330
1F
100
AcDbEntity
  8
0
  6
SLD-Durchgehend
 62
     7
370
    15
100
AcDbLine
 10
76.8420769574
 20
125.9100002682
 30
0.0
 11
76.8420769574
 21
112.91
 31
0.0
  0
LINE
  5
273
330
1F
100
AcDbEntity
  8
0
  6
SLD-Durchgehend
 62
     7
370
    15
100
AcDbLine
 10
110.3420777919
 20
119.4091689287
 30
0.0
 11
110.3420777919
 21
125.9100002682
 31
0.0
  0
LINE
  5
274
330
1F
100
AcDbEntity
  8
0
  6
SLD-Durchgehend
 62
     7
370
    15
100
AcDbLine
 10
110.3420777919
 20
112.91
 30
0.0
 11
110.3420777919
 21
118.4164065382
 31
0.0
  0
ARC
  5
275
330
1F
100
AcDbEntity
  8
0
  6
SLD-Durchgehend
 62
     7
370
    15
100
AcDbCircle
 10
111.0420773747
 20
153.61
 30
0.0
 40
0.2000000000000028
100
AcDbArc
 50
90.0
 51
180.0
  0
ARC
  5
276
330
1F
100
AcDbEntity
  8
0
  6
SLD-Durchgehend
 62
     7
370
    15
100
AcDbCircle
 10
111.0420773747
 20
143.21
 30
0.0
 40
0.2000000000000171
100
AcDbArc
 50
180.0
 51
270.0
  0
LINE
  5
277
330
1F
100
AcDbEntity
  8
0
  6
SLD-Durchgehend
 62
     7
370
    15
100
AcDbLine
 10
111.0420766028
 20
143.0099991596
 30
0.0
 11
111.1420782956
 21
143.0099991596
 31
0.0
  0
LINE
  5
278
330
1F
100
AcDbEntity
  8
0
  6
SLD-Durchgehend
 62
     7
370
    15
100
AcDbLine
 10
111.1420782956
 20
153.8099994397
 30
0.0
 11
111.0420766028
 21
153.8099994397
 31
0.0
  0
ARC
  5
279
330
1F
100
AcDbEntity
  8
0
  6
SLD-Durchgehend
 62
     7
370
    15
100
AcDbCircle
 10
111.1420773747
 20
143.21
 30
0.0
 40
0.2000000000000171
100
AcDbArc
 50
270.0
 51
0.0
  0
ARC
  5
27A
330
1F
100
AcDbEntity
  8
0
  6
SLD-Durchgehend
 62
     7
370
    15
100
AcDbCircle
 10
111.1420773747
 20
153.61
 30
0.0
 40
0.2000000000000028
100
AcDbArc
 50
0.0
 51
90.0
  0
ARC
  5
27B
330
1F
100
AcDbEntity
  8
0
  6
SLD-Durchgehend
 62
     7
370
    15
100
AcDbCircle
 10
110.6420773747
 20
153.2940265763
 30
0.0
 40
0.2000000000000028
100
AcDbArc
 50
274.7636416907
 51
0.0
  0
ARC
  5
27C
330
1F
100
AcDbEntity
  8
0
  6
SLD-Durchgehend
 62
     7
370
    15
100
AcDbCircle
 10
110.6420773747
 20
143.5259734237
 30
0.0
 40
0.2000000000000028
100
AcDbArc
 50
0.0
 51
85.2363583093
  0
LINE
  5
27D
330
1F
100
AcDbEntity
  8
0
  6
SLD-Durchgehend
 62
     7
370
    15
100
AcDbLine
 10
110.6586864891
 20
153.0947176254
 30
0.0
 11
109.2583368274
 21
152.9780229068
 31
0.0
  0
LINE
  5
27E
330
1F
100
AcDbEntity
  8
0
  6
SLD-Durchgehend
 62
     7
370
    15
100
AcDbLine
 10
109.2580052765
 20
143.8420054948
 30
0.0
 11
110.6586864891
 21
143.7252828366
 31
0.0
  0
ARC
  5
27F
330
1F
100
AcDbEntity
  8
0
  6
SLD-Durchgehend
 62
     7
370
    15
100
AcDbCircle
 10
84.3420773747
 20
186.31
 30
0.0
 40
0.5
100
AcDbArc
 50
180.0
 51
270.0
  0
ARC
  5
280
330
1F
100
AcDbEntity
  8
0
  6
SLD-Durchgehend
 62
     7
370
    15
100
AcDbCircle
 10
102.8420773747
 20
186.31
 30
0.0
 40
0.5000000000000142
100
AcDbArc
 50
270.0
 51
0.0
  0
LINE
  5
281
330
1F
100
AcDbEntity
  8
0
  6
SLD-Durchgehend
 62
     7
370
    15
100
AcDbLine
 10
103.3420775758
 20
211.8099977708
 30
0.0
 11
103.3420775758
 21
217.3100014663
 31
0.0
  0
LINE
  5
282
330
1F
100
AcDbEntity
  8
0
  6
SLD-Durchgehend
 62
     7
370
    15
100
AcDbLine
 10
103.3420775758
 20
203.8099964595
 30
0.0
 11
103.3420775758
 21
209.8100011683
 31
0.0
  0
LINE
  5
283
330
1F
100
AcDbEntity
  8
0
  6
SLD-Durchgehend
 62
     7
370
    15
100
AcDbLine
 10
103.3420775758
 20
195.8100025988
 30
0.0
 11
103.3420775758
 21
201.8099998569
 31
0.0
  0
LINE
  5
284
330
1F
100
AcDbEntity
  8
0
  6
SLD-Durchgehend
 62
     7
370
    15
100
AcDbLine
 10
103.3420775758
 20
186.3099982476
 30
0.0
 11
103.3420775758
 21
193.8099985456
 31
0.0
  0
LINE
  5
285
330
1F
100
AcDbEntity
  8
0
  6
SLD-Durchgehend
 62
     7
370
    15
100
AcDbLine
 10
83.8420771735
 20
217.3100014663
 30
0.0
 11
83.8420771735
 21
186.3099982476
 31
0.0
  0
ARC
  5
286
330
1F
100
AcDbEntity
  8
0
  6
SLD-Durchgehend
 62
     7
370
    15
100
AcDbCircle
 10
84.3420773747
 20
217.31
 30
0.0
 40
0.5000000000000142
100
AcDbArc
 50
90.0
 51
180.0
  0
ARC
  5
287
330
1F
100
AcDbEntity
  8
0
  6
SLD-Durchgehend
 62
     7
370
    15
100
AcDbCircle
 10
102.8420773747
 20
217.31
 30
0.0
 40
0.5
100
AcDbArc
 50
0.0
 51
90.0
  0
LINE
  5
288
330
1F
100
AcDbEntity
  8
0
  6
SLD-Durchgehend
 62
     7
370
    15
100
AcDbLine
 10
102.0920778366
 20
209.8100011683
 30
0.0
 11
102.0920778366
 21
211.8099977708
 31
0.0
  0
LINE
  5
289
330
1F
100
AcDbEntity
  8
0
  6
SLD-Durchgehend
 62
     7
370
    15
100
AcDbLine
 10
102.0920778366
 20
201.8099998569
 30
0.0
 11
102.0920778366
 21
203.8099964595
 31
0.0
  0
LINE
  5
28A
330
1F
100
AcDbEntity
  8
0
  6
SLD-Durchgehend
 62
     7
370
    15
100
AcDbLine
 10
102.0920778366
 20
193.8099985456
 30
0.0
 11
102.0920778366
 21
195.8100025988
 31
0.0
  0
LINE
  5
28B
330
1F
100
AcDbEntity
  8
0
  6
SLD-Durchgehend
 62
     7
370
    15
100
AcDbLine
 10
110.3420777919
 20
184.8100026584
 30
0.0
 11
109.342077628
 21
185.8099972343
 31
0.0
  0
LINE
  5
28C
330
1F
100
AcDbEntity
  8
0
  6
SLD-Durchgehend
 62
     7
370
    15
100
AcDbLine
 10
77.8420771214
 20
185.8099972343
 30
0.0
 11
76.8420769574
 21
184.8100026584
 31
0.0
  0
LINE
  5
28D
330
1F
100
AcDbEntity
  8
0
  6
SLD-Durchgehend
 62
     7
370
    15
100
AcDbLine
 10
110.3420777919
 20
164.8099993801
 30
0.0
 11
110.3420777919
 21
184.8100026584
 31
0.0
  0
LINE
  5
28E
330
1F
100
AcDbEntity
  8
0
  6
SLD-Durchgehend
 62
     7
370
    15
100
AcDbLine
 10
76.8420769574
 20
184.8100026584
 30
0.0
 11
76.8420769574
 21
164.8099993801
 31
0.0
  0
LINE
  5
28F
330
1F
100
AcDbEntity
  8
0
  6
SLD-Durchgehend
 62
     7
370
    15
100
AcDbLine
 10
76.9420767876
 20
141.1599995083
 30
0.0
 11
110.2420779618
 21
141.1599995083
 31
0.0
  0
LINE
  5
290
330
1F
100
AcDbEntity
  8
0
  6
SLD-Durchgehend
 62
     7
370
    15
100
AcDbLine
 10
95.1166507995
 20
126.1599998435
 30
0.0
 11
110.2420779618
 21
126.1599998435
 31
0.0
  0
SPLINE
  5
291
330
1F
100
AcDbEntity
  8
0
  6
SLD-Durchgehend
 62
     7
370
     0
100
AcDbSpline
210
0.0
220
0.0
230
1.0
 70
     8
 71
     3
 72
    19
 73
    15
 74
     0
 42
0.000000001
 43
0.00000001
 40
0.0
 40
0.0
 40
0.0
 40
0.0
 40
0.0924438074475243
 40
0.1848640796318657
 40
0.2779000193565755
 40
0.3708999177911262
 40
0.4533035329875591
 40
0.5357240903383169
 40
0.62175697052032
 40
0.7077741022686825
 40
0.7947377803889673
 40
0.8816777388029848
 40
0.9408258069423238
 40
1.0
 40
1.0
 40
1.0
 40
1.0
 10
85.02165961287749
 20
126.1599998435376
 30
0.0
 10
85.23247537376905
 20
126.4480001343801
 30
0.0
 10
85.65405322398072
 20
127.023927394089
 30
0.0
 10
86.44793004954998
 20
127.7356639274618
 30
0.0
 10
87.35780181004502
 20
128.2949858600794
 30
0.0
 10
88.33612272015313
 20
128.6506651402738
 30
0.0
 10
89.33601887981297
 20
128.8149473495488
 30
0.0
 10
90.33607095270192
 20
128.8256016001771
 30
0.0
 10
91.35387611427002
 20
128.6788599432358
 30
0.0
 10
92.36383997768182
 20
128.371897722265
 30
0.0
 10
93.31686246169379
 20
127.8970176067764
 30
0.0
 10
94.0834407163185
 20
127.3270231260933
 30
0.0
 10
94.67585191963238
 20
126.7333576721511
 30
0.0
 10
94.96969621313885
 20
126.3511472497434
 30
0.0
 10
95.11665079951119
 20
126.1599998435376
 30
0.0
  0
LINE
  5
292
330
1F
100
AcDbEntity
  8
0
  6
SLD-Durchgehend
 62
     7
370
    15
100
AcDbLine
 10
76.9420767876
 20
126.1599998435
 30
0.0
 11
85.0216596129
 21
126.1599998435
 31
0.0
  0
LINE
  5
293
330
1F
100
AcDbEntity
  8
0
  6
SLD-Durchgehend
 62
     7
370
    15
100
AcDbLine
 10
95.0920773877
 20
113.3099999899
 30
0.0
 11
95.0920773877
 21
124.3100001922
 31
0.0
  0
LINE
  5
294
330
1F
100
AcDbEntity
  8
0
  6
SLD-Durchgehend
 62
     7
370
    15
100
AcDbLine
 10
95.0920773877
 20
124.3100001922
 30
0.0
 11
90.8420773896
 21
126.8636578208
 31
0.0
  0
LINE
  5
295
330
1F
100
AcDbEntity
  8
0
  6
SLD-Durchgehend
 62
     7
370
    15
100
AcDbLine
 10
90.8420773896
 20
126.8636578208
 30
0.0
 11
86.5920771586
 21
124.3100001922
 31
0.0
  0
LINE
  5
296
330
1F
100
AcDbEntity
  8
0
  6
SLD-Durchgehend
 62
     7
370
    15
100
AcDbLine
 10
86.5920771586
 20
124.3100001922
 30
0.0
 11
86.5920771586
 21
113.3099999899
 31
0.0
  0
LINE
  5
297
330
1F
100
AcDbEntity
  8
0
  6
SLD-Durchgehend
 62
     7
370
    15
100
AcDbLine
 10
88.3066131475
 20
128.6099994069
 30
0.0
 11
91.5303124322
 21
128.6099994069
 31
0.0
  0
LINE
  5
298
330
1F
100
AcDbEntity
  8
0
  6
SLD-Durchgehend
 62
     7
370
    15
100
AcDbLine
 10
85.1400353687
 20
113.3099999899
 30
0.0
 11
86.5920771586
 21
113.3099999899
 31
0.0
  0
LINE
  5
299
330
1F
100
AcDbEntity
  8
0
  6
SLD-Durchgehend
 62
     7
370
    15
100
AcDbLine
 10
95.0920773877
 20
113.3099999899
 30
0.0
 11
97.5001574235
 21
113.310000019
 31
0.0
  0
LINE
  5
29A
330
1F
100
AcDbEntity
  8
0
  6
SLD-Durchgehend
 62
     7
370
    15
100
AcDbLine
 10
86.5920771586
 20
124.3100001922
 30
0.0
 11
95.0920773877
 21
124.3100001922
 31
0.0
  0
LINE
  5
29B
330
1F
100
AcDbEntity
  8
0
  6
SLD-Durchgehend
 62
     7
370
    15
100
AcDbLine
 10
86.5920771586
 20
113.3099999899
 30
0.0
 11
95.0920773877
 21
113.3099999899
 31
0.0
  0
LINE
  5
29C
330
1F
100
AcDbEntity
  8
0
  6
SLD-Durchgehend
 62
     7
370
    15
100
AcDbLine
 10
110.3420777919
 20
164.6099997199
 30
0.0
 11
76.8420769574
 21
164.6099997199
 31
0.0
  0
SPLINE
  5
29D
330
1F
100
AcDbEntity
  8
0
  6
SLD-Durchgehend
 62
     7
370
    15
100
AcDbSpline
210
0.0
220
0.0
230
1.0
 70
     8
 71
     3
 72
    15
 73
    11
 74
     0
 42
0.000000001
 43
0.00000001
 40
0.0
 40
0.0
 40
0.0
 40
0.0
 40
0.0114205449588475
 40
0.1487764212306096
 40
0.2760617054672037
 40
0.4067457392293645
 40
0.5399456642891711
 40
0.676464621907872
 40
0.8354079634914486
 40
1.0
 40
1.0
 40
1.0
 40
1.0
 10
110.3387548329664
 20
155.9025508797167
 30
0.0
 10
110.3398436518697
 20
155.9049918871103
 30
0.0
 10
110.3540277893496
 20
155.9367911003287
 30
0.0
 10
110.2996009179142
 20
155.8154250471318
 30
0.0
 10
110.1760544913341
 20
155.5339831724937
 30
0.0
 10
109.9811576097087
 20
155.0709725894691
 30
0.0
 10
109.7346957052673
 20
154.4452113943014
 30
0.0
 10
109.4420108535353
 20
153.6176657838489
 30
0.0
 10
109.1187586409192
 20
152.5772668689907
 30
0.0
 10
108.935371844841
 20
151.7189388454387
 30
0.0
 10
108.8420775460435
 20
151.2822819387911
 30
0.0
  0
LINE
  5
29E
330
1F
100
AcDbEntity
  8
0
  6
SLD-Durchgehend
 62
     7
370
    15
100
AcDbLine
 10
108.842077546
 20
145.5377203858
 30
0.0
 11
108.842077546
 21
151.2822819388
 31
0.0
  0
SPLINE
  5
29F
330
1F
100
AcDbEntity
  8
0
  6
SLD-Durchgehend
 62
     7
370
    15
100
AcDbSpline
210
0.0
220
0.0
230
1.0
 70
     8
 71
     3
 72
    16
 73
    12
 74
     0
 42
0.000000001
 43
0.00000001
 40
0.0
 40
0.0
 40
0.0
 40
0.0
 40
0.2500000000000009
 40
0.2500000000000009
 40
0.3750000000000012
 40
0.3750000000000012
 40
0.5000000000000014
 40
0.5000000000000014
 40
0.7500000000000009
 40
0.7500000000000009
 40
1.0
 40
1.0
 40
1.0
 40
1.0
 10
108.8420773746802
 20
145.5377186767308
 30
0.0
 10
108.9316315106046
 20
145.0622427678134
 30
0.0
 10
109.0364805863077
 20
144.6182373797193
 30
0.0
 10
109.2052441221091
 20
143.9942815777803
 30
0.0
 10
109.2634413160475
 20
143.7933763288104
 30
0.0
 10
109.3820057696247
 20
143.4056613767575
 30
0.0
 10
109.4424707664228
 20
143.2186689477626
 30
0.0
 10
109.6205867346477
 20
142.6906991698061
 30
0.0
 10
109.736245616426
 20
142.3779700699144
 30
0.0
 10
109.9488040981196
 20
141.8302031972916
 30
0.0
 10
110.0457417074222
 20
141.5953994626527
 30
0.0
 10
110.1242429920456
 20
141.4099999999998
 30
0.0
  0
LINE
  5
2A0
330
1F
100
AcDbEntity
  8
0
  6
SLD-Durchgehend
 62
     7
370
    15
100
AcDbLine
 10
110.1242433044
 20
141.4100000149
 30
0.0
 11
76.8420769574
 21
141.4100000149
 31
0.0
  0
LINE
  5
2A1
330
1F
100
AcDbEntity
  8
0
  6
SLD-Durchgehend
 62
     7
370
    15
100
AcDbLine
 10
109.9296564909
 20
141.1599995083
 30
0.0
 11
109.8202167752
 21
141.4100000149
 31
0.0
  0
LINE
  5
2A2
330
1F
100
AcDbEntity
  8
0
  6
SLD-Durchgehend
 62
     7
370
    15
100
AcDbLine
 10
102.991678633
 20
125.9100002682
 30
0.0
 11
95.2906009017
 21
125.9100002682
 31
0.0
  0
SPLINE
  5
2A3
330
1F
100
AcDbEntity
  8
0
  6
SLD-Durchgehend
 62
     7
370
     0
100
AcDbSpline
210
0.0
220
0.0
230
1.0
 70
     8
 71
     3
 72
    28
 73
    24
 74
     0
 42
0.000000001
 43
0.00000001
 40
0.0
 40
0.0
 40
0.0
 40
0.0
 40
0.1250000000000001
 40
0.1250000000000001
 40
0.2500000000000004
 40
0.2500000000000004
 40
0.3125000000000004
 40
0.3125000000000004
 40
0.3750000000000006
 40
0.3750000000000006
 40
0.5000000000000006
 40
0.5000000000000006
 40
0.5625000000000004
 40
0.5625000000000004
 40
0.6250000000000002
 40
0.6250000000000002
 40
0.75
 40
0.75
 40
0.8125
 40
0.8125
 40
0.875
 40
0.875
 40
1.0
 40
1.0
 40
1.0
 40
1.0
 10
84.86434647503185
 20
125.9099999999998
 30
0.0
 10
85.12857970749685
 20
126.3521316982362
 30
0.0
 10
85.43590502615986
 20
126.7495093940658
 30
0.0
 10
86.1348290722465
 20
127.4660931447764
 30
0.0
 10
86.53124743508586
 20
127.7861678023166
 30
0.0
 10
87.17166660263292
 20
128.1697255649276
 30
0.0
 10
87.39403901589702
 20
128.2821058818083
 30
0.0
 10
87.85773648852191
 20
128.475129007598
 30
0.0
 10
88.10078039384811
 20
128.5565514163664
 30
0.0
 10
88.84512870960856
 20
128.7504649704775
 30
0.0
 10
89.3554695917195
 20
128.8134459624039
 30
0.0
 10
90.14228253605667
 20
128.8150365832534
 30
0.0
 10
90.40793175024899
 20
128.7995251795066
 30
0.0
 10
90.93169207770968
 20
128.7377591281079
 30
0.0
 10
91.1916653292422
 20
128.6915681963866
 30
0.0
 10
91.96554158756517
 20
128.5063740901357
 30
0.0
 10
92.4780313876148
 20
128.3179277343676
 30
0.0
 10
93.1863392048328
 20
127.9472486192573
 30
0.0
 10
93.41405537155912
 20
127.8086352147652
 30
0.0
 10
93.85089617468937
 20
127.4982229914519
 30
0.0
 10
94.06133209084491
 20
127.3250671071476
 30
0.0
 10
94.65004650206298
 20
126.7727153504892
 30
0.0
 10
94.99070390413111
 20
126.3592855624735
 30
0.0
 10
95.29060087619837
 20
125.9099999999998
 30
0.0
  0
LINE
  5
2A4
330
1F
100
AcDbEntity
  8
0
  6
SLD-Durchgehend
 62
     7
370
    15
100
AcDbLine
 10
84.8643461915
 20
125.9100002682
 30
0.0
 11
84.1924761163
 21
125.9100002682
 31
0.0
  0
LINE
  5
2A5
330
1F
100
AcDbEntity
  8
0
  6
SLD-Durchgehend
 62
     7
370
    15
100
AcDbLine
 10
83.6768111887
 20
112.91
 30
0.0
 11
83.6768111887
 21
125.9100002682
 31
0.0
  0
LINE
  5
2A6
330
1F
100
AcDbEntity
  8
0
  6
SLD-Durchgehend
 62
     7
370
    15
100
AcDbLine
 10
83.6768111887
 20
125.9100002682
 30
0.0
 11
76.8420769574
 21
125.9100002682
 31
0.0
  0
LINE
  5
2A7
330
1F
100
AcDbEntity
  8
0
  6
SLD-Durchgehend
 62
     7
370
    15
100
AcDbLine
 10
83.6768111887
 20
112.91
 30
0.0
 11
76.8420769574
 21
112.91
 31
0.0
  0
LINE
  5
2A8
330
1F
100
AcDbEntity
  8
0
  6
SLD-Durchgehend
 62
     7
370
    15
100
AcDbLine
 10
84.1924761163
 20
125.9100002682
 30
0.0
 11
83.6768111887
 21
125.9100002682
 31
0.0
  0
LINE
  5
2A9
330
1F
100
AcDbEntity
  8
0
  6
SLD-Durchgehend
 62
     7
370
    15
100
AcDbLine
 10
85.1822773667
 20
112.9099999805
 30
0.0
 11
83.6768111887
 21
112.91
 31
0.0
  0
SPLINE
  5
2AA
330
1F
100
AcDbEntity
  8
0
  6
SLD-Durchgehend
 62
     7
370
     0
100
AcDbSpline
210
0.0
220
0.0
230
1.0
 70
     8
 71
     3
 72
    10
 73
     6
 74
     0
 42
0.000000001
 43
0.00000001
 40
0.6222107261659044
 40
0.6222107261659044
 40
0.6222107261659044
 40
0.6222107261659044
 40
0.6381572149185223
 40
0.8229480687256691
 40
0.8640043650239664
 40
0.8640043650239664
 40
0.8640043650239664
 40
0.8640043650239664
 10
84.86434647503268
 20
125.9100000000012
 30
0.0
 10
84.71969616137942
 20
125.6679619784062
 30
0.0
 10
83.1292725011084
 20
122.5488976064247
 30
0.0
 10
85.05082230678781
 20
118.5255244980837
 30
0.0
 10
85.08698219586019
 20
113.6592265526206
 30
0.0
 10
85.18227770191014
 20
112.909999980481
 30
0.0
  0
LINE
  5
2AB
330
1F
100
AcDbEntity
  8
0
  6
SLD-Durchgehend
 62
     7
370
    15
100
AcDbLine
 10
103.5073435607
 20
125.9100002682
 30
0.0
 11
102.991678633
 21
125.9100002682
 31
0.0
  0
LINE
  5
2AC
330
1F
100
AcDbEntity
  8
0
  6
SLD-Durchgehend
 62
     7
370
    15
100
AcDbLine
 10
103.5073435607
 20
125.9100002682
 30
0.0
 11
103.5073435607
 21
112.91
 31
0.0
  0
LINE
  5
2AD
330
1F
100
AcDbEntity
  8
0
  6
SLD-Durchgehend
 62
     7
370
    15
100
AcDbLine
 10
103.5073435607
 20
112.91
 30
0.0
 11
97.5007581266
 21
112.9099999805
 31
0.0
  0
SPLINE
  5
2AE
330
1F
100
AcDbEntity
  8
0
  6
SLD-Durchgehend
 62
     7
370
     0
100
AcDbSpline
210
0.0
220
0.0
230
1.0
 70
     8
 71
     3
 72
    10
 73
     6
 74
     0
 42
0.000000001
 43
0.00000001
 40
0.1533728722544997
 40
0.1533728722544997
 40
0.1533728722544997
 40
0.1533728722544997
 40
0.2095296496362343
 40
0.3259071618634816
 40
0.3952338260062687
 40
0.3952338260062687
 40
0.3952338260062687
 40
0.3952338260062687
 10
97.50075818819701
 20
112.9099999804842
 30
0.0
 10
97.52365690639932
 20
113.9277990474445
 30
0.0
 10
96.96731280864637
 20
117.785261913657
 30
0.0
 10
97.22148782977868
 20
121.5791188995661
 30
0.0
 10
95.99100693088897
 20
124.8606985479963
 30
0.0
 10
95.29060087619838
 20
125.9099999999998
 30
0.0
  0
SPLINE
  5
2AF
330
1F
100
AcDbEntity
  8
0
  6
SLD-Durchgehend
 62
     7
370
    15
100
AcDbSpline
210
0.0
220
0.0
230
1.0
 70
     8
 71
     3
 72
    12
 73
     8
 74
     0
 42
0.000000001
 43
0.00000001
 40
0.0
 40
0.0
 40
0.0
 40
0.0
 40
0.214772635739649
 40
0.4295431182806561
 40
0.6443733198186906
 40
0.8592428589644503
 40
1.0
 40
1.0
 40
1.0
 40
1.0
 10
110.3346123101546
 20
118.9100000521539
 30
0.0
 10
110.3347810374553
 20
118.8538211137842
 30
0.0
 10
110.3351184903651
 20
118.7414638002656
 30
0.0
 10
110.3374939830875
 20
118.5913682944318
 30
0.0
 10
110.3400602518353
 20
118.4793679664091
 30
0.0
 10
110.3418989102467
 20
118.4158762818265
 30
0.0
 10
110.3418909519884
 20
118.416256175976
 30
0.0
 10
110.3418878021075
 20
118.4164065381883
 30
0.0
  0
SPLINE
  5
2B0
330
1F
100
AcDbEntity
  8
0
  6
SLD-Durchgehend
 62
     7
370
    15
100
AcDbSpline
210
0.0
220
0.0
230
1.0
 70
     8
 71
     3
 72
    13
 73
     9
 74
     0
 42
0.000000001
 43
0.00000001
 40
0.0
 40
0.0
 40
0.0
 40
0.0
 40
0.0065215760576107
 40
0.2211010978201534
 40
0.435681223592186
 40
0.6503442072652855
 40
0.8650438223404647
 40
1.0
 40
1.0
 40
1.0
 40
1.0
 10
110.3420535775257
 20
119.4091689287124
 30
0.0
 10
110.3420612499662
 20
119.4094451495532
 30
0.0
 10
110.3423213688398
 20
119.4188098691542
 30
0.0
 10
110.3413264439806
 20
119.385014606371
 30
0.0
 10
110.3391785916555
 20
119.3058506494299
 30
0.0
 10
110.3365198776188
 20
119.1756154287337
 30
0.0
 10
110.3348539682008
 20
119.0365515607664
 30
0.0
 10
110.3346796078034
 20
118.9452424913068
 30
0.0
 10
110.3346123101546
 20
118.9100000521539
 30
0.0
  0
LINE
  5
2B1
330
1F
100
AcDbEntity
  8
0
  6
SLD-Durchgehend
 62
     7
370
    15
100
AcDbLine
 10
110.3420777919
 20
125.9100002682
 30
0.0
 11
103.5073435607
 21
125.9100002682
 31
0.0
  0
LINE
  5
2B2
330
1F
100
AcDbEntity
  8
0
  6
SLD-Durchgehend
 62
     7
370
    15
100
AcDbLine
 10
110.3420777919
 20
112.91
 30
0.0
 11
103.5073435607
 21
112.91
 31
0.0
  0
LINE
  5
2B3
330
1F
100
AcDbEntity
  8
0
  6
SLD-Durchgehend
 62
     7
370
    15
100
AcDbLine
 10
85.1822773667
 20
112.91
 30
0.0
 11
97.5007581266
 21
112.91
 31
0.0
  0
LINE
  5
2B4
330
1F
100
AcDbEntity
  8
0
  6
SLD-Durchgehend
 62
     7
370
    15
100
AcDbLine
 10
110.8420769425
 20
148.4100011623
 30
0.0
 11
110.8420769425
 21
153.6099997795
 31
0.0
  0
LINE
  5
2B5
330
1F
100
AcDbEntity
  8
0
  6
SLD-Durchgehend
 62
     7
370
    15
100
AcDbLine
 10
110.8420769425
 20
143.2100006825
 30
0.0
 11
110.8420769425
 21
148.4100011623
 31
0.0
  0
LINE
  5
2B6
330
1F
100
AcDbEntity
  8
0
  6
SLD-Durchgehend
 62
     7
370
    15
100
AcDbLine
 10
111.3420779558
 20
153.6099997795
 30
0.0
 11
111.3420779558
 21
143.2100006825
 31
0.0
  0
LINE
  5
2B7
330
1F
100
AcDbEntity
  8
0
  6
SLD-Durchgehend
 62
     7
370
    15
100
AcDbLine
 10
93.5920773747
 20
195.8100025988
 30
0.0
 11
103.3420775758
 21
195.8100025988
 31
0.0
  0
LINE
  5
2B8
330
1F
100
AcDbEntity
  8
0
  6
SLD-Durchgehend
 62
     7
370
    15
100
AcDbLine
 10
93.5920773747
 20
193.8099985456
 30
0.0
 11
93.5920773747
 21
195.8100025988
 31
0.0
  0
LINE
  5
2B9
330
1F
100
AcDbEntity
  8
0
  6
SLD-Durchgehend
 62
     7
370
    15
100
AcDbLine
 10
93.5920773747
 20
193.8099985456
 30
0.0
 11
103.3420775758
 21
193.8099985456
 31
0.0
  0
LINE
  5
2BA
330
1F
100
AcDbEntity
  8
0
  6
SLD-Durchgehend
 62
     7
370
    15
100
AcDbLine
 10
93.5920773747
 20
201.8099998569
 30
0.0
 11
103.3420775758
 21
201.8099998569
 31
0.0
  0
LINE
  5
2BB
330
1F
100
AcDbEntity
  8
0
  6
SLD-Durchgehend
 62
     7
370
    15
100
AcDbLine
 10
93.5920773747
 20
203.8099964595
 30
0.0
 11
103.3420775758
 21
203.8099964595
 31
0.0
  0
LINE
  5
2BC
330
1F
100
AcDbEntity
  8
0
  6
SLD-Durchgehend
 62
     7
370
    15
100
AcDbLine
 10
93.5920773747
 20
203.8099964595
 30
0.0
 11
93.5920773747
 21
201.8099998569
 31
0.0
  0
LINE
  5
2BD
330
1F
100
AcDbEntity
  8
0
  6
SLD-Durchgehend
 62
     7
370
    15
100
AcDbLine
 10
93.5920773747
 20
209.8100011683
 30
0.0
 11
103.3420775758
 21
209.8100011683
 31
0.0
  0
LINE
  5
2BE
330
1F
100
AcDbEntity
  8
0
  6
SLD-Durchgehend
 62
     7
370
    15
100
AcDbLine
 10
93.5920773747
 20
211.8099977708
 30
0.0
 11
103.3420775758
 21
211.8099977708
 31
0.0
  0
LINE
  5
2BF
330
1F
100
AcDbEntity
  8
0
  6
SLD-Durchgehend
 62
     7
370
    15
100
AcDbLine
 10
93.5920773747
 20
211.8099977708
 30
0.0
 11
93.5920773747
 21
209.8100011683
 31
0.0
  0
LINE
  5
2C0
330
1F
100
AcDbEntity
  8
0
  6
SLD-Durchgehend
 62
     7
370
    15
100
AcDbLine
 10
93.5920773747
 20
217.8100024796
 30
0.0
 11
102.8420774939
 21
217.8100024796
 31
0.0
  0
LINE
  5
2C1
330
1F
100
AcDbEntity
  8
0
  6
SLD-Durchgehend
 62
     7
370
    15
100
AcDbLine
 10
84.3420772555
 20
217.8100024796
 30
0.0
 11
93.5920773747
 21
217.8100024796
 31
0.0
  0
LINE
  5
2C2
330
1F
100
AcDbEntity
  8
0
  6
SLD-Durchgehend
 62
     7
370
    15
100
AcDbLine
 10
87.5920773225
 20
220.8100011086
 30
0.0
 11
93.5920773747
 21
220.8100011086
 31
0.0
  0
LINE
  5
2C3
330
1F
100
AcDbEntity
  8
0
  6
SLD-Durchgehend
 62
     7
370
    15
100
AcDbLine
 10
93.5920773747
 20
220.8100011086
 30
0.0
 11
99.5920774268
 21
220.8100011086
 31
0.0
  0
ARC
  5
2C4
330
1F
100
AcDbEntity
  8
0
  6
SLD-Durchgehend
 62
     7
370
    15
100
AcDbCircle
 10
86.5920773747
 20
218.31
 30
0.0
 40
0.5
100
AcDbArc
 50
270.0
 51
0.0
  0
ARC
  5
2C5
330
1F
100
AcDbEntity
  8
0
  6
SLD-Durchgehend
 62
     7
370
    15
100
AcDbCircle
 10
100.5920773747
 20
218.31
 30
0.0
 40
0.5000000000000284
100
AcDbArc
 50
180.0
 51
270.0
  0
ARC
  5
2C6
330
1F
100
AcDbEntity
  8
0
  6
SLD-Durchgehend
 62
     7
370
    15
100
AcDbCircle
 10
87.5920773747
 20
220.31
 30
0.0
 40
0.5000000000000142
100
AcDbArc
 50
90.0
 51
180.0
  0
LINE
  5
2C7
330
1F
100
AcDbEntity
  8
0
  6
SLD-Durchgehend
 62
     7
370
    15
100
AcDbLine
 10
87.0920772406
 20
218.3100034928
 30
0.0
 11
87.0920772406
 21
220.3100000954
 31
0.0
  0
ARC
  5
2C8
330
1F
100
AcDbEntity
  8
0
  6
SLD-Durchgehend
 62
     7
370
    15
100
AcDbCircle
 10
99.5920773747
 20
220.31
 30
0.0
 40
0.5
100
AcDbArc
 50
0.0
 51
90.0
  0
LINE
  5
2C9
330
1F
100
AcDbEntity
  8
0
  6
SLD-Durchgehend
 62
     7
370
    15
100
AcDbLine
 10
100.0920775088
 20
220.3100000954
 30
0.0
 11
100.0920775088
 21
218.3100034928
 31
0.0
  0
LINE
  5
2CA
330
1F
100
AcDbEntity
  8
0
  6
SLD-Durchgehend
 62
     7
370
    15
100
AcDbLine
 10
93.5920773747
 20
184.8100026584
 30
0.0
 11
76.8420769574
 21
184.8100026584
 31
0.0
  0
LINE
  5
2CB
330
1F
100
AcDbEntity
  8
0
  6
SLD-Durchgehend
 62
     7
370
    15
100
AcDbLine
 10
110.3420777919
 20
184.8100026584
 30
0.0
 11
93.5920773747
 21
184.8100026584
 31
0.0
  0
LINE
  5
2CC
330
1F
100
AcDbEntity
  8
0
  6
SLD-Durchgehend
 62
     7
370
    15
100
AcDbLine
 10
93.5920773747
 20
185.8099972343
 30
0.0
 11
109.342077628
 21
185.8099972343
 31
0.0
  0
LINE
  5
2CD
330
1F
100
AcDbEntity
  8
0
  6
SLD-Durchgehend
 62
     7
370
    15
100
AcDbLine
 10
77.8420771214
 20
185.8099972343
 30
0.0
 11
93.5920773747
 21
185.8099972343
 31
0.0
  0
LINE
  5
2CE
330
1F
100
AcDbEntity
  8
0
  6
SLD-Durchgehend
 62
     7
370
    15
100
AcDbLine
 10
110.3420777919
 20
164.8099993801
 30
0.0
 11
76.8420769574
 21
164.8099993801
 31
0.0
  0
SPLINE
  5
2CF
330
1F
100
AcDbEntity
  8
0
  6
SLD-Durchgehend
 62
     8
370
     0
100
AcDbSpline
210
0.0
220
0.0
230
1.0
 70
     8
 71
     3
 72
     9
 73
     5
 74
     0
 42
0.000000001
 43
0.00000001
 40
0.0
 40
0.0
 40
0.0
 40
0.0
 40
0.4999999728069425
 40
1.0
 40
1.0
 40
1.0
 40
1.0
 10
77.93947297356856
 20
134.099810708165
 30
0.0
 10
77.80581126285824
 20
133.436836918644
 30
0.0
 10
77.53848782689893
 20
132.1108892674891
 30
0.0
 10
77.3599548589309
 20
130.7849418326735
 30
0.0
 10
77.27068837009203
 20
130.1219680792092
 30
0.0
  0
LINE
  5
2D0
330
1F
100
AcDbEntity
  8
0
  6
SLD-Durchgehend
 62
     8
370
     0
100
AcDbLine
 10
77.8964048924
 20
130.1219680792
 30
0.0
 11
77.2706883701
 21
130.1219680792
 31
0.0
  0
SPLINE
  5
2D1
330
1F
100
AcDbEntity
  8
0
  6
SLD-Durchgehend
 62
     8
370
     0
100
AcDbSpline
210
0.0
220
0.0
230
1.0
 70
     8
 71
     3
 72
    11
 73
     7
 74
     0
 42
0.000000001
 43
0.00000001
 40
0.0
 40
0.0
 40
0.0
 40
0.0
 40
0.2499998544069978
 40
0.4999998694108193
 40
0.7499997590464963
 40
1.0
 40
1.0
 40
1.0
 40
1.0
 10
77.89640489242804
 20
130.1219680792092
 30
0.0
 10
77.93193004873042
 20
130.4436265968713
 30
0.0
 10
78.00298038415607
 20
131.0869438388252
 30
0.0
 10
78.04113973894427
 20
132.0995142948655
 30
0.0
 10
78.02630948241514
 20
133.1167217924789
 30
0.0
 10
77.96841849007617
 20
133.7721142494356
 30
0.0
 10
77.93947297356856
 20
134.099810708165
 30
0.0
  0
LINE
  5
2D2
330
1F
100
AcDbEntity
  8
0
  6
SLD-Durchgehend
 62
     8
370
     0
100
AcDbLine
 10
78.2444550397
 20
135.0815867519
 30
0.0
 11
78.2166001128
 21
135.0815867519
 31
0.0
  0
LINE
  5
2D3
330
1F
100
AcDbEntity
  8
0
  6
SLD-Durchgehend
 62
     8
370
     0
100
AcDbLine
 10
78.2579629423
 20
135.0792826599
 30
0.0
 11
78.2444550397
 21
135.0815867519
 31
0.0
  0
SPLINE
  5
2D4
330
1F
100
AcDbEntity
  8
0
  6
SLD-Durchgehend
 62
     8
370
     0
100
AcDbSpline
210
0.0
220
0.0
230
1.0
 70
     8
 71
     3
 72
    11
 73
     7
 74
     0
 42
0.000000001
 43
0.00000001
 40
0.0
 40
0.0
 40
0.0
 40
0.0
 40
0.5005942832715358
 40
0.7504103755436667
 40
0.8676108351244852
 40
0.9999999999999999
 40
0.9999999999999999
 40
0.9999999999999999
 40
0.9999999999999999
 10
78.29916744701397
 20
134.9627965575455
 30
0.0
 10
78.29368229178841
 20
134.9856304967608
 30
0.0
 10
78.28545982994602
 20
135.01985946316
 30
0.0
 10
78.27425922618627
 20
135.0572245883048
 30
0.0
 10
78.26548782796345
 20
135.0723487773705
 30
0.0
 10
78.26057097543662
 20
135.076879461225
 30
0.0
 10
78.25796294234526
 20
135.0792826598881
 30
0.0
  0
LINE
  5
2D5
330
1F
100
AcDbEntity
  8
0
  6
SLD-Durchgehend
 62
     8
370
     0
100
AcDbLine
 10
78.3239098939
 20
134.8572274184
 30
0.0
 11
78.299167447
 21
134.9627965575
 31
0.0
  0
LINE
  5
2D6
330
1F
100
AcDbEntity
  8
0
  6
SLD-Durchgehend
 62
     8
370
     0
100
AcDbLine
 10
78.356330164
 20
134.8572274184
 30
0.0
 11
78.3239098939
 21
134.8572274184
 31
0.0
  0
LINE
  5
2D7
330
1F
100
AcDbEntity
  8
0
  6
SLD-Durchgehend
 62
     8
370
     0
100
AcDbLine
 10
78.3234302627
 20
134.9952475613
 30
0.0
 11
78.356330164
 21
134.8572274184
 31
0.0
  0
LINE
  5
2D8
330
1F
100
AcDbEntity
  8
0
  6
SLD-Durchgehend
 62
     8
370
     0
100
AcDbLine
 10
78.3024959939
 20
135.0633570439
 30
0.0
 11
78.3234302627
 21
134.9952475613
 31
0.0
  0
LINE
  5
2D9
330
1F
100
AcDbEntity
  8
0
  6
SLD-Durchgehend
 62
     8
370
     0
100
AcDbLine
 10
78.2871524545
 20
135.0879961139
 30
0.0
 11
78.3024959939
 21
135.0633570439
 31
0.0
  0
SPLINE
  5
2DA
330
1F
100
AcDbEntity
  8
0
  6
SLD-Durchgehend
 62
     8
370
     0
100
AcDbSpline
210
0.0
220
0.0
230
1.0
 70
     8
 71
     3
 72
    12
 73
     8
 74
     0
 42
0.000000001
 43
0.00000001
 40
0.0
 40
0.0
 40
0.0
 40
0.0
 40
0.2593329215288536
 40
0.3795344864885128
 40
0.4999036930149605
 40
0.7419851314460305
 40
1.0
 40
1.0
 40
1.0
 40
1.0
 10
78.3398541363312
 20
135.2224120384453
 30
0.0
 10
78.33911481853839
 20
135.2042708197393
 30
0.0
 10
78.33803282479384
 20
135.1777210932902
 30
0.0
 10
78.33136739795555
 20
135.1468313325141
 30
0.0
 10
78.32277024203206
 20
135.1209521617612
 30
0.0
 10
78.30758175608878
 20
135.0981555737028
 30
0.0
 10
78.29410534442377
 20
135.0914537752144
 30
0.0
 10
78.28715245447886
 20
135.0879961138962
 30
0.0
  0
SPLINE
  5
2DB
330
1F
100
AcDbEntity
  8
0
  6
SLD-Durchgehend
 62
     8
370
     0
100
AcDbSpline
210
0.0
220
0.0
230
1.0
 70
     8
 71
     3
 72
    13
 73
     9
 74
     0
 42
0.000000001
 43
0.00000001
 40
0.0
 40
0.0
 40
0.0
 40
0.0
 40
0.2505196922508198
 40
0.3861151481128029
 40
0.5005370212249826
 40
0.6206539493078312
 40
0.7479773649275929
 40
1.0
 40
1.0
 40
1.0
 40
1.0
 10
78.27338285021317
 20
135.3572284317015
 30
0.0
 10
78.28147579735672
 20
135.356786818685
 30
0.0
 10
78.29394910616902
 20
135.3561061796753
 30
0.0
 10
78.30986579839117
 20
135.3462831497807
 30
0.0
 10
78.32071131108083
 20
135.3320282739706
 30
0.0
 10
78.32908446723843
 20
135.3105149565917
 30
0.0
 10
78.33752152376793
 20
135.2746638699565
 30
0.0
 10
78.33892303034187
 20
135.2432693355551
 30
0.0
 10
78.3398541363312
 20
135.2224120384453
 30
0.0
  0
LINE
  5
2DC
330
1F
100
AcDbEntity
  8
0
  6
SLD-Durchgehend
 62
     8
370
     0
100
AcDbLine
 10
78.2733828502
 20
135.3572284317
 30
0.0
 11
78.1896811651
 21
135.3572284317
 31
0.0
  0
LINE
  5
2DD
330
1F
100
AcDbEntity
  8
0
  6
SLD-Durchgehend
 62
     8
370
     0
100
AcDbLine
 10
78.1896811651
 20
134.8572274184
 30
0.0
 11
78.1896811651
 21
135.3572284317
 31
0.0
  0
LINE
  5
2DE
330
1F
100
AcDbEntity
  8
0
  6
SLD-Durchgehend
 62
     8
370
     0
100
AcDbLine
 10
78.2166001128
 20
134.8572274184
 30
0.0
 11
78.1896811651
 21
134.8572274184
 31
0.0
  0
LINE
  5
2DF
330
1F
100
AcDbEntity
  8
0
  6
SLD-Durchgehend
 62
     8
370
     0
100
AcDbLine
 10
78.2166001128
 20
135.0815867519
 30
0.0
 11
78.2166001128
 21
134.8572274184
 31
0.0
  0
LINE
  5
2E0
330
1F
100
AcDbEntity
  8
0
  6
SLD-Durchgehend
 62
     8
370
     0
100
AcDbLine
 10
110.0879235866
 20
133.2753853387
 30
0.0
 11
109.5750144424
 21
133.2753853387
 31
0.0
  0
LINE
  5
2E1
330
1F
100
AcDbEntity
  8
0
  6
SLD-Durchgehend
 62
     8
370
     0
100
AcDbLine
 10
110.0879235866
 20
130.6600005811
 30
0.0
 11
110.0879235866
 21
133.2753853387
 31
0.0
  0
LINE
  5
2E2
330
1F
100
AcDbEntity
  8
0
  6
SLD-Durchgehend
 62
     8
370
     0
100
AcDbLine
 10
110.2048511358
 20
130.6600005811
 30
0.0
 11
110.0879235866
 21
130.6600005811
 31
0.0
  0
LINE
  5
2E3
330
1F
100
AcDbEntity
  8
0
  6
SLD-Durchgehend
 62
     8
370
     0
100
AcDbLine
 10
110.2048511358
 20
136.659999702
 30
0.0
 11
110.2048511358
 21
130.6600005811
 31
0.0
  0
LINE
  5
2E4
330
1F
100
AcDbEntity
  8
0
  6
SLD-Durchgehend
 62
     8
370
     0
100
AcDbLine
 10
110.2048511358
 20
136.659999702
 30
0.0
 11
110.0879235866
 21
136.659999702
 31
0.0
  0
LINE
  5
2E5
330
1F
100
AcDbEntity
  8
0
  6
SLD-Durchgehend
 62
     8
370
     0
100
AcDbLine
 10
110.0879235866
 20
134.2753855026
 30
0.0
 11
110.0879235866
 21
136.659999702
 31
0.0
  0
LINE
  5
2E6
330
1F
100
AcDbEntity
  8
0
  6
SLD-Durchgehend
 62
     8
370
     0
100
AcDbLine
 10
110.0879235866
 20
134.2753855026
 30
0.0
 11
109.5750144424
 21
134.2753855026
 31
0.0
  0
LINE
  5
2E7
330
1F
100
AcDbEntity
  8
0
  6
SLD-Durchgehend
 62
     8
370
     0
100
AcDbLine
 10
109.5750144424
 20
136.659999702
 30
0.0
 11
109.5750144424
 21
134.2753855026
 31
0.0
  0
LINE
  5
2E8
330
1F
100
AcDbEntity
  8
0
  6
SLD-Durchgehend
 62
     8
370
     0
100
AcDbLine
 10
109.5750144424
 20
136.659999702
 30
0.0
 11
109.2135793271
 21
136.659999702
 31
0.0
  0
LINE
  5
2E9
330
1F
100
AcDbEntity
  8
0
  6
SLD-Durchgehend
 62
     8
370
     0
100
AcDbLine
 10
109.2135793271
 20
130.6600005811
 30
0.0
 11
109.2135793271
 21
136.659999702
 31
0.0
  0
LINE
  5
2EA
330
1F
100
AcDbEntity
  8
0
  6
SLD-Durchgehend
 62
     8
370
     0
100
AcDbLine
 10
109.5750144424
 20
130.6600005811
 30
0.0
 11
109.2135793271
 21
130.6600005811
 31
0.0
  0
LINE
  5
2EB
330
1F
100
AcDbEntity
  8
0
  6
SLD-Durchgehend
 62
     8
370
     0
100
AcDbLine
 10
109.5750144424
 20
133.2753853387
 30
0.0
 11
109.5750144424
 21
130.6600005811
 31
0.0
  0
SPLINE
  5
2EC
330
1F
100
AcDbEntity
  8
0
  6
SLD-Durchgehend
 62
     8
370
     0
100
AcDbSpline
210
0.0
220
0.0
230
1.0
 70
     8
 71
     3
 72
    19
 73
    15
 74
     0
 42
0.000000001
 43
0.00000001
 40
0.0
 40
0.0
 40
0.0
 40
0.0
 40
0.0625647080039655
 40
0.1251042945425845
 40
0.2497722961950885
 40
0.374512799651514
 40
0.4370302412718176
 40
0.4995569079291784
 40
0.6245504304226076
 40
0.749656978846766
 40
0.8122413549745605
 40
0.8748273248729522
 40
0.9374121278741906
 40
1.0
 40
1.0
 40
1.0
 40
1.0
 10
106.5061649980379
 20
130.5830770617722
 30
0.0
 10
106.4517812148741
 20
130.5859212161525
 30
0.0
 10
106.3430354851436
 20
130.5916083829062
 30
0.0
 10
106.1241644472749
 20
130.6560930632946
 30
0.0
 10
105.8584063785593
 20
130.8270233315497
 30
0.0
 10
105.6342839271066
 20
131.1122082530075
 30
0.0
 10
105.4900433794227
 20
131.3854726625606
 30
0.0
 10
105.3768920217642
 20
131.6888080132809
 30
0.0
 10
105.2829045612233
 20
132.0984474788302
 30
0.0
 10
105.2297195772316
 20
132.520499426831
 30
0.0
 10
105.2029436455446
 20
132.8610350661669
 30
0.0
 10
105.1902110105818
 20
133.1174153011322
 30
0.0
 10
105.1828029638563
 20
133.3741988691043
 30
0.0
 10
105.1818618169358
 20
133.5455010812795
 30
0.0
 10
105.1813912319375
 20
133.6311542874573
 30
0.0
  0
SPLINE
  5
2ED
330
1F
100
AcDbEntity
  8
0
  6
SLD-Durchgehend
 62
     8
370
     0
100
AcDbSpline
210
0.0
220
0.0
230
1.0
 70
     8
 71
     3
 72
    13
 73
     9
 74
     0
 42
0.000000001
 43
0.00000001
 40
0.0
 40
0.0
 40
0.0
 40
0.0
 40
0.1251171464423637
 40
0.2501728722520614
 40
0.4997947332669963
 40
0.663383715294069
 40
0.8341208038685626
 40
0.9999999999999999
 40
0.9999999999999999
 40
0.9999999999999999
 40
0.9999999999999999
 10
107.3249903248979
 20
131.192452598214
 30
0.0
 10
107.3011078517991
 20
131.1432680831581
 30
0.0
 10
107.2533546296271
 20
131.0449231979706
 30
0.0
 10
107.1407686542742
 20
130.8751283634453
 30
0.0
 10
106.9984142154306
 20
130.7327724711497
 30
0.0
 10
106.8256080838184
 20
130.6380250771729
 30
0.0
 10
106.669315403329
 20
130.5906824346963
 30
0.0
 10
106.560022712406
 20
130.5855876776783
 30
0.0
 10
106.5061649980379
 20
130.5830770617722
 30
0.0
  0
SPLINE
  5
2EE
330
1F
100
AcDbEntity
  8
0
  6
SLD-Durchgehend
 62
     8
370
     0
100
AcDbSpline
210
0.0
220
0.0
230
1.0
 70
     8
 71
     3
 72
    17
 73
    13
 74
     0
 42
0.000000001
 43
0.00000001
 40
0.0
 40
0.0
 40
0.0
 40
0.0
 40
0.1274909340128153
 40
0.2500283054354264
 40
0.377067343809363
 40
0.5000305835303678
 40
0.5830079545007038
 40
0.6695363918459627
 40
0.7500450809885859
 40
0.8340257827837024
 40
0.9173787411366116
 40
1.0
 40
1.0
 40
1.0
 40
1.0
 10
107.6519096942974
 20
133.6191346383093
 30
0.0
 10
107.6512248245527
 20
133.5110780785565
 30
0.0
 10
107.6498816951526
 20
133.2991634139148
 30
0.0
 10
107.6406938008093
 20
132.9799346589288
 30
0.0
 10
107.6234341843614
 20
132.66563223921
 30
0.0
 10
107.5982464743825
 20
132.3871633752366
 30
0.0
 10
107.5704622701156
 20
132.1445133526087
 30
0.0
 10
107.5384582709449
 20
131.9407727239719
 30
0.0
 10
107.50025463357
 20
131.7395874373563
 30
0.0
 10
107.4528690159772
 20
131.5476864864177
 30
0.0
 10
107.39624893475
 20
131.361276932102
 30
0.0
 10
107.3486732822215
 20
131.2485617407155
 30
0.0
 10
107.3249903248979
 20
131.192452598214
 30
0.0
  0
SPLINE
  5
2EF
330
1F
100
AcDbEntity
  8
0
  6
SLD-Durchgehend
 62
     8
370
     0
100
AcDbSpline
210
0.0
220
0.0
230
1.0
 70
     8
 71
     3
 72
    10
 73
     6
 74
     0
 42
0.000000001
 43
0.00000001
 40
0.0
 40
0.0
 40
0.0
 40
0.0
 40
0.2495527771104483
 40
0.4996973480984436
 40
1.0
 40
1.0
 40
1.0
 40
1.0
 10
107.3277079241706
 20
136.0434138661621
 30
0.0
 10
107.3912987278738
 20
135.8644278722406
 30
0.0
 10
107.5186311356387
 20
135.50603143384
 30
0.0
 10
107.6307251487085
 20
134.6761017204181
 30
0.0
 10
107.6434358302971
 20
134.0419237545105
 30
0.0
 10
107.6519096942974
 20
133.6191346383093
 30
0.0
  0
SPLINE
  5
2F0
330
1F
100
AcDbEntity
  8
0
  6
SLD-Durchgehend
 62
     8
370
     0
100
AcDbSpline
210
0.0
220
0.0
230
1.0
 70
     8
 71
     3
 72
    14
 73
    10
 74
     0
 42
0.000000001
 43
0.00000001
 40
0.0
 40
0.0
 40
0.0
 40
0.0
 40
0.1662106409515625
 40
0.3361464904668562
 40
0.5001902442379428
 40
0.7497743676897107
 40
0.8141182451418758
 40
0.8748919911253688
 40
1.0
 40
1.0
 40
1.0
 40
1.0
 10
106.5061649980379
 20
136.6599997019766
 30
0.0
 10
106.5604100610471
 20
136.657554885322
 30
0.0
 10
106.6701159586435
 20
136.6526104573748
 30
0.0
 10
106.8270760647905
 20
136.6041205855774
 30
0.0
 10
107.0005322547521
 20
136.508496961756
 30
0.0
 10
107.1268303067064
 20
136.3787394577222
 30
0.0
 10
107.2135260808686
 20
136.2550609808767
 30
0.0
 10
107.2681035172178
 20
136.1662917198499
 30
0.0
 10
107.3037296794062
 20
136.0928463729596
 30
0.0
 10
107.3277079241706
 20
136.0434138661621
 30
0.0
  0
SPLINE
  5
2F1
330
1F
100
AcDbEntity
  8
0
  6
SLD-Durchgehend
 62
     8
370
     0
100
AcDbSpline
210
0.0
220
0.0
230
1.0
 70
     8
 71
     3
 72
    13
 73
     9
 74
     0
 42
0.000000001
 43
0.00000001
 40
0.0
 40
0.0
 40
0.0
 40
0.0
 40
0.1251166736105704
 40
0.2501732721917205
 40
0.4997783616944904
 40
0.6644596393571847
 40
0.834223153372594
 40
1.0
 40
1.0
 40
1.0
 40
1.0
 10
105.6002377273871
 20
136.0506241655348
 30
0.0
 10
105.6293505272444
 20
136.0997975797964
 30
0.0
 10
105.6875621483879
 20
136.1981207976032
 30
0.0
 10
105.8213866380768
 20
136.368087583791
 30
0.0
 10
105.9859555426369
 20
136.5095696417159
 30
0.0
 10
106.1755488374085
 20
136.6059308433886
 30
0.0
 10
106.3416289090764
 20
136.6522231491873
 30
0.0
 10
106.4517557864871
 20
136.6574281317605
 30
0.0
 10
106.5061649980379
 20
136.6599997019766
 30
0.0
  0
SPLINE
  5
2F2
330
1F
100
AcDbEntity
  8
0
  6
SLD-Durchgehend
 62
     8
370
     0
100
AcDbSpline
210
0.0
220
0.0
230
1.0
 70
     8
 71
     3
 72
    15
 73
    11
 74
     0
 42
0.000000001
 43
0.00000001
 40
0.0
 40
0.0
 40
0.0
 40
0.0
 40
0.1771022122738794
 40
0.340495905937409
 40
0.5000345423400452
 40
0.625043631837757
 40
0.7500310928129943
 40
0.8344278241665687
 40
0.9173478123256046
 40
1.0
 40
1.0
 40
1.0
 40
1.0
 10
105.1813912319375
 20
133.6311542874573
 30
0.0
 10
105.1828001876193
 20
133.7808489909567
 30
0.0
 10
105.18550903939
 20
134.0686513454708
 30
0.0
 10
105.2105303107461
 20
134.4901583600588
 30
0.0
 10
105.2514997948425
 20
134.864766459208
 30
0.0
 10
105.3076050190462
 20
135.20204082128
 30
0.0
 10
105.369800967856
 20
135.4714149459236
 30
0.0
 10
105.4418180410417
 20
135.696483404414
 30
0.0
 10
105.5127022175957
 20
135.8826155529338
 30
0.0
 10
105.5710907037782
 20
135.994681714184
 30
0.0
 10
105.6002377273871
 20
136.0506241655348
 30
0.0
  0
SPLINE
  5
2F3
330
1F
100
AcDbEntity
  8
0
  6
SLD-Durchgehend
 62
     8
370
     0
100
AcDbSpline
210
0.0
220
0.0
230
1.0
 70
     8
 71
     3
 72
     9
 73
     5
 74
     0
 42
0.000000001
 43
0.00000001
 40
0.0
 40
0.0
 40
0.0
 40
0.0
 40
0.5006541844290706
 40
1.0
 40
1.0
 40
1.0
 40
1.0
 10
103.0728387387825
 20
130.5830770617722
 30
0.0
 10
102.8699779550587
 20
130.5961266593705
 30
0.0
 10
102.4647865274564
 20
130.622191751812
 30
0.0
 10
102.1075641991944
 20
130.8822863164332
 30
0.0
 10
101.9291867243482
 20
131.0121634489296
 30
0.0
  0
SPLINE
  5
2F4
330
1F
100
AcDbEntity
  8
0
  6
SLD-Durchgehend
 62
     8
370
     0
100
AcDbSpline
210
0.0
220
0.0
230
1.0
 70
     8
 71
     3
 72
    13
 73
     9
 74
     0
 42
0.000000001
 43
0.00000001
 40
0.0
 40
0.0
 40
0.0
 40
0.0
 40
0.2494716072626645
 40
0.373957902521998
 40
0.4998206553691266
 40
0.6244741917904411
 40
0.7502276562684791
 40
1.0
 40
1.0
 40
1.0
 40
1.0
 10
104.5915362166597
 20
132.4508649742602
 30
0.0
 10
104.5756998764354
 20
132.1976999572725
 30
0.0
 10
104.551961204773
 20
131.8182056341172
 30
0.0
 10
104.3728788655446
 20
131.367383064165
 30
0.0
 10
104.1856688702235
 20
131.0775669291222
 30
0.0
 10
103.9516748242409
 20
130.845019954109
 30
0.0
 10
103.5891375246215
 20
130.6281459441396
 30
0.0
 10
103.2790718092057
 20
130.6010796103857
 30
0.0
 10
103.0728387387825
 20
130.5830770617722
 30
0.0
  0
SPLINE
  5
2F5
330
1F
100
AcDbEntity
  8
0
  6
SLD-Durchgehend
 62
     8
370
     0
100
AcDbSpline
210
0.0
220
0.0
230
1.0
 70
     8
 71
     3
 72
    11
 73
     7
 74
     0
 42
0.000000001
 43
0.00000001
 40
0.0
 40
0.0
 40
0.0
 40
0.0
 40
0.2502615331573045
 40
0.5001528910884276
 40
0.7499703356880091
 40
1.0
 40
1.0
 40
1.0
 40
1.0
 10
103.7986659186317
 20
133.9220193660258
 30
0.0
 10
103.9127410086338
 20
133.8539677673067
 30
0.0
 10
104.1407224540678
 20
133.71796522863
 30
0.0
 10
104.3994927580195
 20
133.3674238032192
 30
0.0
 10
104.5648351754002
 20
132.9308611244371
 30
0.0
 10
104.5826333507205
 20
132.610908971601
 30
0.0
 10
104.5915362166597
 20
132.4508649742602
 30
0.0
  0
SPLINE
  5
2F6
330
1F
100
AcDbEntity
  8
0
  6
SLD-Durchgehend
 62
     8
370
     0
100
AcDbSpline
210
0.0
220
0.0
230
1.0
 70
     8
 71
     3
 72
    12
 73
     8
 74
     0
 42
0.000000001
 43
0.00000001
 40
0.0
 40
0.0
 40
0.0
 40
0.0
 40
0.2498546704715201
 40
0.4994808443335332
 40
0.7493154100645864
 40
0.8746187182788815
 40
0.9999999999999999
 40
0.9999999999999999
 40
0.9999999999999999
 40
0.9999999999999999
 10
104.4755744489266
 20
135.1407685762642
 30
0.0
 10
104.4673443849611
 20
135.0073162842418
 30
0.0
 10
104.4508917835722
 20
134.7405337447287
 30
0.0
 10
104.3041141719566
 20
134.379985766991
 30
0.0
 10
104.1184430403286
 20
134.1460258282731
 30
0.0
 10
103.9427554870286
 20
134.0030763729874
 30
0.0
 10
103.8467057332755
 20
133.9490439704669
 30
0.0
 10
103.7986659186317
 20
133.9220193660258
 30
0.0
  0
SPLINE
  5
2F7
330
1F
100
AcDbEntity
  8
0
  6
SLD-Durchgehend
 62
     8
370
     0
100
AcDbSpline
210
0.0
220
0.0
230
1.0
 70
     8
 71
     3
 72
    15
 73
    11
 74
     0
 42
0.000000001
 43
0.00000001
 40
0.0
 40
0.0
 40
0.0
 40
0.0
 40
0.2498292188274434
 40
0.3749412376826711
 40
0.4998783365471839
 40
0.6248703452801013
 40
0.7498223736758906
 40
0.8747950907291733
 40
0.9373863153880176
 40
1.0
 40
1.0
 40
1.0
 40
1.0
 10
103.0461433085037
 20
136.6599997019766
 30
0.0
 10
103.227737600918
 20
136.6486841328637
 30
0.0
 10
103.5002725312737
 20
136.6317018378855
 30
0.0
 10
103.8331563822648
 20
136.4805705403335
 30
0.0
 10
104.0563654726081
 20
136.3061819453148
 30
0.0
 10
104.2416073872896
 20
136.0731343029145
 30
0.0
 10
104.3807811326902
 20
135.7917588309546
 30
0.0
 10
104.4458388856772
 20
135.5260364004125
 30
0.0
 10
104.472639652006
 20
135.3070733478385
 30
0.0
 10
104.4745960663022
 20
135.1962101292093
 30
0.0
 10
104.4755744489266
 20
135.1407685762642
 30
0.0
  0
SPLINE
  5
2F8
330
1F
100
AcDbEntity
  8
0
  6
SLD-Durchgehend
 62
     8
370
     0
100
AcDbSpline
210
0.0
220
0.0
230
1.0
 70
     8
 71
     3
 72
    14
 73
    10
 74
     0
 42
0.000000001
 43
0.00000001
 40
0.0
 40
0.0
 40
0.0
 40
0.0
 40
0.125061467464014
 40
0.2500480316812024
 40
0.3746861725208278
 40
0.5000537111133563
 40
0.625045464471569
 40
0.750120498018395
 40
1.0
 40
1.0
 40
1.0
 40
1.0
 10
101.505382798834
 20
135.1407685762642
 30
0.0
 10
101.5102659783523
 20
135.2517853380907
 30
0.0
 10
101.5200294126992
 20
135.4737523703129
 30
0.0
 10
101.6157991919644
 20
135.7919110558705
 30
0.0
 10
101.7723068579019
 20
136.074565665777
 30
0.0
 10
101.9800946230554
 20
136.309322443451
 30
0.0
 10
102.2265521410919
 20
136.4822525134373
 30
0.0
 10
102.5844237388337
 20
136.6324008040368
 30
0.0
 10
102.8614954673201
 20
136.648962532971
 30
0.0
 10
103.0461433085037
 20
136.6599997019766
 30
0.0
  0
SPLINE
  5
2F9
330
1F
100
AcDbEntity
  8
0
  6
SLD-Durchgehend
 62
     8
370
     0
100
AcDbSpline
210
0.0
220
0.0
230
1.0
 70
     8
 71
     3
 72
    11
 73
     7
 74
     0
 42
0.000000001
 43
0.00000001
 40
0.0
 40
0.0
 40
0.0
 40
0.0
 40
0.2503344941593203
 40
0.5000466007205403
 40
0.74995629299292
 40
1.0
 40
1.0
 40
1.0
 40
1.0
 10
102.2567785086466
 20
133.9220193660258
 30
0.0
 10
102.1531300935009
 20
133.9786918635701
 30
0.0
 10
101.9460909563746
 20
134.091895958142
 30
0.0
 10
101.6938912796405
 20
134.3766243724176
 30
0.0
 10
101.5351336625141
 20
134.741619118172
 30
0.0
 10
101.5153015254249
 20
135.0076949826267
 30
0.0
 10
101.505382798834
 20
135.1407685762642
 30
0.0
  0
SPLINE
  5
2FA
330
1F
100
AcDbEntity
  8
0
  6
SLD-Durchgehend
 62
     8
370
     0
100
AcDbSpline
210
0.0
220
0.0
230
1.0
 70
     8
 71
     3
 72
    11
 73
     7
 74
     0
 42
0.000000001
 43
0.00000001
 40
0.0
 40
0.0
 40
0.0
 40
0.0
 40
0.2501277884767302
 40
0.5001284381272293
 40
0.7497683000774044
 40
1.0
 40
1.0
 40
1.0
 40
1.0
 10
101.3696872370673
 20
132.4015868341921
 30
0.0
 10
101.3807813215055
 20
132.5643238662052
 30
0.0
 10
101.4029638513087
 20
132.8897152117325
 30
0.0
 10
101.5847845826165
 20
133.3408713883115
 30
0.0
 10
101.8785742148266
 20
133.7077530365107
 30
0.0
 10
102.1306109418851
 20
133.8505409035239
 30
0.0
 10
102.2567785086466
 20
133.9220193660258
 30
0.0
  0
SPLINE
  5
2FB
330
1F
100
AcDbEntity
  8
0
  6
SLD-Durchgehend
 62
     8
370
     0
100
AcDbSpline
210
0.0
220
0.0
230
1.0
 70
     8
 71
     3
 72
    13
 73
     9
 74
     0
 42
0.000000001
 43
0.00000001
 40
0.0
 40
0.0
 40
0.0
 40
0.0
 40
0.1251146385317839
 40
0.2501747770692156
 40
0.4997975891571536
 40
0.664406782693177
 40
0.8338912229708343
 40
1.0
 40
1.0
 40
1.0
 40
1.0
 10
101.9291867243482
 20
131.0121634489296
 30
0.0
 10
101.8851321056895
 20
131.054595275901
 30
0.0
 10
101.7970420585844
 20
131.1394404465205
 30
0.0
 10
101.6442578907983
 20
131.3381013576666
 30
0.0
 10
101.5112291605552
 20
131.5833286516613
 30
0.0
 10
101.4219909804375
 20
131.8757955391261
 30
0.0
 10
101.3761352749393
 20
132.1362228021669
 30
0.0
 10
101.3718221213158
 20
132.3137273173377
 30
0.0
 10
101.3696872370673
 20
132.4015868341921
 30
0.0
  0
SPLINE
  5
2FC
330
1F
100
AcDbEntity
  8
0
  6
SLD-Durchgehend
 62
     8
370
     0
100
AcDbSpline
210
0.0
220
0.0
230
1.0
 70
     8
 71
     3
 72
    15
 73
    11
 74
     0
 42
0.000000001
 43
0.00000001
 40
0.0
 40
0.0
 40
0.0
 40
0.0
 40
0.1632717420232301
 40
0.3326397706957439
 40
0.4999852023104069
 40
0.6300767657383972
 40
0.7499539925604963
 40
0.8332634883885225
 40
0.9176579595505234
 40
1.0
 40
1.0
 40
1.0
 40
1.0
 10
97.23635494917464
 20
135.1215386277435
 30
0.0
 10
97.35263093815303
 20
135.1688213413475
 30
0.0
 10
97.58952446199187
 20
135.2651522239375
 30
0.0
 10
97.9109594614415
 20
135.4770894091463
 30
0.0
 10
98.19444241131332
 20
135.6952502068204
 30
0.0
 10
98.42704594016759
 20
135.9161199760783
 30
0.0
 10
98.58904043332964
 20
136.1163154788201
 30
0.0
 10
98.70706496353064
 20
136.305083659049
 30
0.0
 10
98.79740128645741
 20
136.4772878589904
 30
0.0
 10
98.84178209922806
 20
136.5995976085756
 30
0.0
 10
98.8636993544532
 20
136.6599997019766
 30
0.0
  0
LINE
  5
2FD
330
1F
100
AcDbEntity
  8
0
  6
SLD-Durchgehend
 62
     8
370
     0
100
AcDbLine
 10
97.2363549492
 20
133.9676914251
 30
0.0
 11
97.2363549492
 21
135.1215386277
 31
0.0
  0
SPLINE
  5
2FE
330
1F
100
AcDbEntity
  8
0
  6
SLD-Durchgehend
 62
     8
370
     0
100
AcDbSpline
210
0.0
220
0.0
230
1.0
 70
     8
 71
     3
 72
     9
 73
     5
 74
     0
 42
0.000000001
 43
0.00000001
 40
0.0
 40
0.0
 40
0.0
 40
0.0
 40
0.5000105106822746
 40
1.0
 40
1.0
 40
1.0
 40
1.0
 10
98.64659316114914
 20
134.9316345041989
 30
0.0
 10
98.44038932397642
 20
134.7289566838909
 30
0.0
 10
98.0279903188208
 20
134.3236095642245
 30
0.0
 10
97.50022970764061
 20
134.0863291421454
 30
0.0
 10
97.23635494917464
 20
133.9676914250849
 30
0.0
  0
LINE
  5
2FF
330
1F
100
AcDbEntity
  8
0
  6
SLD-Durchgehend
 62
     8
370
     0
100
AcDbLine
 10
98.6465931611
 20
130.6600005811
 30
0.0
 11
98.6465931611
 21
134.9316345042
 31
0.0
  0
LINE
  5
300
330
1F
100
AcDbEntity
  8
0
  6
SLD-Durchgehend
 62
     8
370
     0
100
AcDbLine
 10
99.7329748908
 20
130.6600005811
 30
0.0
 11
98.6465931611
 21
130.6600005811
 31
0.0
  0
LINE
  5
301
330
1F
100
AcDbEntity
  8
0
  6
SLD-Durchgehend
 62
     8
370
     0
100
AcDbLine
 10
99.7329748908
 20
136.659999702
 30
0.0
 11
99.7329748908
 21
130.6600005811
 31
0.0
  0
LINE
  5
302
330
1F
100
AcDbEntity
  8
0
  6
SLD-Durchgehend
 62
     8
370
     0
100
AcDbLine
 10
99.7329748908
 20
136.659999702
 30
0.0
 11
98.8636993545
 21
136.659999702
 31
0.0
  0
SPLINE
  5
303
330
1F
100
AcDbEntity
  8
0
  6
SLD-Durchgehend
 62
     8
370
     0
100
AcDbSpline
210
0.0
220
0.0
230
1.0
 70
     8
 71
     3
 72
    20
 73
    16
 74
     0
 42
0.000000001
 43
0.00000001
 40
0.0
 40
0.0
 40
0.0
 40
0.0
 40
0.0623921525069694
 40
0.1249373765581993
 40
0.2500490563419376
 40
0.3751769542018625
 40
0.5002731072740785
 40
0.5628214240643914
 40
0.6253395626261454
 40
0.7499153004350119
 40
0.8126075587559823
 40
0.8740444626805316
 40
0.9169934977553422
 40
0.957452728171408
 40
1.0
 40
1.0
 40
1.0
 40
1.0
 10
90.47177305653524
 20
134.8030281698702
 30
0.0
 10
90.54918474421108
 20
134.7546590235457
 30
0.0
 10
90.70419803970654
 20
134.6578020630895
 30
0.0
 10
91.05132174451435
 20
134.5404870514933
 30
0.0
 10
91.49179939564027
 20
134.4192909603529
 30
0.0
 10
92.02822449305091
 20
134.2917626124495
 30
0.0
 10
92.46647482054925
 20
134.1479081706185
 30
0.0
 10
92.80656542413716
 20
134.0038380168282
 30
0.0
 10
93.12603985494913
 20
133.8184057884264
 30
0.0
 10
93.39485241932844
 20
133.5536826069827
 30
0.0
 10
93.58263964123803
 20
133.2364105022929
 30
0.0
 10
93.66779249979191
 20
133.0032407078143
 30
0.0
 10
93.71030613806128
 20
132.7934242200795
 30
0.0
 10
93.73392401912477
 20
132.6086811163206
 30
0.0
 10
93.73586873659067
 20
132.4860694489973
 30
0.0
 10
93.73686555515808
 20
132.4232214576004
 30
0.0
  0
SPLINE
  5
304
330
1F
100
AcDbEntity
  8
0
  6
SLD-Durchgehend
 62
     8
370
     0
100
AcDbSpline
210
0.0
220
0.0
230
1.0
 70
     8
 71
     3
 72
    11
 73
     7
 74
     0
 42
0.000000001
 43
0.00000001
 40
0.0
 40
0.0
 40
0.0
 40
0.0
 40
0.2501338411478322
 40
0.4998696251933618
 40
0.7497276822062378
 40
1.0
 40
1.0
 40
1.0
 40
1.0
 10
90.29722155280244
 20
135.16000038743
 30
0.0
 10
90.29908118396442
 20
135.1254882450773
 30
0.0
 10
90.30279748691514
 20
135.0565188821821
 30
0.0
 10
90.34043761149891
 20
134.959342242987
 30
0.0
 10
90.39661386770257
 20
134.872631358787
 30
0.0
 10
90.4467061630151
 20
134.8262420410194
 30
0.0
 10
90.47177305653524
 20
134.8030281698702
 30
0.0
  0
SPLINE
  5
305
330
1F
100
AcDbEntity
  8
0
  6
SLD-Durchgehend
 62
     8
370
     0
100
AcDbSpline
210
0.0
220
0.0
230
1.0
 70
     8
 71
     3
 72
    11
 73
     7
 74
     0
 42
0.000000001
 43
0.00000001
 40
0.0
 40
0.0
 40
0.0
 40
0.0
 40
0.2502723307746316
 40
0.499977764658547
 40
0.7497167802695963
 40
0.9999999999999999
 40
0.9999999999999999
 40
0.9999999999999999
 40
0.9999999999999999
 10
90.4823994471116
 20
135.5241829043625
 30
0.0
 10
90.4549114836582
 20
135.5019529365347
 30
0.0
 10
90.39999782029031
 20
135.4575433544265
 30
0.0
 10
90.33958998590924
 20
135.3686114199353
 30
0.0
 10
90.30364917158848
 20
135.2669227109679
 30
0.0
 10
90.29936564640339
 20
135.1956670125561
 30
0.0
 10
90.29722155280244
 20
135.16000038743
 30
0.0
  0
SPLINE
  5
306
330
1F
100
AcDbEntity
  8
0
  6
SLD-Durchgehend
 62
     8
370
     0
100
AcDbSpline
210
0.0
220
0.0
230
1.0
 70
     8
 71
     3
 72
     9
 73
     5
 74
     0
 42
0.000000001
 43
0.00000001
 40
0.0
 40
0.0
 40
0.0
 40
0.0
 40
0.501105064154058
 40
1.0
 40
1.0
 40
1.0
 40
1.0
 10
91.28160716242921
 20
135.7369230574368
 30
0.0
 10
91.13949752001285
 20
135.7330374367127
 30
0.0
 10
90.85590501101223
 20
135.7252833328292
 30
0.0
 10
90.60671772311882
 20
135.591117539312
 30
0.0
 10
90.4823994471116
 20
135.5241829043625
 30
0.0
  0
SPLINE
  5
307
330
1F
100
AcDbEntity
  8
0
  6
SLD-Durchgehend
 62
     8
370
     0
100
AcDbSpline
210
0.0
220
0.0
230
1.0
 70
     8
 71
     3
 72
    13
 73
     9
 74
     0
 42
0.000000001
 43
0.00000001
 40
0.0
 40
0.0
 40
0.0
 40
0.0
 40
0.2498558784296606
 40
0.3758152397111766
 40
0.4997929623234056
 40
0.6229624059144759
 40
0.7498707969110968
 40
1.0
 40
1.0
 40
1.0
 40
1.0
 10
92.35339751209897
 20
134.8907699322699
 30
0.0
 10
92.32600359508936
 20
135.0164384060387
 30
0.0
 10
92.28479963562161
 20
135.2054598847024
 30
0.0
 10
92.15051218416708
 20
135.425273315118
 30
0.0
 10
92.01401517800335
 20
135.5606171430914
 30
0.0
 10
91.84496590634797
 20
135.6518976957531
 30
0.0
 10
91.60004228086802
 20
135.7243317538484
 30
0.0
 10
91.40860674654219
 20
135.7319013427245
 30
0.0
 10
91.28160716242921
 20
135.7369230574368
 30
0.0
  0
LINE
  5
308
330
1F
100
AcDbEntity
  8
0
  6
SLD-Durchgehend
 62
     8
370
     0
100
AcDbLine
 10
93.5060985332
 20
134.967691589
 30
0.0
 11
92.3533975121
 21
134.8907699323
 31
0.0
  0
SPLINE
  5
309
330
1F
100
AcDbEntity
  8
0
  6
SLD-Durchgehend
 62
     8
370
     0
100
AcDbSpline
210
0.0
220
0.0
230
1.0
 70
     8
 71
     3
 72
    15
 73
    11
 74
     0
 42
0.000000001
 43
0.00000001
 40
0.0
 40
0.0
 40
0.0
 40
0.0
 40
0.2499750449958061
 40
0.3750500978881805
 40
0.5000150944260398
 40
0.6249470698421385
 40
0.7498758956827998
 40
0.8748016244479707
 40
0.9373904682982659
 40
1.0
 40
1.0
 40
1.0
 40
1.0
 10
91.26732439942491
 20
136.7369232213495
 30
0.0
 10
91.53467084171095
 20
136.7262552230614
 30
0.0
 10
91.93578411824268
 20
136.71024949016
 30
0.0
 10
92.4502789274752
 20
136.5519230755573
 30
0.0
 10
92.80921010688076
 20
136.3642778820482
 30
0.0
 10
93.10916509803282
 20
136.0902020141795
 30
0.0
 10
93.33620253454902
 20
135.7535392687832
 30
0.0
 10
93.44752416956554
 20
135.4336707486839
 30
0.0
 10
93.49357525748749
 20
135.1688953406094
 30
0.0
 10
93.50192364810133
 20
135.0347668940221
 30
0.0
 10
93.50609853315466
 20
134.9676915889977
 30
0.0
  0
SPLINE
  5
30A
330
1F
100
AcDbEntity
  8
0
  6
SLD-Durchgehend
 62
     8
370
     0
100
AcDbSpline
210
0.0
220
0.0
230
1.0
 70
     8
 71
     3
 72
    13
 73
     9
 74
     0
 42
0.000000001
 43
0.00000001
 40
0.0
 40
0.0
 40
0.0
 40
0.0
 40
0.125086288867153
 40
0.2501935412361561
 40
0.3759711650224422
 40
0.500378838501398
 40
0.7497457564693095
 40
0.9999999999999999
 40
0.9999999999999999
 40
0.9999999999999999
 40
0.9999999999999999
 10
89.17500718705189
 20
135.0794707870482
 30
0.0
 10
89.18339572480811
 20
135.2062440879084
 30
0.0
 10
89.20017420617506
 20
135.459811935861
 30
0.0
 10
89.34131863632857
 20
135.8162439279974
 30
0.0
 10
89.54944728308644
 20
136.1322677006568
 30
0.0
 10
89.92669974070927
 20
136.4627470007247
 30
0.0
 10
90.51702166130652
 20
136.70091092473
 30
0.0
 10
91.01692754297716
 20
136.7249049180583
 30
0.0
 10
91.26732439942491
 20
136.7369232213495
 30
0.0
  0
SPLINE
  5
30B
330
1F
100
AcDbEntity
  8
0
  6
SLD-Durchgehend
 62
     8
370
     0
100
AcDbSpline
210
0.0
220
0.0
230
1.0
 70
     8
 71
     3
 72
    11
 73
     7
 74
     0
 42
0.000000001
 43
0.00000001
 40
0.0
 40
0.0
 40
0.0
 40
0.0
 40
0.4985785218659633
 40
0.7490672221861927
 40
0.8745094333175001
 40
1.0
 40
1.0
 40
1.0
 40
1.0
 10
89.71158705860209
 20
133.8835576063393
 30
0.0
 10
89.55938413175434
 20
134.0508198334038
 30
0.0
 10
89.33071358414283
 20
134.3021155597721
 30
0.0
 10
89.21474317560896
 20
134.6854392667261
 30
0.0
 10
89.17903222045241
 20
134.909174044832
 30
0.0
 10
89.17634903720474
 20
135.0226979141715
 30
0.0
 10
89.17500718705189
 20
135.0794707870482
 30
0.0
  0
SPLINE
  5
30C
330
1F
100
AcDbEntity
  8
0
  6
SLD-Durchgehend
 62
     8
370
     0
100
AcDbSpline
210
0.0
220
0.0
230
1.0
 70
     8
 71
     3
 72
     9
 73
     5
 74
     0
 42
0.000000001
 43
0.00000001
 40
0.0
 40
0.0
 40
0.0
 40
0.0
 40
0.5010323943579191
 40
1.0
 40
1.0
 40
1.0
 40
1.0
 10
91.05686342552137
 20
133.2946152871845
 30
0.0
 10
90.81531199553858
 20
133.3561879225354
 30
0.0
 10
90.33320458551302
 20
133.4790794482015
 30
0.0
 10
89.91850748027127
 20
133.7489172729919
 30
0.0
 10
89.71158705860209
 20
133.8835576063393
 30
0.0
  0
SPLINE
  5
30D
330
1F
100
AcDbEntity
  8
0
  6
SLD-Durchgehend
 62
     8
370
     0
100
AcDbSpline
210
0.0
220
0.0
230
1.0
 70
     8
 71
     3
 72
    11
 73
     7
 74
     0
 42
0.000000001
 43
0.00000001
 40
0.0
 40
0.0
 40
0.0
 40
0.0
 40
0.499944409279067
 40
0.5063794248013721
 40
0.7499704907281366
 40
1.0
 40
1.0
 40
1.0
 40
1.0
 10
92.02285366806966
 20
133.0337984001635
 30
0.0
 10
91.86253069837215
 20
133.081344697706
 30
0.0
 10
91.70014413764443
 20
133.129502985616
 30
0.0
 10
91.45793273452044
 20
133.1921229924131
 30
0.0
 10
91.29670378763163
 20
133.234465566639
 30
0.0
 10
91.13750238367427
 20
133.2743917903748
 30
0.0
 10
91.05686342552137
 20
133.2946152871845
 30
0.0
  0
SPLINE
  5
30E
330
1F
100
AcDbEntity
  8
0
  6
SLD-Durchgehend
 62
     8
370
     0
100
AcDbSpline
210
0.0
220
0.0
230
1.0
 70
     8
 71
     3
 72
    11
 73
     7
 74
     0
 42
0.000000001
 43
0.00000001
 40
0.0
 40
0.0
 40
0.0
 40
0.0
 40
0.2498257405097242
 40
0.3734169527552906
 40
0.5006371499347464
 40
1.0
 40
1.0
 40
1.0
 40
1.0
 10
92.58363884616476
 20
132.4112018084524
 30
0.0
 10
92.57680708628463
 20
132.4870408650703
 30
0.0
 10
92.56659558865756
 20
132.6003982371502
 30
0.0
 10
92.49385233303524
 20
132.734291386335
 30
0.0
 10
92.34383163665211
 20
132.9051334785405
 30
0.0
 10
92.16520906328219
 20
132.9767348395443
 30
0.0
 10
92.02285366806966
 20
133.0337984001635
 30
0.0
  0
SPLINE
  5
30F
330
1F
100
AcDbEntity
  8
0
  6
SLD-Durchgehend
 62
     8
370
     0
100
AcDbSpline
210
0.0
220
0.0
230
1.0
 70
     8
 71
     3
 72
    13
 73
     9
 74
     0
 42
0.000000001
 43
0.00000001
 40
0.0
 40
0.0
 40
0.0
 40
0.0
 40
0.2503806520944764
 40
0.4998883693725738
 40
0.6249940079248492
 40
0.7501489098208052
 40
0.8750673410200795
 40
1.0
 40
1.0
 40
1.0
 40
1.0
 10
91.38759027443659
 20
131.5830772256849
 30
0.0
 10
91.52213303879775
 20
131.5882813384224
 30
0.0
 10
91.79074949348292
 20
131.5986714201183
 30
0.0
 10
92.11932130609308
 20
131.7064684651859
 30
0.0
 10
92.33676503688399
 20
131.8699832194477
 30
0.0
 10
92.47216837347102
 20
132.0225152269155
 30
0.0
 10
92.56668438863319
 20
132.2073714587291
 30
0.0
 10
92.57798714577558
 20
132.3432557792319
 30
0.0
 10
92.58363884616476
 20
132.4112018084524
 30
0.0
  0
SPLINE
  5
310
330
1F
100
AcDbEntity
  8
0
  6
SLD-Durchgehend
 62
     8
370
     0
100
AcDbSpline
210
0.0
220
0.0
230
1.0
 70
     8
 71
     3
 72
    13
 73
     9
 74
     0
 42
0.000000001
 43
0.00000001
 40
0.0
 40
0.0
 40
0.0
 40
0.0
 40
0.2499430459915448
 40
0.3743856309471715
 40
0.5000647882279213
 40
0.6250769043193607
 40
0.7501711751102473
 40
0.9999999999999999
 40
0.9999999999999999
 40
0.9999999999999999
 40
0.9999999999999999
 10
90.07133950687778
 20
132.7369225656984
 30
0.0
 10
90.10807879981023
 20
132.5775085485558
 30
0.0
 10
90.16310999025805
 20
132.3387248802484
 30
0.0
 10
90.32086803167574
 20
132.0530588278355
 30
0.0
 10
90.47981762290568
 20
131.8670460349415
 30
0.0
 10
90.68216085641731
 20
131.7307790564621
 30
0.0
 10
90.98169348449751
 20
131.6061260644682
 30
0.0
 10
91.22527829952594
 20
131.5922941070081
 30
0.0
 10
91.38759027443659
 20
131.5830772256849
 30
0.0
  0
LINE
  5
311
330
1F
100
AcDbEntity
  8
0
  6
SLD-Durchgehend
 62
     8
370
     0
100
AcDbLine
 10
88.9529379757
 20
132.660000909
 30
0.0
 11
90.0713395069
 21
132.7369225657
 31
0.0
  0
SPLINE
  5
312
330
1F
100
AcDbEntity
  8
0
  6
SLD-Durchgehend
 62
     8
370
     0
100
AcDbSpline
210
0.0
220
0.0
230
1.0
 70
     8
 71
     3
 72
    13
 73
     9
 74
     0
 42
0.000000001
 43
0.00000001
 40
0.0
 40
0.0
 40
0.0
 40
0.0
 40
0.2500104432657377
 40
0.3751508862386435
 40
0.5002031637084066
 40
0.6253952150882982
 40
0.7503267628037784
 40
1.0
 40
1.0
 40
1.0
 40
1.0
 10
91.3566193750484
 20
130.5830770617722
 30
0.0
 10
91.0587718901096
 20
130.5980222626254
 30
0.0
 10
90.61183956808667
 20
130.6204481472081
 30
0.0
 10
90.05402749092622
 20
130.8228850319364
 30
0.0
 10
89.67945287323737
 20
131.064183796307
 30
0.0
 10
89.37715664916101
 20
131.3935911235377
 30
0.0
 10
89.08344108054436
 20
131.9171564582192
 30
0.0
 10
89.00513127982835
 20
132.3629083121079
 30
0.0
 10
88.9529379757477
 20
132.6600009089707
 30
0.0
  0
SPLINE
  5
313
330
1F
100
AcDbEntity
  8
0
  6
SLD-Durchgehend
 62
     8
370
     0
100
AcDbSpline
210
0.0
220
0.0
230
1.0
 70
     8
 71
     3
 72
    19
 73
    15
 74
     0
 42
0.000000001
 43
0.00000001
 40
0.0
 40
0.0
 40
0.0
 40
0.0
 40
0.062530896327977
 40
0.1250498815059584
 40
0.2498973158133836
 40
0.3131356415034786
 40
0.3749422483795292
 40
0.4363922443617206
 40
0.499971544162917
 40
0.6182058158117728
 40
0.7498153964087387
 40
0.8323747851057159
 40
0.9161936713252081
 40
1.0
 40
1.0
 40
1.0
 40
1.0
 10
93.73686555515808
 20
132.4232214576004
 30
0.0
 10
93.73432653902505
 20
132.352422956887
 30
0.0
 10
93.72924899040156
 20
132.2108394414585
 30
0.0
 10
93.67813309110622
 20
131.9317715608971
 30
0.0
 10
93.57480387468249
 20
131.664327080301
 30
0.0
 10
93.42909036911115
 20
131.4214466352691
 30
0.0
 10
93.29977548439139
 20
131.2539123392702
 30
0.0
 10
93.14939288240878
 20
131.104521019053
 30
0.0
 10
92.93138259878877
 20
130.9353786249738
 30
0.0
 10
92.61333560657192
 20
130.7722650663946
 30
0.0
 10
92.25102445666474
 20
130.6675973696715
 30
0.0
 10
91.91956068450645
 20
130.6119551464308
 30
0.0
 10
91.63880025302215
 20
130.5872718341263
 30
0.0
 10
91.45067496994122
 20
130.5844752493887
 30
0.0
 10
91.3566193750484
 20
130.5830770617722
 30
0.0
  0
LINE
  5
314
330
1F
100
AcDbEntity
  8
0
  6
SLD-Durchgehend
 62
     8
370
     0
100
AcDbLine
 10
88.4061426597
 20
135.6599995381
 30
0.0
 11
86.7573310363
 21
135.6599995381
 31
0.0
  0
LINE
  5
315
330
1F
100
AcDbEntity
  8
0
  6
SLD-Durchgehend
 62
     8
370
     0
100
AcDbLine
 10
88.4061426597
 20
136.659999702
 30
0.0
 11
88.4061426597
 21
135.6599995381
 31
0.0
  0
LINE
  5
316
330
1F
100
AcDbEntity
  8
0
  6
SLD-Durchgehend
 62
     8
370
     0
100
AcDbLine
 10
88.4061426597
 20
136.659999702
 30
0.0
 11
84.2106154861
 21
136.659999702
 31
0.0
  0
LINE
  5
317
330
1F
100
AcDbEntity
  8
0
  6
SLD-Durchgehend
 62
     8
370
     0
100
AcDbLine
 10
84.2106154861
 20
135.6599995381
 30
0.0
 11
84.2106154861
 21
136.659999702
 31
0.0
  0
LINE
  5
318
330
1F
100
AcDbEntity
  8
0
  6
SLD-Durchgehend
 62
     8
370
     0
100
AcDbLine
 10
85.7224295589
 20
135.6599995381
 30
0.0
 11
84.2106154861
 21
135.6599995381
 31
0.0
  0
LINE
  5
319
330
1F
100
AcDbEntity
  8
0
  6
SLD-Durchgehend
 62
     8
370
     0
100
AcDbLine
 10
85.7224295589
 20
130.6600005811
 30
0.0
 11
85.7224295589
 21
135.6599995381
 31
0.0
  0
LINE
  5
31A
330
1F
100
AcDbEntity
  8
0
  6
SLD-Durchgehend
 62
     8
370
     0
100
AcDbLine
 10
86.7573310363
 20
130.6600005811
 30
0.0
 11
85.7224295589
 21
130.6600005811
 31
0.0
  0
LINE
  5
31B
330
1F
100
AcDbEntity
  8
0
  6
SLD-Durchgehend
 62
     8
370
     0
100
AcDbLine
 10
86.7573310363
 20
135.6599995381
 30
0.0
 11
86.7573310363
 21
130.6600005811
 31
0.0
  0
SPLINE
  5
31C
330
1F
100
AcDbEntity
  8
0
  6
SLD-Durchgehend
 62
     8
370
     0
100
AcDbSpline
210
0.0
220
0.0
230
1.0
 70
     8
 71
     3
 72
     9
 73
     5
 74
     0
 42
0.000000001
 43
0.00000001
 40
0.0
 40
0.0
 40
0.0
 40
0.0
 40
0.500000029700638
 40
1.0
 40
1.0
 40
1.0
 40
1.0
 10
82.48125656716358
 20
130.6600005811451
 30
0.0
 10
82.19118979482414
 20
131.3070356788784
 30
0.0
 10
81.61105628460591
 20
132.6011057974756
 30
0.0
 10
81.09170265028581
 20
133.8951761466811
 30
0.0
 10
80.83202584855091
 20
134.5422112828491
 30
0.0
  0
LINE
  5
31D
330
1F
100
AcDbEntity
  8
0
  6
SLD-Durchgehend
 62
     8
370
     0
100
AcDbLine
 10
83.4359786215
 20
130.6600005811
 30
0.0
 11
82.4812565672
 21
130.6600005811
 31
0.0
  0
LINE
  5
31E
330
1F
100
AcDbEntity
  8
0
  6
SLD-Durchgehend
 62
     8
370
     0
100
AcDbLine
 10
83.4359786215
 20
136.659999702
 30
0.0
 11
83.4359786215
 21
130.6600005811
 31
0.0
  0
LINE
  5
31F
330
1F
100
AcDbEntity
  8
0
  6
SLD-Durchgehend
 62
     8
370
     0
100
AcDbLine
 10
83.4359786215
 20
136.659999702
 30
0.0
 11
82.5467574152
 21
136.659999702
 31
0.0
  0
LINE
  5
320
330
1F
100
AcDbEntity
  8
0
  6
SLD-Durchgehend
 62
     8
370
     0
100
AcDbLine
 10
82.5467574152
 20
132.7176926172
 30
0.0
 11
82.5467574152
 21
136.659999702
 31
0.0
  0
SPLINE
  5
321
330
1F
100
AcDbEntity
  8
0
  6
SLD-Durchgehend
 62
     8
370
     0
100
AcDbSpline
210
0.0
220
0.0
230
1.0
 70
     8
 71
     3
 72
     9
 73
     5
 74
     0
 42
0.000000001
 43
0.00000001
 40
0.0
 40
0.0
 40
0.0
 40
0.0
 40
0.4999999961506262
 40
1.0
 40
1.0
 40
1.0
 40
1.0
 10
80.86528896562588
 20
136.6599997019766
 30
0.0
 10
81.12993754770837
 20
136.0029485186475
 30
0.0
 10
81.65923471594827
 20
134.6888461418725
 30
0.0
 10
82.25091651390359
 20
133.3747437954483
 30
0.0
 10
82.54675741515887
 20
132.7176926171778
 30
0.0
  0
LINE
  5
322
330
1F
100
AcDbEntity
  8
0
  6
SLD-Durchgehend
 62
     8
370
     0
100
AcDbLine
 10
80.8652889656
 20
136.659999702
 30
0.0
 11
80.1220162513
 21
136.659999702
 31
0.0
  0
LINE
  5
323
330
1F
100
AcDbEntity
  8
0
  6
SLD-Durchgehend
 62
     8
370
     0
100
AcDbLine
 10
80.1220162513
 20
130.6600005811
 30
0.0
 11
80.1220162513
 21
136.659999702
 31
0.0
  0
LINE
  5
324
330
1F
100
AcDbEntity
  8
0
  6
SLD-Durchgehend
 62
     8
370
     0
100
AcDbLine
 10
80.8320258486
 20
130.6600005811
 30
0.0
 11
80.1220162513
 21
130.6600005811
 31
0.0
  0
LINE
  5
325
330
1F
100
AcDbEntity
  8
0
  6
SLD-Durchgehend
 62
     8
370
     0
100
AcDbLine
 10
80.8320258486
 20
134.5422112828
 30
0.0
 11
80.8320258486
 21
130.6600005811
 31
0.0
  0
SPLINE
  5
326
330
1F
100
AcDbEntity
  8
0
  6
SLD-Durchgehend
 62
     8
370
     0
100
AcDbSpline
210
0.0
220
0.0
230
1.0
 70
     8
 71
     3
 72
    13
 73
     9
 74
     0
 42
0.000000001
 43
0.00000001
 40
0.0
 40
0.0
 40
0.0
 40
0.0
 40
0.2505102408708224
 40
0.5003966790589023
 40
0.6271682221676737
 40
0.7502007794958649
 40
0.87497656469443
 40
0.9999999999999999
 40
0.9999999999999999
 40
0.9999999999999999
 40
0.9999999999999999
 10
77.40513968489897
 20
127.9463780558107
 30
0.0
 10
77.40443859285037
 20
127.8333440802208
 30
0.0
 10
77.40303815456242
 20
127.6075575981615
 30
0.0
 10
77.38777808840369
 20
127.3274478297409
 30
0.0
 10
77.36216901717712
 20
127.1296617804972
 30
0.0
 10
77.33458406944497
 20
127.0118143161119
 30
0.0
 10
77.30091288879795
 20
126.9441380911379
 30
0.0
 10
77.27834053800686
 20
126.9376209667794
 30
0.0
 10
77.26704317353499
 20
126.9343591740726
 30
0.0
  0
SPLINE
  5
327
330
1F
100
AcDbEntity
  8
0
  6
SLD-Durchgehend
 62
     8
370
     0
100
AcDbSpline
210
0.0
220
0.0
230
1.0
 70
     8
 71
     3
 72
    14
 73
    10
 74
     0
 42
0.000000001
 43
0.00000001
 40
0.0
 40
0.0
 40
0.0
 40
0.0
 40
0.0626334447452307
 40
0.1252291034193661
 40
0.2500732898008249
 40
0.3746798990836769
 40
0.4996953825582237
 40
0.7495655927355365
 40
1.0
 40
1.0
 40
1.0
 40
1.0
 10
77.26704317353499
 20
128.9599997436999
 30
0.0
 10
77.27265259853863
 20
128.9591381720406
 30
0.0
 10
77.28386806444124
 20
128.9574155484988
 30
0.0
 10
77.30661229572215
 20
128.9360976337102
 30
0.0
 10
77.334631388722
 20
128.881704312233
 30
0.0
 10
77.36292367859174
 20
128.7650769526987
 30
0.0
 10
77.38645444527862
 20
128.5622596068001
 30
0.0
 10
77.40388096716694
 20
128.2864024869641
 30
0.0
 10
77.4047197970035
 20
128.0598047115046
 30
0.0
 10
77.40513968489897
 20
127.9463780558107
 30
0.0
  0
SPLINE
  5
328
330
1F
100
AcDbEntity
  8
0
  6
SLD-Durchgehend
 62
     8
370
     0
100
AcDbSpline
210
0.0
220
0.0
230
1.0
 70
     8
 71
     3
 72
    13
 73
     9
 74
     0
 42
0.000000001
 43
0.00000001
 40
0.0
 40
0.0
 40
0.0
 40
0.0
 40
0.2505134567724643
 40
0.5003919360477836
 40
0.6318017386089027
 40
0.7502439880613131
 40
0.8749896283830748
 40
1.0
 40
1.0
 40
1.0
 40
1.0
 10
77.15314242265951
 20
127.9463780558107
 30
0.0
 10
77.15362946813129
 20
128.059501782589
 30
0.0
 10
77.15460232455867
 20
128.2854625009663
 30
0.0
 10
77.16501284761918
 20
128.5679484563832
 30
0.0
 10
77.1839963953311
 20
128.7657744564372
 30
0.0
 10
77.20584779366386
 20
128.8824654729892
 30
0.0
 10
77.23414326177266
 20
128.9499651301452
 30
0.0
 10
77.25606878955595
 20
128.9566525097308
 30
0.0
 10
77.26704317353499
 20
128.9599997436999
 30
0.0
  0
SPLINE
  5
329
330
1F
100
AcDbEntity
  8
0
  6
SLD-Durchgehend
 62
     8
370
     0
100
AcDbSpline
210
0.0
220
0.0
230
1.0
 70
     8
 71
     3
 72
    10
 73
     6
 74
     0
 42
0.000000001
 43
0.00000001
 40
0.0
 40
0.0
 40
0.0
 40
0.0
 40
0.2496850978061985
 40
0.4998091189787507
 40
1.0
 40
1.0
 40
1.0
 40
1.0
 10
77.18510168813002
 20
127.1270675098894
 30
0.0
 10
77.17891710025029
 20
127.1882796926115
 30
0.0
 10
77.16653705255591
 20
127.3108116634255
 30
0.0
 10
77.15526663666861
 20
127.5900371843124
 30
0.0
 10
77.15399208884335
 20
127.8038449649198
 30
0.0
 10
77.15314242265951
 20
127.9463780558107
 30
0.0
  0
SPLINE
  5
32A
330
1F
100
AcDbEntity
  8
0
  6
SLD-Durchgehend
 62
     8
370
     0
100
AcDbSpline
210
0.0
220
0.0
230
1.0
 70
     8
 71
     3
 72
    11
 73
     7
 74
     0
 42
0.000000001
 43
0.00000001
 40
0.0
 40
0.0
 40
0.0
 40
0.0
 40
0.4988217144476597
 40
0.7491556612985268
 40
0.874552725663936
 40
1.0
 40
1.0
 40
1.0
 40
1.0
 10
77.26704317353499
 20
126.9343591740726
 30
0.0
 10
77.2507820692376
 20
126.9412560199583
 30
0.0
 10
77.22636032096462
 20
126.9516140516772
 30
0.0
 10
77.20360544067043
 20
127.027066769172
 30
0.0
 10
77.19226175215333
 20
127.0800090587513
 30
0.0
 10
77.18748869460232
 20
127.1113792664494
 30
0.0
 10
77.18510168813002
 20
127.1270675098894
 30
0.0
  0
LINE
  5
32B
330
1F
100
AcDbEntity
  8
0
  6
SLD-Durchgehend
 62
     8
370
     0
100
AcDbLine
 10
77.1180948915
 20
127.7805132306
 30
0.0
 11
77.0267191084
 21
127.7805132306
 31
0.0
  0
LINE
  5
32C
330
1F
100
AcDbEntity
  8
0
  6
SLD-Durchgehend
 62
     8
370
     0
100
AcDbLine
 10
77.0267191084
 20
127.5497436038
 30
0.0
 11
77.0267191084
 21
127.7805132306
 31
0.0
  0
LINE
  5
32D
330
1F
100
AcDbEntity
  8
0
  6
SLD-Durchgehend
 62
     8
370
     0
100
AcDbLine
 10
77.1180948915
 20
127.5497436038
 30
0.0
 11
77.0267191084
 21
127.5497436038
 31
0.0
  0
LINE
  5
32E
330
1F
100
AcDbEntity
  8
0
  6
SLD-Durchgehend
 62
     8
370
     0
100
AcDbLine
 10
77.1180948915
 20
127.7805132306
 30
0.0
 11
77.1180948915
 21
127.5497436038
 31
0.0
  0
SPLINE
  5
32F
330
1F
100
AcDbEntity
  8
0
  6
SLD-Durchgehend
 62
     8
370
     0
100
AcDbSpline
210
0.0
220
0.0
230
1.0
 70
     8
 71
     3
 72
     9
 73
     5
 74
     0
 42
0.000000001
 43
0.00000001
 40
0.0
 40
0.0
 40
0.0
 40
0.0
 40
0.5004845863898403
 40
1.0
 40
1.0
 40
1.0
 40
1.0
 10
76.94623048625719
 20
128.4599996617435
 30
0.0
 10
76.94944653616933
 20
128.522099411047
 30
0.0
 10
76.95587240821335
 20
128.6461786554278
 30
0.0
 10
76.9637943541902
 20
128.8554603243081
 30
0.0
 10
76.96775148831141
 20
128.9599997436999
 30
0.0
  0
LINE
  5
330
330
1F
100
AcDbEntity
  8
0
  6
SLD-Durchgehend
 62
     8
370
     0
100
AcDbLine
 10
76.9462304863
 20
128.2236216104
 30
0.0
 11
76.9462304863
 21
128.4599996617
 31
0.0
  0
LINE
  5
331
330
1F
100
AcDbEntity
  8
0
  6
SLD-Durchgehend
 62
     8
370
     0
100
AcDbLine
 10
76.9629309627
 20
128.5184932387
 30
0.0
 11
76.9462304863
 21
128.2236216104
 31
0.0
  0
LINE
  5
332
330
1F
100
AcDbEntity
  8
0
  6
SLD-Durchgehend
 62
     8
370
     0
100
AcDbLine
 10
76.9629309627
 20
126.9600003472
 30
0.0
 11
76.9629309627
 21
128.5184932387
 31
0.0
  0
LINE
  5
333
330
1F
100
AcDbEntity
  8
0
  6
SLD-Durchgehend
 62
     8
370
     0
100
AcDbLine
 10
76.977731541
 20
126.9600003472
 30
0.0
 11
76.9629309627
 21
126.9600003472
 31
0.0
  0
LINE
  5
334
330
1F
100
AcDbEntity
  8
0
  6
SLD-Durchgehend
 62
     8
370
     0
100
AcDbLine
 10
76.977731541
 20
128.9599997437
 30
0.0
 11
76.977731541
 21
126.9600003472
 31
0.0
  0
LINE
  5
335
330
1F
100
AcDbEntity
  8
0
  6
SLD-Durchgehend
 62
     8
370
     0
100
AcDbLine
 10
76.977731541
 20
128.9599997437
 30
0.0
 11
76.9677514883
 21
128.9599997437
 31
0.0
  0
SPLINE
  5
336
330
1F
100
AcDbEntity
  8
0
  6
SLD-Durchgehend
 62
     8
370
     0
100
AcDbSpline
210
0.0
220
0.0
230
1.0
 70
     8
 71
     3
 72
    17
 73
    13
 74
     0
 42
0.000000001
 43
0.00000001
 40
0.0
 40
0.0
 40
0.0
 40
0.0
 40
0.0650148443734365
 40
0.1985708662490123
 40
0.332126756981561
 40
0.4656904266080156
 40
0.5989190533946858
 40
0.7327520931081047
 40
0.8000336731863281
 40
0.8665108264079298
 40
0.9332961901230651
 40
1.0
 40
1.0
 40
1.0
 40
1.0
 10
76.94578345142138
 20
138.884405929446
 30
0.0
 10
76.94504390859305
 20
138.8796684164621
 30
0.0
 10
76.94278516812443
 20
138.8651989200549
 30
0.0
 10
76.97063001546488
 20
138.7231309401145
 30
0.0
 10
77.0238201873359
 20
138.4709925679472
 30
0.0
 10
77.09789328104986
 20
138.11350682608
 30
0.0
 10
77.18327115741464
 20
137.6689477434222
 30
0.0
 10
77.25676215610586
 20
137.2302512704946
 30
0.0
 10
77.31271513688179
 20
136.847479333251
 30
0.0
 10
77.35204093110627
 20
136.5454204284093
 30
0.0
 10
77.38769995021869
 20
136.2309563062321
 30
0.0
 10
77.40765031782944
 20
136.0120793878391
 30
0.0
 10
77.41761940739882
 20
135.9027077889441
 30
0.0
  0
LINE
  5
337
330
1F
100
AcDbEntity
  8
0
  6
SLD-Durchgehend
 62
     8
370
     0
100
AcDbLine
 10
77.7779332104
 20
135.9027077889
 30
0.0
 11
77.4176194074
 21
135.9027077889
 31
0.0
  0
SPLINE
  5
338
330
1F
100
AcDbEntity
  8
0
  6
SLD-Durchgehend
 62
     8
370
     0
100
AcDbSpline
210
0.0
220
0.0
230
1.0
 70
     8
 71
     3
 72
    15
 73
    11
 74
     0
 42
0.000000001
 43
0.00000001
 40
0.0
 40
0.0
 40
0.0
 40
0.0
 40
0.0820460696730406
 40
0.1621780509020978
 40
0.2410562238947001
 40
0.3228090063056975
 40
0.403309169589108
 40
0.6046966115960378
 40
0.8060928005700735
 40
1.0
 40
1.0
 40
1.0
 40
1.0
 10
77.77793321035635
 20
135.9027077889441
 30
0.0
 10
77.74958993012882
 20
136.063391541288
 30
0.0
 10
77.6935646023856
 20
136.3810103848308
 30
0.0
 10
77.60806248759897
 20
136.8377123311041
 30
0.0
 10
77.51650546221332
 20
137.2643733129296
 30
0.0
 10
77.42386999938587
 20
137.663837144078
 30
0.0
 10
77.28730405014053
 20
138.2263910585357
 30
0.0
 10
77.12161998902698
 20
138.8619684090998
 30
0.0
 10
76.9716044741181
 20
139.4474693175808
 30
0.0
 10
76.95305390094487
 20
139.6322716001095
 30
0.0
 10
76.94395433388483
 20
139.7229222095011
 30
0.0
  0
LINE
  5
339
330
1F
100
AcDbEntity
  8
0
  6
SLD-Durchgehend
 62
     8
370
     0
100
AcDbLine
 10
76.9461839201
 20
135.041126374
 30
0.0
 11
76.9424828442
 21
135.522394765
 31
0.0
  0
LINE
  5
33A
330
1F
100
AcDbEntity
  8
0
  6
SLD-Durchgehend
 62
     8
370
     0
100
AcDbLine
 10
76.9424828442
 20
135.522394765
 30
0.0
 11
76.9420767876
 21
135.522394765
 31
0.0
  0
LINE
  5
33B
330
1F
100
AcDbEntity
  8
0
  6
SLD-Durchgehend
 62
     8
370
     0
100
AcDbLine
 10
76.9420767876
 20
133.354618538
 30
0.0
 11
76.9456418904
 21
130.0839384532
 31
0.0
  0
LINE
  5
33C
330
1F
100
AcDbEntity
  8
0
  6
SLD-Durchgehend
 62
     8
370
     0
100
AcDbLine
 10
77.173717201
 20
130.0839384532
 30
0.0
 11
76.9456418904
 21
130.0839384532
 31
0.0
  0
SPLINE
  5
33D
330
1F
100
AcDbEntity
  8
0
  6
SLD-Durchgehend
 62
     8
370
     0
100
AcDbSpline
210
0.0
220
0.0
230
1.0
 70
     8
 71
     3
 72
     9
 73
     5
 74
     0
 42
0.000000001
 43
0.00000001
 40
0.0
 40
0.0
 40
0.0
 40
0.0
 40
0.5000001496830951
 40
0.9999999999999999
 40
0.9999999999999999
 40
0.9999999999999999
 40
0.9999999999999999
 10
77.17371720097792
 20
130.0839384531973
 30
0.0
 10
77.2763858625585
 20
130.9903481684881
 30
0.0
 10
77.48172312424865
 20
132.803167056373
 30
0.0
 10
77.83865387654015
 20
134.6159857097027
 30
0.0
 10
78.0171191992594
 20
135.5223947650192
 30
0.0
  0
LINE
  5
33E
330
1F
100
AcDbEntity
  8
0
  6
SLD-Durchgehend
 62
     8
370
     0
100
AcDbLine
 10
78.0171191993
 20
135.522394765
 30
0.0
 11
77.3931330743
 21
135.522394765
 31
0.0
  0
LINE
  5
33F
330
1F
100
AcDbEntity
  8
0
  6
SLD-Durchgehend
 62
     8
370
     0
100
AcDbLine
 10
77.3931330743
 20
135.522394765
 30
0.0
 11
77.0834888073
 21
132.4418702608
 31
0.0
  0
LINE
  5
340
330
1F
100
AcDbEntity
  8
0
  6
SLD-Durchgehend
 62
     8
370
     0
100
AcDbLine
 10
77.0834888073
 20
132.4418702608
 30
0.0
 11
77.0383047613
 21
135.5604262537
 31
0.0
  0
LINE
  5
341
330
1F
100
AcDbEntity
  8
0
  6
SLD-Durchgehend
 62
     8
370
     0
100
AcDbLine
 10
77.0383047613
 20
135.5604262537
 30
0.0
 11
76.9519339057
 21
135.5604262537
 31
0.0
  0
LINE
  5
342
330
1F
100
AcDbEntity
  8
0
  6
SLD-Durchgehend
 62
     8
370
     0
100
AcDbLine
 10
76.9519339057
 20
135.5604262537
 30
0.0
 11
76.9420767876
 21
133.354618538
 31
0.0
  0
LINE
  5
343
330
1F
100
AcDbEntity
  8
0
  6
SLD-Durchgehend
 62
     8
370
     0
100
AcDbLine
 10
78.2575615423
 20
134.5716187245
 30
0.0
 11
78.2575615423
 21
134.6716204172
 31
0.0
  0
SPLINE
  5
344
330
1F
100
AcDbEntity
  8
0
  6
SLD-Durchgehend
 62
     8
370
     0
100
AcDbSpline
210
0.0
220
0.0
230
1.0
 70
     8
 71
     3
 72
    23
 73
    19
 74
     0
 42
0.000000001
 43
0.00000001
 40
0.0
 40
0.0
 40
0.0
 40
0.0
 40
0.0624998636333523
 40
0.1249999712291715
 40
0.1874995957857665
 40
0.2499998051907336
 40
0.3124997188979244
 40
0.3749998404387828
 40
0.4374999719667875
 40
0.4999998894291752
 40
0.562499758977235
 40
0.6249995906900695
 40
0.6874999116696117
 40
0.7499998187539352
 40
0.812500220356371
 40
0.8750003374455552
 40
0.9375000780328057
 40
1.0
 40
1.0
 40
1.0
 40
1.0
 10
78.2575615423156
 20
134.6716204172371
 30
0.0
 10
78.23568163772968
 20
134.6781150281362
 30
0.0
 10
78.1919217431517
 20
134.6911042752857
 30
0.0
 10
78.1379837798472
 20
134.791039975562
 30
0.0
 10
78.10251817152542
 20
134.933868315699
 30
0.0
 10
78.09018370014923
 20
135.1038538013257
 30
0.0
 10
78.1024505904493
 20
135.2735304462583
 30
0.0
 10
78.13782999946658
 20
135.4175148749237
 30
0.0
 10
78.19181591576948
 20
135.513789183278
 30
0.0
 10
78.25708242770101
 20
135.5477361026628
 30
0.0
 10
78.32405554250805
 20
135.5141804271744
 30
0.0
 10
78.38218082771277
 20
135.4182413264544
 30
0.0
 10
78.42173853844871
 20
135.2744782802193
 30
0.0
 10
78.43584456470148
 20
135.1048798875676
 30
0.0
 10
78.42197772665132
 20
134.9348162329953
 30
0.0
 10
78.38264400964032
 20
134.7917641747348
 30
0.0
 10
78.32455073582953
 20
134.6914986598882
 30
0.0
 10
78.28015144440118
 20
134.6782465045306
 30
0.0
 10
78.25795176647436
 20
134.6716204172371
 30
0.0
  0
LINE
  5
345
330
1F
100
AcDbEntity
  8
0
  6
SLD-Durchgehend
 62
     8
370
     0
100
AcDbLine
 10
78.2579517665
 20
134.6716204172
 30
0.0
 11
78.2579517665
 21
134.5716205871
 31
0.0
  0
SPLINE
  5
346
330
1F
100
AcDbEntity
  8
0
  6
SLD-Durchgehend
 62
     8
370
     0
100
AcDbSpline
210
0.0
220
0.0
230
1.0
 70
     8
 71
     3
 72
    23
 73
    19
 74
     0
 42
0.000000001
 43
0.00000001
 40
0.0
 40
0.0
 40
0.0
 40
0.0
 40
0.0624997737145357
 40
0.1249999051906854
 40
0.1874997601086992
 40
0.2499999554091189
 40
0.3125003193140948
 40
0.3750003358290366
 40
0.4375002315657888
 40
0.4999999201970483
 40
0.5624996833122362
 40
0.6249998117242437
 40
0.6874996770595062
 40
0.7500000651823275
 40
0.8125001498492267
 40
0.8750000791419408
 40
0.9375002095675409
 40
1.0
 40
1.0
 40
1.0
 40
1.0
 10
78.25795176647436
 20
134.5716205871103
 30
0.0
 10
78.28533463278232
 20
134.5797490987124
 30
0.0
 10
78.34010052214342
 20
134.5960061684457
 30
0.0
 10
78.41225028540266
 20
134.7194006086968
 30
0.0
 10
78.46127245256105
 20
134.8955017565526
 30
0.0
 10
78.47861181347194
 20
135.1048939680741
 30
0.0
 10
78.4610326685699
 20
135.3137402471152
 30
0.0
 10
78.41177340636732
 20
135.4907947945196
 30
0.0
 10
78.33963909992941
 20
135.608974903116
 30
0.0
 10
78.25693802508532
 20
135.6503385769402
 30
0.0
 10
78.17680988396022
 20
135.6085836957411
 30
0.0
 10
78.11090452260774
 20
135.490068303808
 30
0.0
 10
78.06791431844954
 20
135.3127924379684
 30
0.0
 10
78.05304299730976
 20
135.1038677101237
 30
0.0
 10
78.06797831536653
 20
134.8945538053719
 30
0.0
 10
78.11106796412464
 20
134.7186743287892
 30
0.0
 10
78.1768743992579
 20
134.5956126458281
 30
0.0
 10
78.23066587673303
 20
134.5796166837501
 30
0.0
 10
78.2575615423156
 20
134.5716187244652
 30
0.0
  0
SPLINE
  5
347
330
1F
100
AcDbEntity
  8
0
  6
SLD-Durchgehend
 62
     8
370
     0
100
AcDbSpline
210
0.0
220
0.0
230
1.0
 70
     8
 71
     3
 72
    13
 73
     9
 74
     0
 42
0.000000001
 43
0.00000001
 40
0.0
 40
0.0
 40
0.0
 40
0.0
 40
0.2499098309694634
 40
0.3780403049736605
 40
0.5002454364843787
 40
0.6242108216821701
 40
0.7504896979714109
 40
1.0
 40
1.0
 40
1.0
 40
1.0
 10
102.500773847325
 20
135.0506258642672
 30
0.0
 10
102.5052529030375
 20
134.9601953135235
 30
0.0
 10
102.5120284011481
 20
134.8234004029373
 30
0.0
 10
102.5716418580459
 20
134.6562011369801
 30
0.0
 10
102.6366413455431
 20
134.545038287374
 30
0.0
 10
102.7214549151488
 20
134.4559423619774
 30
0.0
 10
102.8557687474349
 20
134.3706379262247
 30
0.0
 10
102.968395277311
 20
134.3596215987602
 30
0.0
 10
103.0431751834584
 20
134.3523071593044
 30
0.0
  0
SPLINE
  5
348
330
1F
100
AcDbEntity
  8
0
  6
SLD-Durchgehend
 62
     8
370
     0
100
AcDbSpline
210
0.0
220
0.0
230
1.0
 70
     8
 71
     3
 72
    13
 73
     9
 74
     0
 42
0.000000001
 43
0.00000001
 40
0.0
 40
0.0
 40
0.0
 40
0.0
 40
0.2494625793341006
 40
0.3748698876850851
 40
0.4988113512158281
 40
0.6235500213898334
 40
0.7487307503344481
 40
1.0
 40
1.0
 40
1.0
 40
1.0
 10
103.0431751834584
 20
134.3523071593044
 30
0.0
 10
103.1179787163297
 20
134.3597529875624
 30
0.0
 10
103.2303867257423
 20
134.3709419074005
 30
0.0
 10
103.3616329681553
 20
134.4564816499275
 30
0.0
 10
103.444713928436
 20
134.5459845933864
 30
0.0
 10
103.5080737177948
 20
134.6571187233866
 30
0.0
 10
103.566385546367
 20
134.8252665297662
 30
0.0
 10
103.5727125923177
 20
134.9625784372176
 30
0.0
 10
103.5769357087446
 20
135.0542300826309
 30
0.0
  0
SPLINE
  5
349
330
1F
100
AcDbEntity
  8
0
  6
SLD-Durchgehend
 62
     8
370
     0
100
AcDbSpline
210
0.0
220
0.0
230
1.0
 70
     8
 71
     3
 72
    14
 73
    10
 74
     0
 42
0.000000001
 43
0.00000001
 40
0.0
 40
0.0
 40
0.0
 40
0.0
 40
0.2495351751649653
 40
0.3746229078576837
 40
0.4996658421046763
 40
0.6247026696482328
 40
0.7497154030953247
 40
0.8747686972528976
 40
1.0
 40
1.0
 40
1.0
 40
1.0
 10
103.5769357087446
 20
135.0542300826309
 30
0.0
 10
103.5720524364336
 20
135.1428948832564
 30
0.0
 10
103.5647212628954
 20
135.2760058381068
 30
0.0
 10
103.5066822779157
 20
135.4390185371724
 30
0.0
 10
103.4426259506409
 20
135.5455898805311
 30
0.0
 10
103.36253651723
 20
135.6350237548336
 30
0.0
 10
103.2660065412449
 20
135.6956485716236
 30
0.0
 10
103.1610287594188
 20
135.7310324026109
 30
0.0
 10
103.0884125534674
 20
135.7349585750312
 30
0.0
 10
103.0520786272718
 20
135.7369230574368
 30
0.0
  0
SPLINE
  5
34A
330
1F
100
AcDbEntity
  8
0
  6
SLD-Durchgehend
 62
     8
370
     0
100
AcDbSpline
210
0.0
220
0.0
230
1.0
 70
     8
 71
     3
 72
    14
 73
    10
 74
     0
 42
0.000000001
 43
0.00000001
 40
0.0
 40
0.0
 40
0.0
 40
0.0
 40
0.2493949794310382
 40
0.3740751808057317
 40
0.4994433991331111
 40
0.6239056955386466
 40
0.7496093191047022
 40
0.874724856550951
 40
1.0
 40
1.0
 40
1.0
 40
1.0
 10
103.0520786272718
 20
135.7369230574368
 30
0.0
 10
102.9776295846177
 20
135.7300459221216
 30
0.0
 10
102.8659611815281
 20
135.7197306958795
 30
0.0
 10
102.7318182918487
 20
135.6360064022623
 30
0.0
 10
102.6460446626063
 20
135.5482959487155
 30
0.0
 10
102.5775230405784
 20
135.4401579245051
 30
0.0
 10
102.5302022360513
 20
135.3171879175363
 30
0.0
 10
102.504718776968
 20
135.1850896573478
 30
0.0
 10
102.5020893825558
 20
135.0954661714638
 30
0.0
 10
102.500773847325
 20
135.0506258642672
 30
0.0
  0
SPLINE
  5
34B
330
1F
100
AcDbEntity
  8
0
  6
SLD-Durchgehend
 62
     8
370
     0
100
AcDbSpline
210
0.0
220
0.0
230
1.0
 70
     8
 71
     3
 72
    13
 73
     9
 74
     0
 42
0.000000001
 43
0.00000001
 40
0.0
 40
0.0
 40
0.0
 40
0.0
 40
0.2501994119374944
 40
0.4994697309769772
 40
0.624116345456303
 40
0.7508787772629042
 40
0.875340408077913
 40
1.0
 40
1.0
 40
1.0
 40
1.0
 10
102.3704240771366
 20
132.5109613573549
 30
0.0
 10
102.3756745509106
 20
132.3892517833094
 30
0.0
 10
102.3861560012988
 20
132.1462845927188
 30
0.0
 10
102.4951655607004
 20
131.860714291954
 30
0.0
 10
102.6364061516178
 20
131.6831010430998
 30
0.0
 10
102.7633278924368
 20
131.5791406939445
 30
0.0
 10
102.9083509893479
 20
131.5171232449612
 30
0.0
 10
103.008098630968
 20
131.5098121557507
 30
0.0
 10
103.0580120833946
 20
131.506153706312
 30
0.0
  0
SPLINE
  5
34C
330
1F
100
AcDbEntity
  8
0
  6
SLD-Durchgehend
 62
     8
370
     0
100
AcDbSpline
210
0.0
220
0.0
230
1.0
 70
     8
 71
     3
 72
    13
 73
     9
 74
     0
 42
0.000000001
 43
0.00000001
 40
0.0
 40
0.0
 40
0.0
 40
0.0
 40
0.1251238228567783
 40
0.2502029773829458
 40
0.3743349497207354
 40
0.5004870360226564
 40
0.7497097508600916
 40
0.9999999999999999
 40
0.9999999999999999
 40
0.9999999999999999
 40
0.9999999999999999
 10
103.0580120833946
 20
131.506153706312
 30
0.0
 10
103.1069621699206
 20
131.5094703670877
 30
0.0
 10
103.2048448681335
 20
131.5161025046144
 30
0.0
 10
103.3426968787074
 20
131.5784768175068
 30
0.0
 10
103.462598361502
 20
131.6801487906565
 30
0.0
 10
103.5919270925991
 20
131.8571702824147
 30
0.0
 10
103.6870743365076
 20
132.1402884116827
 30
0.0
 10
103.6954320001888
 20
132.3784200309274
 30
0.0
 10
103.6996197628213
 20
132.4977403020857
 30
0.0
  0
SPLINE
  5
34D
330
1F
100
AcDbEntity
  8
0
  6
SLD-Durchgehend
 62
     8
370
     0
100
AcDbSpline
210
0.0
220
0.0
230
1.0
 70
     8
 71
     3
 72
    15
 73
    11
 74
     0
 42
0.000000001
 43
0.00000001
 40
0.0
 40
0.0
 40
0.0
 40
0.0
 40
0.2496789266679405
 40
0.3772425370245847
 40
0.4997978673843738
 40
0.6290470224643931
 40
0.749785536937077
 40
0.8747911274497259
 40
0.9373815502525071
 40
1.0
 40
1.0
 40
1.0
 40
1.0
 10
103.6996197628213
 20
132.4977403020857
 30
0.0
 10
103.6938074647657
 20
132.6135334874387
 30
0.0
 10
103.6850256020203
 20
132.7884866386544
 30
0.0
 10
103.6160574418266
 20
133.0045258132289
 30
0.0
 10
103.538082587823
 20
133.1508630412977
 30
0.0
 10
103.4395172218772
 20
133.2729485543543
 30
0.0
 10
103.3201707563781
 20
133.3659316329564
 30
0.0
 10
103.2089211736935
 20
133.4099081323215
 30
0.0
 10
103.115416632792
 20
133.4275588000293
 30
0.0
 10
103.0679185869641
 20
133.4286731933703
 30
0.0
 10
103.0441642480327
 20
133.4292305147646
 30
0.0
  0
SPLINE
  5
34E
330
1F
100
AcDbEntity
  8
0
  6
SLD-Durchgehend
 62
     8
370
     0
100
AcDbSpline
210
0.0
220
0.0
230
1.0
 70
     8
 71
     3
 72
    13
 73
     9
 74
     0
 42
0.000000001
 43
0.00000001
 40
0.0
 40
0.0
 40
0.0
 40
0.0
 40
0.2492304486055561
 40
0.3742688569688063
 40
0.4993834841995101
 40
0.7492767693192233
 40
0.8745984548103167
 40
0.9999999999999999
 40
0.9999999999999999
 40
0.9999999999999999
 40
0.9999999999999999
 10
103.0441642480327
 20
133.4292305147646
 30
0.0
 10
102.9488697557152
 20
133.4197469223236
 30
0.0
 10
102.8057662107243
 20
133.4055054308739
 30
0.0
 10
102.6408300133993
 20
133.282394022423
 30
0.0
 10
102.5106719879256
 20
133.1131472715853
 30
0.0
 10
102.425282210572
 20
132.9040266420625
 30
0.0
 10
102.3760056203338
 20
132.6825761989443
 30
0.0
 10
102.3722849865645
 20
132.5681784504405
 30
0.0
 10
102.3704240771366
 20
132.5109613573549
 30
0.0
  0
SPLINE
  5
34F
330
1F
100
AcDbEntity
  8
0
  6
SLD-Durchgehend
 62
     8
370
     0
100
AcDbSpline
210
0.0
220
0.0
230
1.0
 70
     8
 71
     3
 72
    11
 73
     7
 74
     0
 42
0.000000001
 43
0.00000001
 40
0.0
 40
0.0
 40
0.0
 40
0.0
 40
0.2499167135523637
 40
0.4994484392671918
 40
0.7491672653088607
 40
1.0
 40
1.0
 40
1.0
 40
1.0
 10
106.5061649980379
 20
135.6599995380638
 30
0.0
 10
106.4545640110324
 20
135.6521282787509
 30
0.0
 10
106.3514415265126
 20
135.6363978855209
 30
0.0
 10
106.2105141729164
 20
135.507516236527
 30
0.0
 10
106.118199700974
 20
135.3024534615354
 30
0.0
 10
106.0840290972495
 20
135.1483036461883
 30
0.0
 10
106.066905774398
 20
135.0710572189091
 30
0.0
  0
SPLINE
  5
350
330
1F
100
AcDbEntity
  8
0
  6
SLD-Durchgehend
 62
     8
370
     0
100
AcDbSpline
210
0.0
220
0.0
230
1.0
 70
     8
 71
     3
 72
    10
 73
     6
 74
     0
 42
0.000000001
 43
0.00000001
 40
0.0
 40
0.0
 40
0.0
 40
0.0
 40
0.3291461172291316
 40
0.6620625713460031
 40
1.0
 40
1.0
 40
1.0
 40
1.0
 10
106.066905774398
 20
135.0710572189091
 30
0.0
 10
106.0451740112861
 20
134.9139071795303
 30
0.0
 10
106.0014615498211
 20
134.5978069622952
 30
0.0
 10
105.985390078324
 20
134.1101358476857
 30
0.0
 10
105.9827094732669
 20
133.78361631483
 30
0.0
 10
105.9813591393067
 20
133.6191346383093
 30
0.0
  0
SPLINE
  5
351
330
1F
100
AcDbEntity
  8
0
  6
SLD-Durchgehend
 62
     8
370
     0
100
AcDbSpline
210
0.0
220
0.0
230
1.0
 70
     8
 71
     3
 72
    18
 73
    14
 74
     0
 42
0.000000001
 43
0.00000001
 40
0.0
 40
0.0
 40
0.0
 40
0.0
 40
0.1251105475060037
 40
0.2502137820953419
 40
0.37531304610251
 40
0.5003905912361972
 40
0.6253494441825281
 40
0.6891288142774329
 40
0.7503874738487589
 40
0.8127319479532432
 40
0.8751119941068808
 40
0.9375125046351598
 40
1.0
 40
1.0
 40
1.0
 40
1.0
 10
105.9813591393067
 20
133.6191346383093
 30
0.0
 10
105.9817840206631
 20
133.5177642597115
 30
0.0
 10
105.9826337585411
 20
133.3150294277807
 30
0.0
 10
105.989201716539
 20
133.0110498346132
 30
0.0
 10
106.0020215274765
 20
132.7075302149289
 30
0.0
 10
106.0251024462662
 20
132.4053150683299
 30
0.0
 10
106.0662392645361
 20
132.1571596601365
 30
0.0
 10
106.118717017147
 20
131.970507560953
 30
0.0
 10
106.1662421402164
 20
131.8366158566854
 30
0.0
 10
106.2312985577754
 20
131.7203825384381
 30
0.0
 10
106.3167520797329
 20
131.6419980442963
 30
0.0
 10
106.4097349333748
 20
131.5914445663368
 30
0.0
 10
106.474006721325
 20
131.5858676340184
 30
0.0
 10
106.5061649980379
 20
131.5830772256849
 30
0.0
  0
SPLINE
  5
352
330
1F
100
AcDbEntity
  8
0
  6
SLD-Durchgehend
 62
     8
370
     0
100
AcDbSpline
210
0.0
220
0.0
230
1.0
 70
     8
 71
     3
 72
    11
 73
     7
 74
     0
 42
0.000000001
 43
0.00000001
 40
0.0
 40
0.0
 40
0.0
 40
0.0
 40
0.2499397639196231
 40
0.499412312537484
 40
0.749142538804625
 40
1.0
 40
1.0
 40
1.0
 40
1.0
 10
106.5061649980379
 20
131.5830772256849
 30
0.0
 10
106.5572380848272
 20
131.5908772588866
 30
0.0
 10
106.6592887868917
 20
131.6064627445974
 30
0.0
 10
106.7922738002963
 20
131.7356743748115
 30
0.0
 10
106.8774655740172
 20
131.9405727344807
 30
0.0
 10
106.9084287029356
 20
132.0947548777484
 30
0.0
 10
106.9239451291395
 20
132.1720195448397
 30
0.0
  0
SPLINE
  5
353
330
1F
100
AcDbEntity
  8
0
  6
SLD-Durchgehend
 62
     8
370
     0
100
AcDbSpline
210
0.0
220
0.0
230
1.0
 70
     8
 71
     3
 72
    10
 73
     6
 74
     0
 42
0.000000001
 43
0.00000001
 40
0.0
 40
0.0
 40
0.0
 40
0.0
 40
0.3284850649004742
 40
0.661821816945933
 40
1.0
 40
1.0
 40
1.0
 40
1.0
 10
106.9239451291395
 20
132.1720195448397
 30
0.0
 10
106.9434981773479
 20
132.3283091372208
 30
0.0
 10
106.9828930700686
 20
132.643196701533
 30
0.0
 10
106.9969723188706
 20
133.1293020349874
 30
0.0
 10
106.9993772070494
 20
133.4550741957711
 30
0.0
 10
107.0005883204175
 20
133.6191346383093
 30
0.0
  0
SPLINE
  5
354
330
1F
100
AcDbEntity
  8
0
  6
SLD-Durchgehend
 62
     8
370
     0
100
AcDbSpline
210
0.0
220
0.0
230
1.0
 70
     8
 71
     3
 72
    18
 73
    14
 74
     0
 42
0.000000001
 43
0.00000001
 40
0.0
 40
0.0
 40
0.0
 40
0.0
 40
0.1692187493097644
 40
0.3311159996177626
 40
0.5003135020402395
 40
0.5618007266497581
 40
0.6253637072437752
 40
0.6930502278804161
 40
0.7503791632376574
 40
0.8127548678213061
 40
0.8751218576247828
 40
0.9375280440514151
 40
1.0
 40
1.0
 40
1.0
 40
1.0
 10
107.0005883204175
 20
133.6191346383093
 30
0.0
 10
107.0001311331509
 20
133.7564526647868
 30
0.0
 10
106.9992365394996
 20
134.0251474506077
 30
0.0
 10
106.9880339992159
 20
134.430634802569
 30
0.0
 10
106.9694412439467
 20
134.7483163079999
 30
0.0
 10
106.9398299893293
 20
134.9821512113101
 30
0.0
 10
106.9114361897004
 20
135.1313703056487
 30
0.0
 10
106.8766322795051
 20
135.2733034146324
 30
0.0
 10
106.8316912972167
 20
135.4063868248181
 30
0.0
 10
106.7722847796177
 20
135.519913028754
 30
0.0
 10
106.6919038951842
 20
135.6000968410873
 30
0.0
 10
106.6020686568873
 20
135.651378899
 30
0.0
 10
106.5381441066936
 20
135.6571249829466
 30
0.0
 10
106.5061649980379
 20
135.6599995380638
 30
0.0
  0
LINE
  5
355
330
1F
100
AcDbEntity
  8
0
  6
SLD-Durchgehend
 62
     8
370
     0
100
AcDbLine
 10
78.2684812995
 20
135.1392784601
 30
0.0
 11
78.2166001128
 21
135.1392784601
 31
0.0
  0
SPLINE
  5
356
330
1F
100
AcDbEntity
  8
0
  6
SLD-Durchgehend
 62
     8
370
     0
100
AcDbSpline
210
0.0
220
0.0
230
1.0
 70
     8
 71
     3
 72
    14
 73
    10
 74
     0
 42
0.000000001
 43
0.00000001
 40
0.0
 40
0.0
 40
0.0
 40
0.0
 40
0.2503306537657248
 40
0.3852492321778683
 40
0.5003309872707014
 40
0.6221263531783753
 40
0.7501426875669213
 40
0.8699880364031405
 40
1.0
 40
1.0
 40
1.0
 40
1.0
 10
78.26848129950297
 20
135.1392784601448
 30
0.0
 10
78.27359293270675
 20
135.1395858257865
 30
0.0
 10
78.28145953928211
 20
135.1400588496678
 30
0.0
 10
78.29153362159248
 20
135.1455485366811
 30
0.0
 10
78.29859591406141
 20
135.15338412093
 30
0.0
 10
78.30439416903309
 20
135.1659494884768
 30
0.0
 10
78.30851719106549
 20
135.1823790684699
 30
0.0
 10
78.31110809731169
 20
135.201138580493
 30
0.0
 10
78.31150432461541
 20
135.2141424088214
 30
0.0
 10
78.31171049944889
 20
135.2209088838099
 30
0.0
  0
SPLINE
  5
357
330
1F
100
AcDbEntity
  8
0
  6
SLD-Durchgehend
 62
     8
370
     0
100
AcDbSpline
210
0.0
220
0.0
230
1.0
 70
     8
 71
     3
 72
    13
 73
     9
 74
     0
 42
0.000000001
 43
0.00000001
 40
0.0
 40
0.0
 40
0.0
 40
0.0
 40
0.2502145155346125
 40
0.3613307361465555
 40
0.4704423154806672
 40
0.5838652704685904
 40
0.7072906108785298
 40
1.0
 40
1.0
 40
1.0
 40
1.0
 10
78.31171049944889
 20
135.2209088838099
 30
0.0
 10
78.31121940594743
 20
135.2326267272469
 30
0.0
 10
78.31051022576251
 20
135.2495482754877
 30
0.0
 10
78.30616292450613
 20
135.2687733280941
 30
0.0
 10
78.30191883283776
 20
135.2801246384677
 30
0.0
 10
78.29652948138943
 20
135.2888416659704
 30
0.0
 10
78.28740099538543
 20
135.2976842098254
 30
0.0
 10
78.2797707197075
 20
135.2987706548462
 30
0.0
 10
78.27440357975495
 20
135.2995348608492
 30
0.0
  0
LINE
  5
358
330
1F
100
AcDbEntity
  8
0
  6
SLD-Durchgehend
 62
     8
370
     0
100
AcDbLine
 10
78.2744035798
 20
135.2995348608
 30
0.0
 11
78.2166001128
 21
135.2995348608
 31
0.0
  0
LINE
  5
359
330
1F
100
AcDbEntity
  8
0
  6
SLD-Durchgehend
 62
     8
370
     0
100
AcDbLine
 10
78.2166001128
 20
135.2995348608
 30
0.0
 11
78.2166001128
 21
135.1392784601
 31
0.0
  0
LINE
  5
35A
330
1F
100
AcDbEntity
  8
0
  6
SLD-Durchgehend
 62
     8
370
     0
100
AcDbLine
 10
77.9278444799
 20
133.8558358586
 30
0.0
 11
77.3072558197
 21
130.2219679093
 31
0.0
  0
LINE
  5
35B
330
1F
100
AcDbEntity
  8
0
  6
SLD-Durchgehend
 62
     8
370
     0
100
AcDbLine
 10
77.8733378949
 20
130.2219679093
 30
0.0
 11
77.3072558197
 21
130.2219679093
 31
0.0
  0
SPLINE
  5
35C
330
1F
100
AcDbEntity
  8
0
  6
SLD-Durchgehend
 62
     8
370
     0
100
AcDbSpline
210
0.0
220
0.0
230
1.0
 70
     8
 71
     3
 72
    11
 73
     7
 74
     0
 42
0.000000001
 43
0.00000001
 40
0.0
 40
0.0
 40
0.0
 40
0.0
 40
0.2501829804813884
 40
0.4999986289979065
 40
0.7498913570953772
 40
1.0
 40
1.0
 40
1.0
 40
1.0
 10
77.87333789489996
 20
130.2219679093359
 30
0.0
 10
77.90457232204018
 20
130.5160784455419
 30
0.0
 10
77.96699531627262
 20
131.1038676892143
 30
0.0
 10
78.00315824933061
 20
132.0255703558968
 30
0.0
 10
77.99622037401092
 20
132.9525850276462
 30
0.0
 10
77.95064300513945
 20
133.5546655831039
 30
0.0
 10
77.9278444799019
 20
133.8558358585833
 30
0.0
  0
SPLINE
  5
35D
330
1F
100
AcDbEntity
  8
0
  6
SLD-Durchgehend
 62
     8
370
     0
100
AcDbSpline
210
0.0
220
0.0
230
1.0
 70
     8
 71
     3
 72
    17
 73
    13
 74
     0
 42
0.000000001
 43
0.00000001
 40
0.0
 40
0.0
 40
0.0
 40
0.0
 40
0.0655675509713251
 40
0.1990433139911096
 40
0.3325408790323766
 40
0.4660175082428513
 40
0.5989933783038772
 40
0.7329363617048437
 40
0.8004165564590395
 40
0.8666175857817545
 40
0.9333289756317749
 40
1.0
 40
1.0
 40
1.0
 40
1.0
 10
76.94585423193705
 20
138.984657216668
 30
0.0
 10
76.94511222237506
 20
138.9798992786514
 30
0.0
 10
76.94285970508498
 20
138.9654556135068
 30
0.0
 10
76.97136146675643
 20
138.8236368264473
 30
0.0
 10
77.02579082568845
 20
138.5720572181555
 30
0.0
 10
77.10168897373758
 20
138.2155542325174
 30
0.0
 10
77.18947076307808
 20
137.7713930705143
 30
0.0
 10
77.2655309844657
 20
137.3325796431235
 30
0.0
 10
77.32385585202701
 20
136.9495063343673
 30
0.0
 10
77.36503297794316
 20
136.647132334085
 30
0.0
 10
77.40214771874143
 20
136.3315783508521
 30
0.0
 10
77.42355080084413
 20
136.1123090771988
 30
0.0
 10
77.43424910329115
 20
136.0027076190708
 30
0.0
  0
LINE
  5
35E
330
1F
100
AcDbEntity
  8
0
  6
SLD-Durchgehend
 62
     8
370
     0
100
AcDbLine
 10
77.7264813634
 20
136.0027076191
 30
0.0
 11
77.4342491033
 21
136.0027076191
 31
0.0
  0
SPLINE
  5
35F
330
1F
100
AcDbEntity
  8
0
  6
SLD-Durchgehend
 62
     8
370
     0
100
AcDbSpline
210
0.0
220
0.0
230
1.0
 70
     8
 71
     3
 72
    15
 73
    11
 74
     0
 42
0.000000001
 43
0.00000001
 40
0.0
 40
0.0
 40
0.0
 40
0.0
 40
0.0834395684491906
 40
0.165127263522668
 40
0.2451496284487054
 40
0.3282713576160013
 40
0.4101500871377003
 40
0.6149514898922026
 40
0.8197706263451887
 40
0.9999999999999999
 40
0.9999999999999999
 40
0.9999999999999999
 40
0.9999999999999999
 10
77.72648136339915
 20
136.0027076190708
 30
0.0
 10
77.69859376788939
 20
136.1572775434889
 30
0.0
 10
77.64340409686949
 20
136.4631720862874
 30
0.0
 10
77.56025722597835
 20
136.9023466407732
 30
0.0
 10
77.4721028879327
 20
137.3118011893364
 30
0.0
 10
77.38353417220169
 20
137.6935824435415
 30
0.0
 10
77.25383550879076
 20
138.2307970244082
 30
0.0
 10
77.09915800685319
 20
138.8344889765836
 30
0.0
 10
76.96529623532192
 20
139.373772665677
 30
0.0
 10
76.95309718801745
 20
139.536759411083
 30
0.0
 10
76.94738718889487
 20
139.6130484974383
 30
0.0
  0
SPLINE
  5
360
330
1F
100
AcDbEntity
  8
0
  6
SLD-Durchgehend
 62
     8
370
     0
100
AcDbSpline
210
0.0
220
0.0
230
1.0
 70
     8
 71
     3
 72
    12
 73
     8
 74
     0
 42
0.000000001
 43
0.00000001
 40
0.0
 40
0.0
 40
0.0
 40
0.0
 40
0.5004817781887869
 40
0.6256595815500816
 40
0.7505908501290255
 40
0.8753293094423478
 40
1.0
 40
1.0
 40
1.0
 40
1.0
 10
77.19578768335116
 20
127.9471799245475
 30
0.0
 10
77.19612209088645
 20
127.7838809601129
 30
0.0
 10
77.19654013863106
 20
127.579738539333
 30
0.0
 10
77.21028535076789
 20
127.3458662252234
 30
0.0
 10
77.2243624613688
 20
127.2506740192355
 30
0.0
 10
77.24324056525879
 20
127.1776453366022
 30
0.0
 10
77.25911040814601
 20
127.1692996026717
 30
0.0
 10
77.26704317353499
 20
127.1651278695462
 30
0.0
  0
SPLINE
  5
361
330
1F
100
AcDbEntity
  8
0
  6
SLD-Durchgehend
 62
     8
370
     0
100
AcDbSpline
210
0.0
220
0.0
230
1.0
 70
     8
 71
     3
 72
    12
 73
     8
 74
     0
 42
0.000000001
 43
0.00000001
 40
0.0
 40
0.0
 40
0.0
 40
0.0
 40
0.1246268401608296
 40
0.2493655964162194
 40
0.3742966209476989
 40
0.4994730031894807
 40
1.0
 40
1.0
 40
1.0
 40
1.0
 10
77.26704317353499
 20
127.1651278695462
 30
0.0
 10
77.27513869133973
 20
127.1695049892925
 30
0.0
 10
77.29133699680163
 20
127.1782631594805
 30
0.0
 10
77.31259766414075
 20
127.2504668916998
 30
0.0
 10
77.32900470526396
 20
127.3462349490488
 30
0.0
 10
77.34598433772265
 20
127.579607291893
 30
0.0
 10
77.34655430988109
 20
127.7838207842905
 30
0.0
 10
77.34701025508177
 20
127.9471799245475
 30
0.0
  0
SPLINE
  5
362
330
1F
100
AcDbEntity
  8
0
  6
SLD-Durchgehend
 62
     8
370
     0
100
AcDbSpline
210
0.0
220
0.0
230
1.0
 70
     8
 71
     3
 72
    12
 73
     8
 74
     0
 42
0.000000001
 43
0.00000001
 40
0.0
 40
0.0
 40
0.0
 40
0.0
 40
0.5004698440885449
 40
0.6256209012653955
 40
0.7505811403830237
 40
0.8752826642937122
 40
1.0
 40
1.0
 40
1.0
 40
1.0
 10
77.34701025508177
 20
127.9471799245475
 30
0.0
 10
77.34658569692795
 20
128.1111981483801
 30
0.0
 10
77.3460549707354
 20
128.3162319385879
 30
0.0
 10
77.32863812949667
 20
128.5494016661096
 30
0.0
 10
77.3124027236743
 20
128.6462208869579
 30
0.0
 10
77.2908767046904
 20
128.7176620774425
 30
0.0
 10
77.27462046546299
 20
128.7253745616551
 30
0.0
 10
77.26649183057081
 20
128.7292310482262
 30
0.0
  0
SPLINE
  5
363
330
1F
100
AcDbEntity
  8
0
  6
SLD-Durchgehend
 62
     8
370
     0
100
AcDbSpline
210
0.0
220
0.0
230
1.0
 70
     8
 71
     3
 72
    11
 73
     7
 74
     0
 42
0.000000001
 43
0.00000001
 40
0.0
 40
0.0
 40
0.0
 40
0.0
 40
0.2499759589181252
 40
0.4998277358757323
 40
0.7498120125339934
 40
1.0
 40
1.0
 40
1.0
 40
1.0
 10
77.26649183057081
 20
128.7292310482262
 30
0.0
 10
77.26142478248093
 20
128.727792719208
 30
0.0
 10
77.25129320348708
 20
128.7249167756984
 30
0.0
 10
77.23736852683874
 20
128.6967581858166
 30
0.0
 10
77.22535418295298
 20
128.6522610434882
 30
0.0
 10
77.21933195911812
 20
128.6122332125306
 30
0.0
 10
77.21631962083113
 20
128.5922111457585
 30
0.0
  0
SPLINE
  5
364
330
1F
100
AcDbEntity
  8
0
  6
SLD-Durchgehend
 62
     8
370
     0
100
AcDbSpline
210
0.0
220
0.0
230
1.0
 70
     8
 71
     3
 72
    10
 73
     6
 74
     0
 42
0.000000001
 43
0.00000001
 40
0.0
 40
0.0
 40
0.0
 40
0.0
 40
0.2494150233443262
 40
0.4995680086456403
 40
1.0
 40
1.0
 40
1.0
 40
1.0
 10
77.21631962083113
 20
128.5922111457585
 30
0.0
 10
77.21199082603809
 20
128.5424423208544
 30
0.0
 10
77.20332042853919
 20
128.4427574164868
 30
0.0
 10
77.19707876579048
 20
128.2229663310652
 30
0.0
 10
77.19630414233824
 20
128.0575000434038
 30
0.0
 10
77.19578768335116
 20
127.9471799245475
 30
0.0
  0
LINE
  5
365
330
1F
100
AcDbEntity
  8
0
  6
SLD-Durchgehend
 62
     8
370
     0
100
AcDbLine
 10
111.0420766028
 20
148.4100011623
 30
0.0
 11
111.0420766028
 21
143.0099991596
 31
0.0
  0
LINE
  5
366
330
1F
100
AcDbEntity
  8
0
  6
SLD-Durchgehend
 62
     8
370
     0
100
AcDbLine
 10
111.0420766028
 20
153.8099994397
 30
0.0
 11
111.0420766028
 21
148.4100011623
 31
0.0
  0
LINE
  5
367
330
1F
100
AcDbEntity
  8
0
  6
SLD-Durchgehend
 62
     8
370
     0
100
AcDbLine
 10
111.1420782956
 20
143.0099991596
 30
0.0
 11
111.1420782956
 21
153.8099994397
 31
0.0
  0
LINE
  5
368
330
1F
100
AcDbEntity
  8
0
  6
SLD-Durchgehend
 62
     8
370
     0
100
AcDbLine
 10
110.6586864891
 20
148.4100011623
 30
0.0
 11
110.6586864891
 21
153.0947176254
 31
0.0
  0
LINE
  5
369
330
1F
100
AcDbEntity
  8
0
  6
SLD-Durchgehend
 62
     8
370
     0
100
AcDbLine
 10
110.6586864891
 20
143.7252828366
 30
0.0
 11
110.6586864891
 21
148.4100011623
 31
0.0
  0
LINE
  5
36A
330
1F
100
AcDbEntity
  8
0
  6
SLD-Durchgehend
 62
     8
370
     0
100
AcDbLine
 10
93.5920773747
 20
186.3099982476
 30
0.0
 11
103.3420775758
 21
186.3099982476
 31
0.0
  0
LINE
  5
36B
330
1F
100
AcDbEntity
  8
0
  6
SLD-Durchgehend
 62
     8
370
     0
100
AcDbLine
 10
83.8420771735
 20
186.3099982476
 30
0.0
 11
93.5920773747
 21
186.3099982476
 31
0.0
  0
LINE
  5
36C
330
1F
100
AcDbEntity
  8
0
  6
SLD-Durchgehend
 62
     8
370
     0
100
AcDbLine
 10
93.5920773747
 20
217.3100014663
 30
0.0
 11
83.8420771735
 21
217.3100014663
 31
0.0
  0
LINE
  5
36D
330
1F
100
AcDbEntity
  8
0
  6
SLD-Durchgehend
 62
     8
370
     0
100
AcDbLine
 10
103.3420775758
 20
217.3100014663
 30
0.0
 11
93.5920773747
 21
217.3100014663
 31
0.0
  0
LINE
  5
36E
330
1F
100
AcDbEntity
  8
0
  6
SLD-Durchgehend
 62
     8
370
     0
100
AcDbLine
 10
93.8420773866
 20
218.3100034928
 30
0.0
 11
93.3420773628
 21
218.3100034928
 31
0.0
  0
LWPOLYLINE
  5
36F
330
1F
100
AcDbEntity
  8
0
  6
SLD-Durchgehend
 62
     8
370
     0
100
AcDbPolyline
 90
        9
 70
   128
 43
0.0
 10
93.8420773866
 20
218.3100034928
 10
93.8468810611
 20
218.2124530411
 10
93.8611074791
 20
218.1186576819
 10
93.8842099833
 20
218.0322160459
 10
93.915300674
 20
217.9564436412
 10
93.95318481
 20
217.8942685461
 10
93.9964065303
 20
217.8480600452
 10
94.0433047919
 20
217.8196062779
 10
94.0920773984
 20
217.8100024796
  0
LWPOLYLINE
  5
370
330
1F
100
AcDbEntity
  8
0
  6
SLD-Durchgehend
 62
     8
370
     0
100
AcDbPolyline
 90
        9
 70
   128
 43
0.0
 10
93.3420773628
 20
218.3100034928
 10
93.3372736883
 20
218.2124530411
 10
93.3230472703
 20
218.1186576819
 10
93.2999447661
 20
218.0322160459
 10
93.2688540753
 20
217.9564436412
 10
93.2309699394
 20
217.8942685461
 10
93.1877482191
 20
217.8480600452
 10
93.1408499575
 20
217.8196062779
 10
93.0920773509
 20
217.8100024796
  0
LINE
  5
371
330
1F
100
AcDbEntity
  8
0
  6
SLD-Durchgehend
 62
     8
370
     0
100
AcDbLine
 10
87.3420772815
 20
218.3100034928
 30
0.0
 11
93.3420773628
 21
218.3100034928
 31
0.0
  0
LWPOLYLINE
  5
372
330
1F
100
AcDbEntity
  8
0
  6
SLD-Durchgehend
 62
     8
370
     0
100
AcDbPolyline
 90
        9
 70
   128
 43
0.0
 10
87.3420772815
 20
218.3100034928
 10
87.3372735197
 20
218.2124530411
 10
87.3230471017
 20
218.1186576819
 10
87.2999447139
 20
218.0322160459
 10
87.2688539068
 20
217.9564436412
 10
87.2309700327
 20
217.8942685461
 10
87.1877482834
 20
217.8480600452
 10
87.1408501381
 20
217.8196062779
 10
87.0920772406
 20
217.8100024796
  0
LINE
  5
373
330
1F
100
AcDbEntity
  8
0
  6
SLD-Durchgehend
 62
     8
370
     0
100
AcDbLine
 10
93.8420773866
 20
218.3100034928
 30
0.0
 11
99.8420774678
 21
218.3100034928
 31
0.0
  0
LWPOLYLINE
  5
374
330
1F
100
AcDbEntity
  8
0
  6
SLD-Durchgehend
 62
     8
370
     0
100
AcDbPolyline
 90
        9
 70
   128
 43
0.0
 10
99.8420774678
 20
218.3100034928
 10
99.8468812297
 20
218.2124530411
 10
99.8611076476
 20
218.1186576819
 10
99.8842100354
 20
218.0322160459
 10
99.9153008426
 20
217.9564436412
 10
99.9531847166
 20
217.8942685461
 10
99.996406466
 20
217.8480600452
 10
100.0433046112
 20
217.8196062779
 10
100.0920775088
 20
217.8100024796
  0
LINE
  5
375
330
1F
100
AcDbEntity
  8
0
  6
SLD-Durchgehend
 62
     8
370
     0
100
AcDbLine
 10
93.8420773866
 20
220.3100000954
 30
0.0
 11
93.8420773866
 21
218.3100034928
 31
0.0
  0
LINE
  5
376
330
1F
100
AcDbEntity
  8
0
  6
SLD-Durchgehend
 62
     8
370
     0
100
AcDbLine
 10
93.3420773628
 20
218.3100034928
 30
0.0
 11
93.3420773628
 21
220.3100000954
 31
0.0
  0
LINE
  5
377
330
1F
100
AcDbEntity
  8
0
  6
SLD-Durchgehend
 62
     8
370
     0
100
AcDbLine
 10
93.3420773628
 20
220.3100000954
 30
0.0
 11
93.8420773866
 21
220.3100000954
 31
0.0
  0
LWPOLYLINE
  5
378
330
1F
100
AcDbEntity
  8
0
  6
SLD-Durchgehend
 62
     8
370
     0
100
AcDbPolyline
 90
        9
 70
   128
 43
0.0
 10
93.5920773747
 20
220.8100011086
 10
93.6408499557
 20
220.8003898597
 10
93.6877482356
 20
220.7719360924
 10
93.730969934
 20
220.7257350421
 10
93.76885407
 20
220.6635524964
 10
93.7999447753
 20
220.5877875423
 10
93.8230472649
 20
220.5013384557
 10
93.8372736829
 20
220.4075430965
 10
93.8420773866
 20
220.3100000954
  0
LWPOLYLINE
  5
379
330
1F
100
AcDbEntity
  8
0
  6
SLD-Durchgehend
 62
     8
370
     0
100
AcDbPolyline
 90
        9
 70
   128
 43
0.0
 10
93.5920773747
 20
220.8100011086
 10
93.5433047936
 20
220.8003898597
 10
93.4964065138
 20
220.7719360924
 10
93.4531848153
 20
220.7257350421
 10
93.4153006794
 20
220.6635524964
 10
93.3842099741
 20
220.5877875423
 10
93.3611074844
 20
220.5013384557
 10
93.3468810664
 20
220.4075430965
 10
93.3420773628
 20
220.3100000954
  0
LINE
  5
37A
330
1F
100
AcDbEntity
  8
0
  6
SLD-Durchgehend
 62
     8
370
     0
100
AcDbLine
 10
93.3420773628
 20
220.3100000954
 30
0.0
 11
87.3420772815
 21
220.3100000954
 31
0.0
  0
LINE
  5
37B
330
1F
100
AcDbEntity
  8
0
  6
SLD-Durchgehend
 62
     8
370
     0
100
AcDbLine
 10
87.3420772815
 20
220.3100000954
 30
0.0
 11
87.3420772815
 21
218.3100034928
 31
0.0
  0
LWPOLYLINE
  5
37C
330
1F
100
AcDbEntity
  8
0
  6
SLD-Durchgehend
 62
     8
370
     0
100
AcDbPolyline
 90
        9
 70
   128
 43
0.0
 10
87.5920773225
 20
220.8100011086
 10
87.5433048906
 20
220.8003898597
 10
87.4964067454
 20
220.7719360924
 10
87.453184996
 20
220.7257350421
 10
87.4153006563
 20
220.6635524964
 10
87.3842098492
 20
220.5877875423
 10
87.3611074614
 20
220.5013384557
 10
87.3468810434
 20
220.4075430965
 10
87.3420772815
 20
220.3100000954
  0
LWPOLYLINE
  5
37D
330
1F
100
AcDbEntity
  8
0
  6
SLD-Durchgehend
 62
     8
370
     0
100
AcDbPolyline
 90
        9
 70
   128
 43
0.0
 10
99.5920774268
 20
220.8100011086
 10
99.6408498587
 20
220.8003898597
 10
99.687748004
 20
220.7719360924
 10
99.7309697533
 20
220.7257350421
 10
99.768854093
 20
220.6635524964
 10
99.7999449002
 20
220.5877875423
 10
99.823047288
 20
220.5013384557
 10
99.837273706
 20
220.4075430965
 10
99.8420774678
 20
220.3100000954
  0
LINE
  5
37E
330
1F
100
AcDbEntity
  8
0
  6
SLD-Durchgehend
 62
     8
370
     0
100
AcDbLine
 10
99.8420774678
 20
220.3100000954
 30
0.0
 11
93.8420773866
 21
220.3100000954
 31
0.0
  0
LINE
  5
37F
330
1F
100
AcDbEntity
  8
0
  6
SLD-Durchgehend
 62
     8
370
     0
100
AcDbLine
 10
99.8420774678
 20
218.3100034928
 30
0.0
 11
99.8420774678
 21
220.3100000954
 31
0.0
  0
LINE
  5
380
330
1F
100
AcDbEntity
  8
0
  6
SLD-Durchgehend
 62
     8
370
     0
100
AcDbLine
 10
87.3420772815
 20
218.3100034928
 30
0.0
 11
87.0920772406
 21
218.3100034928
 31
0.0
  0
LINE
  5
381
330
1F
100
AcDbEntity
  8
0
  6
SLD-Durchgehend
 62
     8
370
     0
100
AcDbLine
 10
99.8420774678
 20
218.3100034928
 30
0.0
 11
100.0920775088
 21
218.3100034928
 31
0.0
  0
LINE
  5
382
330
1F
100
AcDbEntity
  8
0
  6
SLD-Durchgehend
 62
     8
370
     0
100
AcDbLine
 10
87.0920772406
 20
220.3100000954
 30
0.0
 11
87.3420772815
 21
220.3100000954
 31
0.0
  0
LINE
  5
383
330
1F
100
AcDbEntity
  8
0
  6
SLD-Durchgehend
 62
     8
370
     0
100
AcDbLine
 10
100.0920775088
 20
220.3100000954
 30
0.0
 11
99.8420774678
 21
220.3100000954
 31
0.0
  0
INSERT
  5
384
330
1F
100
AcDbEntity
  8
0
  6
Continuous
 62
     7
100
AcDbBlockReference
  2
Text Abluft
 10
120.4726146463
 20
198.9428481157
 30
0.0
  0
LEADER
  5
386
330
1F
100
AcDbEntity
  8
0
  6
Continuous
 62
     7
100
AcDbLeader
  3
SLDDIMSTYLE2
 76
     2
 10
94.6079751453
 20
186.31
 30
0.0
 10
120.4726146463
 20
198.9428481157
 30
0.0
  0
INSERT
  5
387
330
1F
100
AcDbEntity
  8
0
  6
Continuous
 62
     7
100
AcDbBlockReference
  2
Text Zuluft
 10
129.9907957703
 20
160.8362638573
 30
0.0
  0
LEADER
  5
388
330
1F
100
AcDbEntity
  8
0
  6
Continuous
 62
     7
100
AcDbLeader
  3
SLDDIMSTYLE2
 76
     2
 10
108.8420773747
 20
149.8114285714
 30
0.0
 10
126.9911649632
 20
158.1644717783
 30
0.0
212
-2.999630807073444
222
-2.671792078977433
232
0.0
  0
HATCH
  5
389
330
1F
100
AcDbEntity
  8
0
  6
SLD-Durchgehend
 62
     7
370
     0
100
AcDbHatch
 10
0.0
 20
0.0
 30
0.0
210
0.0
220
0.0
230
1.0
  2
ANSI31
 70
     0
 71
     0
 91
        1
 92
        0
 93
        9
 72
     4
 94
        3
 73
     1
 74
     0
 95
       11
 96
        7
 40
0.5400973137271835
 40
0.5400973137271835
 40
0.5400973137271835
 40
0.5400973137271835
 40
0.5604965553028622
 40
0.6381572149185223
 40
0.8229480687256691
 40
0.8569036280449409
 40
0.8569036280449409
 40
0.8569036280449409
 40
0.8569036280449409
 10
88.30661310868426
 20
128.6100000194789
 42
1.0
 10
87.9446657644049
 20
128.5127265011755
 42
1.0
 10
86.2598622878561
 20
127.8749492484086
 42
1.0
 10
82.6388259633517
 20
123.5758027666539
 42
1.0
 10
84.99439228726101
 20
118.6436786163878
 42
1.0
 10
85.08296998787176
 20
113.9641282610869
 42
1.0
 10
85.14003521983068
 20
113.3099999841312
 42
1.0
 72
     1
 10
85.14003521983068
 20
113.3099999841312
 11
86.59207737468014
 21
113.3099999999998
 72
     1
 10
86.59207737468014
 20
113.3099999999998
 11
86.59207737468014
 21
124.3099999999998
 72
     1
 10
86.59207737468014
 20
124.3099999999998
 11
90.84207737468016
 21
126.863657630867
 72
     1
 10
90.84207737468016
 20
126.863657630867
 11
95.09207737468016
 21
124.3099999999998
 72
     1
 10
95.09207737468016
 20
124.3099999999998
 11
95.09207737468016
 21
113.3099999999998
 72
     1
 10
95.09207737468016
 20
113.3099999999998
 11
97.50015750062579
 21
113.3100000195144
 72
     4
 94
        3
 73
     1
 74
     0
 95
       11
 96
        7
 40
0.1605301274319372
 40
0.1605301274319372
 40
0.1605301274319372
 40
0.1605301274319372
 40
0.2095296496362343
 40
0.3259071618634816
 40
0.4406445366001513
 40
0.4816886559601338
 40
0.4816886559601338
 40
0.4816886559601338
 40
0.4816886559601338
 10
97.50015750062579
 20
113.3100000195144
 42
1.0
 10
97.47876856817192
 20
114.2458571757999
 42
1.0
 10
96.9748344670942
 20
117.8975313897078
 42
1.0
 10
97.26921057355274
 20
122.2914361998547
 42
1.0
 10
94.95496394750568
 20
127.232858102298
 42
1.0
 10
92.27309554695385
 20
128.4225166946855
 42
1.0
 10
91.53031237997837
 20
128.6100000097723
 42
1.0
 72
     1
 10
91.53031237999325
 20
128.6100000097685
 11
88.30661310868426
 21
128.6100000194789
 97
        0
 75
     0
 76
     1
 52
90.0
 41
1.0
 77
     0
 78
     1
 53
135.0000000000002
 43
0.0
 44
0.0
 45
-2.245064030267281
 46
-2.245064030267296
 79
     0
 98
        1
 10
0.0
 20
0.0
  0
DIMENSION
  5
38A
330
1F
100
AcDbEntity
  8
0
  6
SLD-Durchgehend
 62
     7
370
     0
100
AcDbDimension
  2
_D_3
 10
95.8420773747
 20
102.91
 30
0.0
 11
90.8420773747
 21
102.91
 31
0.0
 70
   160
  1
M<>
 71
     2
 42
-1.0
  3
SLDDIMSTYLE1
100
AcDbAlignedDimension
 13
85.8420773747
 23
113.31
 33
0.0
 14
95.8420773747
 24
113.31
 34
0.0
100
AcDbRotatedDimension
  0
DIMENSION
  5
395
330
1F
100
AcDbEntity
  8
0
  6
SLD-Durchgehend
 62
     7
370
     0
100
AcDbDimension
  2
_D_4
 10
120.9587412501
 20
112.91
 30
0.0
 11
120.9587412501
 21
119.41
 31
0.0
 70
   160
  1
<>
 71
     2
 42
-1.0
  3
SLDDIMSTYLE1
100
AcDbAlignedDimension
 13
103.5073433822
 23
125.91
 33
0.0
 14
110.3420773747
 24
112.91
 34
0.0
 50
90.0
100
AcDbRotatedDimension
  0
DIMENSION
  5
39F
330
1F
100
AcDbEntity
  8
0
  6
SLD-Durchgehend
 62
     7
370
     0
100
AcDbDimension
  2
_D_5
 10
110.3420773747
 20
94.2275385574
 30
0.0
 11
100.5920773747
 21
94.2275385574
 31
0.0
 70
   160
  1
<>
 71
     2
 42
-1.0
  3
SLDDIMSTYLE1
100
AcDbAlignedDimension
 13
90.8420773747
 23
111.31
 33
0.0
 14
110.3420773747
 24
112.91
 34
0.0
100
AcDbRotatedDimension
  0
DIMENSION
  5
3A9
330
1F
100
AcDbEntity
  8
0
  6
SLD-Durchgehend
 62
     7
370
     0
100
AcDbDimension
  2
_D_6
 10
110.3420773747
 20
82.557852915
 30
0.0
 11
93.5920773747
 21
82.557852915
 31
0.0
 70
   160
  1
%%c<>
 71
     2
 42
-1.0
  3
SLDDIMSTYLE1
100
AcDbAlignedDimension
 13
76.8420773747
 23
112.91
 33
0.0
 14
110.3420773747
 24
119.41
 34
0.0
100
AcDbRotatedDimension
  0
DIMENSION
  5
3B4
330
1F
100
AcDbEntity
  8
0
  6
SLD-Durchgehend
 62
     7
370
     0
100
AcDbDimension
  2
_D_7
 10
142.3420773747
 20
148.41
 30
0.0
 11
142.3420773747
 21
130.66
 31
0.0
 70
   160
  1
<>
 71
     2
 42
-1.0
  3
SLDDIMSTYLE1
100
AcDbAlignedDimension
 13
110.3420773747
 23
112.91
 33
0.0
 14
136.8420773747
 24
148.41
 34
0.0
 50
90.0
100
AcDbRotatedDimension
  0
DIMENSION
  5
3BE
330
1F
100
AcDbEntity
  8
0
  6
SLD-Durchgehend
 62
     7
370
     0
100
AcDbDimension
  2
_D_8
 10
59.8420773747
 20
185.81
 30
0.0
 11
59.8420773747
 21
149.36
 31
0.0
 70
   160
  1
<>
 71
     2
 42
-1.0
  3
SLDDIMSTYLE3
100
AcDbAlignedDimension
 13
76.8420773747
 23
112.91
 33
0.0
 14
79.0920773747
 24
185.81
 34
0.0
 50
90.0
100
AcDbRotatedDimension
  0
DIMENSION
  5
3C9
330
1F
100
AcDbEntity
  8
0
  6
SLD-Durchgehend
 62
     7
370
     0
100
AcDbDimension
  2
_D_9
 10
48.5935110397
 20
220.81
 30
0.0
 11
48.5935110397
 21
166.86
 31
0.0
 70
   160
  1
<>
 71
     2
 42
-1.0
  3
SLDDIMSTYLE3
100
AcDbAlignedDimension
 13
76.8420773747
 23
112.91
 33
0.0
 14
87.5920773747
 24
220.81
 34
0.0
 50
90.0
100
AcDbRotatedDimension
  0
DIMENSION
  5
3D3
330
1F
100
AcDbEntity
  8
0
  6
SLD-Durchgehend
 62
     7
370
     0
100
AcDbDimension
  2
_D_10
 10
69.9480699193
 20
112.91
 30
0.0
 11
69.9480699193
 21
118.11
 31
0.0
 70
   160
  1
<>
 71
     2
 42
-1.0
  3
SLDDIMSTYLE3
100
AcDbAlignedDimension
 13
85.8420773747
 23
123.31
 33
0.0
 14
78.4420773747
 24
112.91
 34
0.0
 50
90.0
100
AcDbRotatedDimension
  0
LINE
  5
3DD
330
1F
100
AcDbEntity
  8
0
  6
SLD-Durchgehend
 62
     7
370
     0
100
AcDbLine
 10
95.8420772778
 20
113.3099999899
 30
0.0
 11
95.8420772778
 21
123.3100000283
 31
0.0
  0
LINE
  5
3DE
330
1F
100
AcDbEntity
  8
0
  6
SLD-Durchgehend
 62
     7
370
     0
100
AcDbLine
 10
85.8420775013
 20
123.3100000283
 30
0.0
 11
85.8420775013
 21
113.3099999899
 31
0.0
  0
LINE
  5
3DF
330
1F
100
AcDbEntity
  8
0
  6
SLD-Durchgehend
 62
     7
370
     0
100
AcDbLine
 10
86.5920771586
 20
123.3100000283
 30
0.0
 11
85.8420775013
 21
123.3100000283
 31
0.0
  0
LINE
  5
3E0
330
1F
100
AcDbEntity
  8
0
  6
SLD-Durchgehend
 62
     7
370
     0
100
AcDbLine
 10
95.8420772778
 20
123.3100000283
 30
0.0
 11
95.0920773877
 21
123.3100000283
 31
0.0
  0
LINE
  5
3E1
330
1F
100
AcDbEntity
  8
0
  6
SLD-Durchgehend
 62
     7
370
     0
100
AcDbLine
 10
95.0920581818
 20
123.3100000283
 30
0.0
 11
86.5920771586
 21
123.3100000283
 31
0.0
  0
LINE
  5
3E2
330
1F
100
AcDbEntity
  8
0
  6
SLD-Punktstrich
 62
     7
370
     0
100
AcDbLine
 10
90.8420773747
 20
126.31
 30
0.0
 11
90.8420773747
 21
111.31
 31
0.0
  0
LINE
  5
3E3
330
1F
100
AcDbEntity
  8
0
  6
SLD-Punktstrich
 62
     7
370
     0
100
AcDbLine
 10
93.5920773747
 20
110.91
 30
0.0
 11
93.5920773747
 21
223.4405227073
 31
0.0
  0
ENDSEC
  0
SECTION
  2
OBJECTS
  0
DICTIONARY
  5
C
330
0
100
AcDbDictionary
281
     1
  3
ACAD_GROUP
350
D
  3
ACAD_LAYOUT
350
1A
  3
ACAD_MLINESTYLE
350
17
  3
ACAD_PLOTSETTINGS
350
19
  3
ACAD_PLOTSTYLENAME
350
E
  3
ACAD_SCALELIST
350
47
  0
DICTIONARY
  5
D
102
{ACAD_REACTORS
330
C
102
}
330
C
100
AcDbDictionary
281
     1
  0
DICTIONARY
  5
1A
102
{ACAD_REACTORS
330
C
102
}
330
C
100
AcDbDictionary
281
     1
  3
Layout1
350
1E
  3
Layout2
350
26
  3
Model
350
22
  0
DICTIONARY
  5
17
102
{ACAD_REACTORS
330
C
102
}
330
C
100
AcDbDictionary
281
     1
  3
Standard
350
18
  0
DICTIONARY
  5
19
102
{ACAD_REACTORS
330
C
102
}
330
C
100
AcDbDictionary
281
     1
  0
ACDBDICTIONARYWDFLT
  5
E
102
{ACAD_REACTORS
330
C
102
}
330
C
100
AcDbDictionary
281
     1
  3
Normal
350
F
100
AcDbDictionaryWithDefault
340
F
  0
DICTIONARY
  5
47
102
{ACAD_REACTORS
330
C
102
}
330
C
100
AcDbDictionary
281
     1
  3
A0
350
48
  3
A1
350
49
  3
A2
350
4A
  3
A3
350
4B
  3
A4
350
4C
  3
A5
350
4D
  3
A6
350
4E
  3
A7
350
4F
  3
A8
350
50
  3
A9
350
51
  3
B0
350
52
  3
B1
350
53
  3
B2
350
54
  3
B3
350
55
  3
B4
350
56
  3
B5
350
57
  3
B6
350
58
  3
B7
350
59
  3
B8
350
5A
  3
B9
350
5B
  3
C0
350
5C
  3
C1
350
5D
  3
C2
350
5E
  3
C3
350
5F
  3
C4
350
60
  3
C5
350
61
  3
C6
350
62
  3
C7
350
63
  3
C8
350
64
  3
C9
350
65
  3
D0
350
66
  3
D1
350
67
  3
D2
350
68
  0
LAYOUT
  5
1E
102
{ACAD_REACTORS
330
1A
102
}
330
1A
100
AcDbPlotSettings
  1

  2
none_device
  4

  6

 40
0.0
 41
0.0
 42
0.0
 43
0.0
 44
0.0
 45
0.0
 46
0.0
 47
0.0
 48
0.0
 49
0.0
140
0.0
141
0.0
142
1.0
143
1.0
 70
   688
 72
     1
 73
     0
 74
     5
  7

 75
    16
147
1.0
148
0.0
149
0.0
100
AcDbLayout
  1
Layout1
 70
     1
 71
     1
 10
0.0
 20
0.0
 11
420.0
 21
297.0
 12
0.0
 22
0.0
 32
0.0
 14
1.0000000000E+20
 24
1.0000000000E+20
 34
1.0000000000E+20
 15
-1.0000000000E+20
 25
-1.0000000000E+20
 35
-1.0000000000E+20
146
0.0
 13
0.0
 23
0.0
 33
0.0
 16
1.0
 26
0.0
 36
0.0
 17
0.0
 27
1.0
 37
0.0
 76
     0
330
1B
  0
LAYOUT
  5
26
102
{ACAD_REACTORS
330
1A
102
}
330
1A
100
AcDbPlotSettings
  1

  2
none_device
  4

  6

 40
0.0
 41
0.0
 42
0.0
 43
0.0
 44
0.0
 45
0.0
 46
0.0
 47
0.0
 48
0.0
 49
0.0
140
0.0
141
0.0
142
1.0
143
1.0
 70
   688
 72
     1
 73
     0
 74
     5
  7

 75
    16
147
1.0
148
0.0
149
0.0
100
AcDbLayout
  1
Layout2
 70
     1
 71
     2
 10
0.0
 20
0.0
 11
0.0
 21
0.0
 12
0.0
 22
0.0
 32
0.0
 14
0.0
 24
0.0
 34
0.0
 15
0.0
 25
0.0
 35
0.0
146
0.0
 13
0.0
 23
0.0
 33
0.0
 16
1.0
 26
0.0
 36
0.0
 17
0.0
 27
1.0
 37
0.0
 76
     0
330
23
  0
LAYOUT
  5
22
102
{ACAD_REACTORS
330
1A
102
}
330
1A
100
AcDbPlotSettings
  1

  2
none_device
  4
Letter_(8.50_x_11.00_Inches)
  6

 40
6.35
 41
6.35
 42
6.35000508
 43
6.35000508
 44
215.9
 45
279.4
 46
0.0
 47
0.0
 48
0.0
 49
0.0
140
0.0
141
0.0
142
1.0
143
1.0
 70
  1712
 72
     1
 73
     0
 74
     0
  7

 75
     0
147
1.0
148
0.0
149
0.0
100
AcDbLayout
  1
Model
 70
     1
 71
     0
 10
0.0
 20
0.0
 11
210.0
 21
297.0
 12
0.0
 22
0.0
 32
0.0
 14
0.0
 24
0.0
 34
0.0
 15
210.0
 25
297.0
 35
0.0
146
0.0
 13
0.0
 23
0.0
 33
0.0
 16
1.0
 26
0.0
 36
0.0
 17
0.0
 27
1.0
 37
0.0
 76
     0
330
1F
331
29
  0
MLINESTYLE
  5
18
102
{ACAD_REACTORS
330
17
102
}
330
17
100
AcDbMlineStyle
  2
Standard
 70
     0
  3

 62
   256
 51
90.0
 52
90.0
 71
     2
 49
0.5
 62
   256
  6
BYLAYER
 49
-0.5
 62
   256
  6
BYLAYER
  0
ACDBPLACEHOLDER
  5
F
102
{ACAD_REACTORS
330
E
102
}
330
E
  0
SCALE
  5
48
102
{ACAD_REACTORS
330
47
102
}
330
47
100
AcDbScale
 70
     0
300
1:1
140
1.0
141
1.0
290
     1
  0
SCALE
  5
49
102
{ACAD_REACTORS
330
47
102
}
330
47
100
AcDbScale
 70
     0
300
1:2
140
1.0
141
2.0
290
     0
  0
SCALE
  5
4A
102
{ACAD_REACTORS
330
47
102
}
330
47
100
AcDbScale
 70
     0
300
1:4
140
1.0
141
4.0
290
     0
  0
SCALE
  5
4B
102
{ACAD_REACTORS
330
47
102
}
330
47
100
AcDbScale
 70
     0
300
1:5
140
1.0
141
5.0
290
     0
  0
SCALE
  5
4C
102
{ACAD_REACTORS
330
47
102
}
330
47
100
AcDbScale
 70
     0
300
1:8
140
1.0
141
8.0
290
     0
  0
SCALE
  5
4D
102
{ACAD_REACTORS
330
47
102
}
330
47
100
AcDbScale
 70
     0
300
1:10
140
1.0
141
10.0
290
     0
  0
SCALE
  5
4E
102
{ACAD_REACTORS
330
47
102
}
330
47
100
AcDbScale
 70
     0
300
1:16
140
1.0
141
16.0
290
     0
  0
SCALE
  5
4F
102
{ACAD_REACTORS
330
47
102
}
330
47
100
AcDbScale
 70
     0
300
1:20
140
1.0
141
20.0
290
     0
  0
SCALE
  5
50
102
{ACAD_REACTORS
330
47
102
}
330
47
100
AcDbScale
 70
     0
300
1:30
140
1.0
141
30.0
290
     0
  0
SCALE
  5
51
102
{ACAD_REACTORS
330
47
102
}
330
47
100
AcDbScale
 70
     0
300
1:40
140
1.0
141
40.0
290
     0
  0
SCALE
  5
52
102
{ACAD_REACTORS
330
47
102
}
330
47
100
AcDbScale
 70
     0
300
1:50
140
1.0
141
50.0
290
     0
  0
SCALE
  5
53
102
{ACAD_REACTORS
330
47
102
}
330
47
100
AcDbScale
 70
     0
300
1:100
140
1.0
141
100.0
290
     0
  0
SCALE
  5
54
102
{ACAD_REACTORS
330
47
102
}
330
47
100
AcDbScale
 70
     0
300
2:1
140
2.0
141
1.0
290
     0
  0
SCALE
  5
55
102
{ACAD_REACTORS
330
47
102
}
330
47
100
AcDbScale
 70
     0
300
4:1
140
4.0
141
1.0
290
     0
  0
SCALE
  5
56
102
{ACAD_REACTORS
330
47
102
}
330
47
100
AcDbScale
 70
     0
300
8:1
140
8.0
141
1.0
290
     0
  0
SCALE
  5
57
102
{ACAD_REACTORS
330
47
102
}
330
47
100
AcDbScale
 70
     0
300
10:1
140
10.0
141
1.0
290
     0
  0
SCALE
  5
58
102
{ACAD_REACTORS
330
47
102
}
330
47
100
AcDbScale
 70
     0
300
100:1
140
100.0
141
1.0
290
     0
  0
SCALE
  5
59
102
{ACAD_REACTORS
330
47
102
}
330
47
100
AcDbScale
 70
     0
300
1/128" = 1'-0"
140
0.0078125
141
12.0
290
     0
  0
SCALE
  5
5A
102
{ACAD_REACTORS
330
47
102
}
330
47
100
AcDbScale
 70
     0
300
1/64" = 1'-0"
140
0.015625
141
12.0
290
     0
  0
SCALE
  5
5B
102
{ACAD_REACTORS
330
47
102
}
330
47
100
AcDbScale
 70
     0
300
1/32" = 1'-0"
140
0.03125
141
12.0
290
     0
  0
SCALE
  5
5C
102
{ACAD_REACTORS
330
47
102
}
330
47
100
AcDbScale
 70
     0
300
1/16" = 1'-0"
140
0.0625
141
12.0
290
     0
  0
SCALE
  5
5D
102
{ACAD_REACTORS
330
47
102
}
330
47
100
AcDbScale
 70
     0
300
3/32" = 1'-0"
140
0.09375
141
12.0
290
     0
  0
SCALE
  5
5E
102
{ACAD_REACTORS
330
47
102
}
330
47
100
AcDbScale
 70
     0
300
1/8" = 1'-0"
140
0.125
141
12.0
290
     0
  0
SCALE
  5
5F
102
{ACAD_REACTORS
330
47
102
}
330
47
100
AcDbScale
 70
     0
300
3/16" = 1'-0"
140
0.1875
141
12.0
290
     0
  0
SCALE
  5
60
102
{ACAD_REACTORS
330
47
102
}
330
47
100
AcDbScale
 70
     0
300
1/4" = 1'-0"
140
0.25
141
12.0
290
     0
  0
SCALE
  5
61
102
{ACAD_REACTORS
330
47
102
}
330
47
100
AcDbScale
 70
     0
300
3/8" = 1'-0"
140
0.375
141
12.0
290
     0
  0
SCALE
  5
62
102
{ACAD_REACTORS
330
47
102
}
330
47
100
AcDbScale
 70
     0
300
1/2" = 1'-0"
140
0.5
141
12.0
290
     0
  0
SCALE
  5
63
102
{ACAD_REACTORS
330
47
102
}
330
47
100
AcDbScale
 70
     0
300
3/4" = 1'-0"
140
0.75
141
12.0
290
     0
  0
SCALE
  5
64
102
{ACAD_REACTORS
330
47
102
}
330
47
100
AcDbScale
 70
     0
300
1" = 1'-0"
140
1.0
141
12.0
290
     0
  0
SCALE
  5
65
102
{ACAD_REACTORS
330
47
102
}
330
47
100
AcDbScale
 70
     0
300
1-1/2" = 1'-0"
140
1.5
141
12.0
290
     0
  0
SCALE
  5
66
102
{ACAD_REACTORS
330
47
102
}
330
47
100
AcDbScale
 70
     0
300
3" = 1'-0"
140
3.0
141
12.0
290
     0
  0
SCALE
  5
67
102
{ACAD_REACTORS
330
47
102
}
330
47
100
AcDbScale
 70
     0
300
6" = 1'-0"
140
6.0
141
12.0
290
     0
  0
SCALE
  5
68
102
{ACAD_REACTORS
330
47
102
}
330
47
100
AcDbScale
 70
     0
300
1'-0" = 1'-0"
140
12.0
141
12.0
290
     0
  0
ENDSEC
  0
EOF
